  0
SECTION
  2
HEADER
  9
$ACADVER
  1
AC1018
  9
$ACADMAINTVER
 70
   104
  9
$DWGCODEPAGE
  3
ANSI_936
  9
$LASTSAVEDBY
  1
Benz
  9
$INSBASE
 10
0.0
 20
0.0
 30
0.0
  9
$EXTMIN
 10
664.7544189599561
 20
-523.8798894554952
 30
0.0
  9
$EXTMAX
 10
2565.259704280601
 20
758.500470296377
 30
0.0
  9
$LIMMIN
 10
0.0
 20
0.0
  9
$LIMMAX
 10
420.0
 20
297.0
  9
$ORTHOMODE
 70
     0
  9
$REGENMODE
 70
     1
  9
$FILLMODE
 70
     1
  9
$QTEXTMODE
 70
     0
  9
$MIRRTEXT
 70
     1
  9
$LTSCALE
 40
1.0
  9
$ATTMODE
 70
     1
  9
$TEXTSIZE
 40
52.12240561040995
  9
$TRACEWID
 40
1.0
  9
$TEXTSTYLE
  7
Standard
  9
$CLAYER
  8
图层1
  9
$CELTYPE
  6
ByLayer
  9
$CECOLOR
 62
   256
  9
$CELTSCALE
 40
1.0
  9
$DISPSILH
 70
     0
  9
$DIMSCALE
 40
1.0
  9
$DIMASZ
 40
12.0
  9
$DIMEXO
 40
4.0
  9
$DIMDLI
 40
3.75
  9
$DIMRND
 40
0.0
  9
$DIMDLE
 40
0.0
  9
$DIMEXE
 40
1.25
  9
$DIMTP
 40
0.0
  9
$DIMTM
 40
0.0
  9
$DIMTXT
 40
15.0
  9
$DIMCEN
 40
80.0
  9
$DIMTSZ
 40
0.0
  9
$DIMTOL
 70
     0
  9
$DIMLIM
 70
     0
  9
$DIMTIH
 70
     0
  9
$DIMTOH
 70
     1
  9
$DIMSE1
 70
     0
  9
$DIMSE2
 70
     0
  9
$DIMTAD
 70
     1
  9
$DIMZIN
 70
     8
  9
$DIMBLK
  1

  9
$DIMASO
 70
     1
  9
$DIMSHO
 70
     1
  9
$DIMPOST
  1

  9
$DIMAPOST
  1

  9
$DIMALT
 70
     1
  9
$DIMALTD
 70
     3
  9
$DIMALTF
 40
0.03937007874016
  9
$DIMLFAC
 40
1.0
  9
$DIMTOFL
 70
     1
  9
$DIMTVP
 40
0.0
  9
$DIMTIX
 70
     0
  9
$DIMSOXD
 70
     0
  9
$DIMSAH
 70
     0
  9
$DIMBLK1
  1

  9
$DIMBLK2
  1

  9
$DIMSTYLE
  2
ISO-25
  9
$DIMCLRD
 70
     0
  9
$DIMCLRE
 70
     0
  9
$DIMCLRT
 70
     0
  9
$DIMTFAC
 40
1.0
  9
$DIMGAP
 40
5.0
  9
$DIMJUST
 70
     0
  9
$DIMSD1
 70
     0
  9
$DIMSD2
 70
     0
  9
$DIMTOLJ
 70
     0
  9
$DIMTZIN
 70
     8
  9
$DIMALTZ
 70
     0
  9
$DIMALTTZ
 70
     0
  9
$DIMUPT
 70
     0
  9
$DIMDEC
 70
     2
  9
$DIMTDEC
 70
     2
  9
$DIMALTU
 70
     7
  9
$DIMALTTD
 70
     3
  9
$DIMTXSTY
  7
Standard
  9
$DIMAUNIT
 70
     0
  9
$DIMADEC
 70
     0
  9
$DIMALTRND
 40
0.0
  9
$DIMAZIN
 70
     0
  9
$DIMDSEP
 70
    46
  9
$DIMATFIT
 70
     3
  9
$DIMFRAC
 70
     0
  9
$DIMLDRBLK
  1

  9
$DIMLUNIT
 70
     2
  9
$DIMLWD
 70
    -2
  9
$DIMLWE
 70
    -2
  9
$DIMTMOVE
 70
     0
  9
$LUNITS
 70
     2
  9
$LUPREC
 70
     4
  9
$SKETCHINC
 40
1.0
  9
$FILLETRAD
 40
110.0
  9
$AUNITS
 70
     0
  9
$AUPREC
 70
     0
  9
$MENU
  1
.
  9
$ELEVATION
 40
0.0
  9
$PELEVATION
 40
0.0
  9
$THICKNESS
 40
0.0
  9
$LIMCHECK
 70
     0
  9
$CHAMFERA
 40
83.0
  9
$CHAMFERB
 40
83.0
  9
$CHAMFERC
 40
20.0
  9
$CHAMFERD
 40
0.0
  9
$SKPOLY
 70
     0
  9
$TDCREATE
 40
2453655.666387396
  9
$TDUCREATE
 40
2453655.333054062
  9
$TDUPDATE
 40
2456716.809338669
  9
$TDUUPDATE
 40
2456716.476005336
  9
$TDINDWG
 40
0.2896211111
  9
$TDUSRTIMER
 40
0.2896196065
  9
$USRTIMER
 70
     1
  9
$ANGBASE
 50
0.0
  9
$ANGDIR
 70
     0
  9
$PDMODE
 70
     0
  9
$PDSIZE
 40
0.0
  9
$PLINEWID
 40
0.0
  9
$SPLFRAME
 70
     0
  9
$SPLINETYPE
 70
     6
  9
$SPLINESEGS
 70
     8
  9
$HANDSEED
  5
20AC
  9
$SURFTAB1
 70
     6
  9
$SURFTAB2
 70
     6
  9
$SURFTYPE
 70
     6
  9
$SURFU
 70
     6
  9
$SURFV
 70
     6
  9
$UCSBASE
  2

  9
$UCSNAME
  2

  9
$UCSORG
 10
0.0
 20
0.0
 30
0.0
  9
$UCSXDIR
 10
1.0
 20
0.0
 30
0.0
  9
$UCSYDIR
 10
0.0
 20
1.0
 30
0.0
  9
$UCSORTHOREF
  2

  9
$UCSORTHOVIEW
 70
     0
  9
$UCSORGTOP
 10
0.0
 20
0.0
 30
0.0
  9
$UCSORGBOTTOM
 10
0.0
 20
0.0
 30
0.0
  9
$UCSORGLEFT
 10
0.0
 20
0.0
 30
0.0
  9
$UCSORGRIGHT
 10
0.0
 20
0.0
 30
0.0
  9
$UCSORGFRONT
 10
0.0
 20
0.0
 30
0.0
  9
$UCSORGBACK
 10
0.0
 20
0.0
 30
0.0
  9
$PUCSBASE
  2

  9
$PUCSNAME
  2

  9
$PUCSORG
 10
0.0
 20
0.0
 30
0.0
  9
$PUCSXDIR
 10
1.0
 20
0.0
 30
0.0
  9
$PUCSYDIR
 10
0.0
 20
1.0
 30
0.0
  9
$PUCSORTHOREF
  2

  9
$PUCSORTHOVIEW
 70
     0
  9
$PUCSORGTOP
 10
0.0
 20
0.0
 30
0.0
  9
$PUCSORGBOTTOM
 10
0.0
 20
0.0
 30
0.0
  9
$PUCSORGLEFT
 10
0.0
 20
0.0
 30
0.0
  9
$PUCSORGRIGHT
 10
0.0
 20
0.0
 30
0.0
  9
$PUCSORGFRONT
 10
0.0
 20
0.0
 30
0.0
  9
$PUCSORGBACK
 10
0.0
 20
0.0
 30
0.0
  9
$USERI1
 70
     0
  9
$USERI2
 70
     0
  9
$USERI3
 70
     0
  9
$USERI4
 70
     0
  9
$USERI5
 70
     0
  9
$USERR1
 40
0.0
  9
$USERR2
 40
0.0
  9
$USERR3
 40
0.0
  9
$USERR4
 40
0.0
  9
$USERR5
 40
0.0
  9
$WORLDVIEW
 70
     1
  9
$SHADEDGE
 70
     3
  9
$SHADEDIF
 70
    70
  9
$TILEMODE
 70
     1
  9
$MAXACTVP
 70
    64
  9
$PINSBASE
 10
0.0
 20
0.0
 30
0.0
  9
$PLIMCHECK
 70
     0
  9
$PEXTMIN
 10
0.0
 20
0.0
 30
0.0
  9
$PEXTMAX
 10
0.0
 20
0.0
 30
0.0
  9
$PLIMMIN
 10
0.0
 20
0.0
  9
$PLIMMAX
 10
12.0
 20
9.0
  9
$UNITMODE
 70
     0
  9
$VISRETAIN
 70
     1
  9
$PLINEGEN
 70
     0
  9
$PSLTSCALE
 70
     1
  9
$TREEDEPTH
 70
  3020
  9
$CMLSTYLE
  2
Standard
  9
$CMLJUST
 70
     0
  9
$CMLSCALE
 40
20.0
  9
$PROXYGRAPHICS
 70
     1
  9
$MEASUREMENT
 70
     1
  9
$CELWEIGHT
370
    -1
  9
$ENDCAPS
280
     0
  9
$JOINSTYLE
280
     0
  9
$LWDISPLAY
290
     0
  9
$INSUNITS
 70
     4
  9
$HYPERLINKBASE
  1

  9
$STYLESHEET
  1

  9
$XEDIT
290
     1
  9
$CEPSNTYPE
380
     0
  9
$PSTYLEMODE
290
     1
  9
$FINGERPRINTGUID
  2
{FDEAD578-A652-11D2-9A35-0060089B3A3F}
  9
$VERSIONGUID
  2
{B429B688-00B9-4A0C-B488-C4B4CB143ECB}
  9
$EXTNAMES
290
     1
  9
$PSVPSCALE
 40
0.0
  9
$OLESTARTUP
290
     0
  9
$SORTENTS
280
   127
  9
$INDEXCTL
280
     0
  9
$HIDETEXT
280
     1
  9
$XCLIPFRAME
290
     0
  9
$HALOGAP
280
     0
  9
$OBSCOLOR
 70
   257
  9
$OBSLTYPE
280
     0
  9
$INTERSECTIONDISPLAY
280
     0
  9
$INTERSECTIONCOLOR
 70
   257
  9
$DIMASSOC
280
     2
  9
$PROJECTNAME
  1

  0
ENDSEC
  0
SECTION
  2
CLASSES
  0
CLASS
  1
ACDBDICTIONARYWDFLT
  2
AcDbDictionaryWithDefault
  3
ObjectDBX Classes
 90
        0
 91
        1
280
     0
281
     0
  0
CLASS
  1
DICTIONARYVAR
  2
AcDbDictionaryVar
  3
ObjectDBX Classes
 90
        0
 91
        5
280
     0
281
     0
  0
CLASS
  1
DIMASSOC
  2
AcDbDimAssoc
  3
"AcDbDimAssoc|Product Desc:     AcDim ARX App For Dimension|Company:          Autodesk, Inc.|WEB Address:      www.autodesk.com"
 90
        0
 91
       10
280
     0
281
     0
  0
CLASS
  1
TABLESTYLE
  2
AcDbTableStyle
  3
ObjectDBX Classes
 90
     4095
 91
        1
280
     0
281
     0
  0
CLASS
  1
SORTENTSTABLE
  2
AcDbSortentsTable
  3
ObjectDBX Classes
 90
        0
 91
        1
280
     0
281
     0
  0
CLASS
  1
MATERIAL
  2
AcDbMaterial
  3
ObjectDBX Classes
 90
     1153
 91
        3
280
     0
281
     0
  0
CLASS
  1
VISUALSTYLE
  2
AcDbVisualStyle
  3
ObjectDBX Classes
 90
     4095
 91
       19
280
     0
281
     0
  0
CLASS
  1
SCALE
  2
AcDbScale
  3
ObjectDBX Classes
 90
     1153
 91
       17
280
     0
281
     0
  0
CLASS
  1
MLEADERSTYLE
  2
AcDbMLeaderStyle
  3
ACDB_MLEADERSTYLE_CLASS
 90
     4095
 91
        1
280
     0
281
     0
  0
CLASS
  1
CELLSTYLEMAP
  2
AcDbCellStyleMap
  3
ObjectDBX Classes
 90
     1152
 91
        1
280
     0
281
     0
  0
ENDSEC
  0
SECTION
  2
TABLES
  0
TABLE
  2
VPORT
  5
8
330
0
100
AcDbSymbolTable
 70
     1
  0
VPORT
  5
2027
330
8
100
AcDbSymbolTableRecord
100
AcDbViewportTableRecord
  2
*Active
 70
     0
 10
0.0
 20
0.0
 11
1.0
 21
1.0
 12
1675.595597542511
 22
-84.10801011153308
 13
0.0
 23
0.0
 14
10.0
 24
10.0
 15
10.0
 25
10.0
 16
0.0
 26
0.0
 36
1.0
 17
0.0
 27
0.0
 37
0.0
 40
714.4526571947235
 41
2.637741046831955
 42
50.0
 43
0.0
 44
0.0
 50
0.0
 51
0.0
 71
     0
 72
  1000
 73
     1
 74
     3
 75
     0
 76
     0
 77
     0
 78
     0
281
     0
 65
     1
110
0.0
120
0.0
130
0.0
111
1.0
121
0.0
131
0.0
112
0.0
122
1.0
132
0.0
 79
     0
146
0.0
  0
ENDTAB
  0
TABLE
  2
LTYPE
  5
5
330
0
100
AcDbSymbolTable
 70
     4
  0
LTYPE
  5
14
330
5
100
AcDbSymbolTableRecord
100
AcDbLinetypeTableRecord
  2
ByBlock
 70
     0
  3

 72
    65
 73
     0
 40
0.0
  0
LTYPE
  5
15
330
5
100
AcDbSymbolTableRecord
100
AcDbLinetypeTableRecord
  2
ByLayer
 70
     0
  3

 72
    65
 73
     0
 40
0.0
  0
LTYPE
  5
16
330
5
100
AcDbSymbolTableRecord
100
AcDbLinetypeTableRecord
  2
Continuous
 70
     0
  3
Solid line
 72
    65
 73
     0
 40
0.0
  0
LTYPE
  5
D3A
330
5
100
AcDbSymbolTableRecord
100
AcDbLinetypeTableRecord
  2
ACAD_ISO02W100
 70
     0
  3
ISO dash __ __ __ __ __ __ __ __ __ __ __ __ __
 72
    65
 73
     2
 40
15.0
 49
12.0
 74
     0
 49
-3.0
 74
     0
  0
LTYPE
  5
156F
330
5
100
AcDbSymbolTableRecord
100
AcDbLinetypeTableRecord
  2
DASHED
 70
     0
  3
Dashed __ __ __ __ __ __ __ __ __ __ __ __ __ _
 72
    65
 73
     2
 40
19.05
 49
12.7
 74
     0
 49
-6.349999999999999
 74
     0
  0
ENDTAB
  0
TABLE
  2
LAYER
  5
2
102
{ACAD_XDICTIONARY
360
1880
102
}
330
0
100
AcDbSymbolTable
 70
     6
  0
LAYER
  5
10
102
{ACAD_XDICTIONARY
360
2072
102
}
330
2
100
AcDbSymbolTableRecord
100
AcDbLayerTableRecord
  2
0
 70
     0
 62
     7
  6
Continuous
370
    -3
390
F
  0
LAYER
  5
7C
330
2
100
AcDbSymbolTableRecord
100
AcDbLayerTableRecord
  2
Defpoints
 70
     0
 62
     7
  6
Continuous
290
     0
370
    -3
390
F
  0
LAYER
  5
8C
102
{ACAD_XDICTIONARY
360
2074
102
}
330
2
100
AcDbSymbolTableRecord
100
AcDbLayerTableRecord
  2
图层1
 70
     0
 62
     7
  6
DASHED
370
    35
390
F
  0
LAYER
  5
8D
102
{ACAD_XDICTIONARY
360
2076
102
}
330
2
100
AcDbSymbolTableRecord
100
AcDbLayerTableRecord
  2
图层2
 70
     0
 62
     7
  6
Continuous
370
    35
390
F
  0
LAYER
  5
8E
102
{ACAD_XDICTIONARY
360
2078
102
}
330
2
100
AcDbSymbolTableRecord
100
AcDbLayerTableRecord
  2
图层3
 70
     0
 62
     7
  6
Continuous
370
    15
390
F
  0
LAYER
  5
4D4
102
{ACAD_XDICTIONARY
360
207A
102
}
330
2
100
AcDbSymbolTableRecord
100
AcDbLayerTableRecord
  2
图层4
 70
     0
 62
     7
  6
Continuous
370
    50
390
F
  0
ENDTAB
  0
TABLE
  2
STYLE
  5
3
330
0
100
AcDbSymbolTable
 70
     2
  0
STYLE
  5
11
330
3
100
AcDbSymbolTableRecord
100
AcDbTextStyleTableRecord
  2
Standard
 70
     0
 40
0.0
 41
1.0
 50
0.0
 71
     0
 42
52.12240561040995
  3
txt
  4

  0
STYLE
  5
D39
330
3
100
AcDbSymbolTableRecord
100
AcDbTextStyleTableRecord
  2

 70
     1
 40
0.0
 41
1.0
 50
0.0
 71
     0
 42
2.5
  3
ltypeshp.shx
  4

  0
ENDTAB
  0
TABLE
  2
VIEW
  5
6
330
0
100
AcDbSymbolTable
 70
     0
  0
ENDTAB
  0
TABLE
  2
UCS
  5
7
330
0
100
AcDbSymbolTable
 70
     0
  0
ENDTAB
  0
TABLE
  2
APPID
  5
9
330
0
100
AcDbSymbolTable
 70
     4
  0
APPID
  5
12
330
9
100
AcDbSymbolTableRecord
100
AcDbRegAppTableRecord
  2
ACAD
 70
     0
  0
APPID
  5
1916
330
9
100
AcDbSymbolTableRecord
100
AcDbRegAppTableRecord
  2
ACAD_DSTYLE_DIMTEXT_FILL
 70
     0
  0
APPID
  5
206F
330
9
100
AcDbSymbolTableRecord
100
AcDbRegAppTableRecord
  2
ACAD_EXEMPT_FROM_CAD_STANDARDS
 70
     0
  0
APPID
  5
20AB
330
9
100
AcDbSymbolTableRecord
100
AcDbRegAppTableRecord
  2
ACAD_MLEADERVER
 70
     0
  0
ENDTAB
  0
TABLE
  2
DIMSTYLE
  5
A
330
0
100
AcDbSymbolTable
 70
     1
100
AcDbDimStyleTable
 71
     1
340
27
  0
DIMSTYLE
105
27
102
{ACAD_REACTORS
330
1F29
330
1F41
330
1F59
330
1F82
330
1F93
330
1FB6
330
1FC7
330
1FD8
330
1FE9
330
200C
102
}
330
A
100
AcDbSymbolTableRecord
100
AcDbDimStyleTableRecord
  2
ISO-25
 70
     0
 41
12.0
 42
4.0
 43
3.75
 44
1.25
 73
     0
 77
     1
 78
     8
140
15.0
141
80.0
143
0.03937007874016
147
5.0
170
     1
171
     3
172
     1
271
     2
272
     2
273
     7
274
     3
283
     0
284
     8
340
11
  0
ENDTAB
  0
TABLE
  2
BLOCK_RECORD
  5
1
330
0
100
AcDbSymbolTable
 70
    25
  0
BLOCK_RECORD
  5
1F
102
{ACAD_XDICTIONARY
360
188B
102
}
330
1
100
AcDbSymbolTableRecord
100
AcDbBlockTableRecord
  2
*Model_Space
340
22
  0
BLOCK_RECORD
  5
50
330
1
100
AcDbSymbolTableRecord
100
AcDbBlockTableRecord
  2
*Paper_Space
340
51
  0
BLOCK_RECORD
  5
55
330
1
100
AcDbSymbolTableRecord
100
AcDbBlockTableRecord
  2
*Paper_Space0
340
56
  0
BLOCK_RECORD
  5
327
330
1
100
AcDbSymbolTableRecord
100
AcDbBlockTableRecord
  2
a
340
0
  0
BLOCK_RECORD
  5
1F2A
330
1
100
AcDbSymbolTableRecord
100
AcDbBlockTableRecord
  2
*D14
340
0
  0
BLOCK_RECORD
  5
1F42
330
1
100
AcDbSymbolTableRecord
100
AcDbBlockTableRecord
  2
*D15
340
0
  0
BLOCK_RECORD
  5
1F5A
330
1
100
AcDbSymbolTableRecord
100
AcDbBlockTableRecord
  2
*D16
340
0
  0
BLOCK_RECORD
  5
1F83
330
1
100
AcDbSymbolTableRecord
100
AcDbBlockTableRecord
  2
*D18
340
0
  0
BLOCK_RECORD
  5
1F94
330
1
100
AcDbSymbolTableRecord
100
AcDbBlockTableRecord
  2
*D19
340
0
  0
BLOCK_RECORD
  5
1FB7
330
1
100
AcDbSymbolTableRecord
100
AcDbBlockTableRecord
  2
*D20
340
0
  0
BLOCK_RECORD
  5
1FC8
330
1
100
AcDbSymbolTableRecord
100
AcDbBlockTableRecord
  2
*D21
340
0
  0
BLOCK_RECORD
  5
1FD9
330
1
100
AcDbSymbolTableRecord
100
AcDbBlockTableRecord
  2
*D22
340
0
  0
BLOCK_RECORD
  5
1FEA
330
1
100
AcDbSymbolTableRecord
100
AcDbBlockTableRecord
  2
*D23
340
0
  0
BLOCK_RECORD
  5
200D
330
1
100
AcDbSymbolTableRecord
100
AcDbBlockTableRecord
  2
*D24
340
0
  0
ENDTAB
  0
ENDSEC
  0
SECTION
  2
BLOCKS
  0
BLOCK
  5
20
330
1F
100
AcDbEntity
  8
0
100
AcDbBlockBegin
  2
*Model_Space
 70
     0
 10
0.0
 20
0.0
 30
0.0
  3
*Model_Space
  1

  0
ENDBLK
  5
21
330
1F
100
AcDbEntity
  8
0
100
AcDbBlockEnd
  0
BLOCK
  5
52
330
50
100
AcDbEntity
 67
     1
  8
0
100
AcDbBlockBegin
  2
*Paper_Space
 70
     0
 10
0.0
 20
0.0
 30
0.0
  3
*Paper_Space
  1

  0
ENDBLK
  5
53
330
50
100
AcDbEntity
 67
     1
  8
0
100
AcDbBlockEnd
  0
BLOCK
  5
57
330
55
100
AcDbEntity
 67
     1
  8
0
100
AcDbBlockBegin
  2
*Paper_Space0
 70
     0
 10
0.0
 20
0.0
 30
0.0
  3
*Paper_Space0
  1

  0
ENDBLK
  5
58
330
55
100
AcDbEntity
 67
     1
  8
0
100
AcDbBlockEnd
  0
BLOCK
  5
33A
330
327
100
AcDbEntity
  8
0
100
AcDbBlockBegin
  2
a
 70
     0
 10
0.0
 20
0.0
 30
0.0
  3
a
  1

  0
LINE
  5
328
330
327
100
AcDbEntity
  8
图层3
100
AcDbLine
 10
-51.58183479263425
 20
5.069342261306474
 30
0.0
 11
128.4181652073657
 21
5.069342261306474
 31
0.0
  0
LINE
  5
329
330
327
100
AcDbEntity
  8
图层3
100
AcDbLine
 10
-51.58183479263425
 20
-4.930657738693525
 30
0.0
 11
128.4181652073657
 21
-4.930657738693525
 31
0.0
  0
LINE
  5
32A
330
327
100
AcDbEntity
  8
图层3
100
AcDbLine
 10
-51.58183479263425
 20
-14.93065773869352
 30
0.0
 11
128.4181652073657
 21
-14.93065773869352
 31
0.0
  0
LINE
  5
32B
330
327
100
AcDbEntity
  8
图层3
100
AcDbLine
 10
-51.58183479263425
 20
-24.93065773869353
 30
0.0
 11
128.4181652073657
 21
-24.93065773869353
 31
0.0
  0
LINE
  5
32C
330
327
100
AcDbEntity
  8
图层3
100
AcDbLine
 10
-51.58183479263425
 20
-34.93065773869353
 30
0.0
 11
128.4181652073657
 21
-34.93065773869353
 31
0.0
  0
LINE
  5
32D
330
327
100
AcDbEntity
  8
图层3
100
AcDbLine
 10
-51.58183479263425
 20
5.069342261306474
 30
0.0
 11
-51.58183479263425
 21
-34.93065773869353
 31
0.0
  0
LINE
  5
32E
330
327
100
AcDbEntity
  8
图层3
100
AcDbLine
 10
128.4181652073657
 20
5.069342261306474
 30
0.0
 11
128.4181652073657
 21
-34.93065773869353
 31
0.0
  0
LINE
  5
32F
330
327
100
AcDbEntity
  8
图层3
100
AcDbLine
 10
-31.58183479263426
 20
-4.930657738693525
 30
0.0
 11
-31.58183479263426
 21
-34.93065773869353
 31
0.0
  0
LINE
  5
330
330
327
100
AcDbEntity
  8
图层3
100
AcDbLine
 10
78.41816520736575
 20
-4.930657738693469
 30
0.0
 11
78.41816520736575
 21
-24.93065773869353
 31
0.0
  0
LINE
  5
331
330
327
100
AcDbEntity
  8
图层3
100
AcDbLine
 10
58.41816520736575
 20
-4.930657738693525
 30
0.0
 11
58.41816520736575
 21
-34.93065773869353
 31
0.0
  0
LINE
  5
332
330
327
100
AcDbEntity
  8
图层3
100
AcDbLine
 10
38.41816520736586
 20
-24.93065773869364
 30
0.0
 11
38.41816520736575
 21
-34.93065773869364
 31
0.0
  0
MTEXT
  5
333
330
327
100
AcDbEntity
  8
图层3
100
AcDbMText
 10
-7.991267257440085
 20
3.638071533116089
 30
0.0
 40
5.0
 41
129.0054
 71
     1
 72
     5
  1
{\f幼圆|b0|i0|c134|p49;江门市蓬江区荷塘合和五金厂}
 73
     1
 44
1.0
  0
MTEXT
  5
334
330
327
100
AcDbEntity
  8
图层3
100
AcDbMText
 10
-48.26895764370283
 20
-6.568323419867056
 30
0.0
 40
5.0
 41
16.6364
 71
     1
 72
     5
  1
{\f幼圆|b0|i0|c134|p49;名称}
 73
     1
 44
1.0
  0
MTEXT
  5
335
330
327
100
AcDbEntity
  8
图层3
100
AcDbMText
 10
-47.9770915309241
 20
-16.19149345429582
 30
0.0
 40
5.0
 41
15.1771
 71
     1
 72
     5
  1
{\f幼圆|b0|i0|c134|p49;材料}
 73
     1
 44
1.0
  0
MTEXT
  5
336
330
327
100
AcDbEntity
  8
图层3
100
AcDbMText
 10
-48.26895764370283
 20
-26.10627442497457
 30
0.0
 40
5.0
 41
16.3446
 71
     1
 72
     5
  1
{\f幼圆|b0|i0|c134|p49;日期}
 73
     1
 44
1.0
  0
MTEXT
  5
337
330
327
100
AcDbEntity
  8
图层3
100
AcDbMText
 10
61.76502632027404
 20
-6.276710960589753
 30
0.0
 40
5.0
 41
16.3446
 71
     1
 72
     5
  1
{\f幼圆|b0|i0|c134|p49;型号}
 73
     1
 44
1.0
  0
MTEXT
  5
338
330
327
100
AcDbEntity
  8
图层3
100
AcDbMText
 10
61.76502632027404
 20
-16.19149193126873
 30
0.0
 40
5.0
 41
16.0527
 71
     1
 72
     5
  1
{\f幼圆|b0|i0|c134|p49;图号}
 73
     1
 44
1.0
  0
MTEXT
  5
339
330
327
100
AcDbEntity
  8
图层3
100
AcDbMText
 10
41.62617975974217
 20
-26.10627594800144
 30
0.0
 40
5.0
 41
16.9283
 71
     1
 72
     5
  1
{\f幼圆|b0|i0|c134|p49;编号}
 73
     1
 44
1.0
  0
ENDBLK
  5
33B
330
327
100
AcDbEntity
  8
0
100
AcDbBlockEnd
  0
BLOCK
  5
1F34
330
1F2A
100
AcDbEntity
  8
0
100
AcDbBlockBegin
  2
*D14
 70
     1
 10
0.0
 20
0.0
 30
0.0
  3
*D14
  1

  0
LINE
  5
1F37
330
1F2A
100
AcDbEntity
  8
图层3
 62
     0
370
    -2
100
AcDbLine
 10
1430.7354216438
 20
294.8312963366611
 30
0.0
 11
1174.739374327353
 21
294.8312963366612
 31
0.0
  0
LINE
  5
1F38
330
1F2A
100
AcDbEntity
  8
图层3
 62
     0
370
    -2
100
AcDbLine
 10
1340.308331795995
 20
-195.1687036633388
 30
0.0
 11
1174.739374327353
 21
-195.1687036633388
 31
0.0
  0
LINE
  5
1F39
330
1F2A
100
AcDbEntity
  8
图层3
 62
     0
370
    -2
100
AcDbLine
 10
1175.989374327353
 20
282.8312963366612
 30
0.0
 11
1175.989374327353
 21
-183.1687036633388
 31
0.0
  0
SOLID
  5
1F3A
330
1F2A
100
AcDbEntity
  8
图层3
 62
     0
100
AcDbTrace
 10
1173.989374327353
 20
282.8312963366612
 30
0.0
 11
1177.989374327353
 21
282.8312963366612
 31
0.0
 12
1175.989374327353
 22
294.8312963366612
 32
0.0
 13
1175.989374327353
 23
294.8312963366612
 33
0.0
  0
SOLID
  5
1F3B
330
1F2A
100
AcDbEntity
  8
图层3
 62
     0
100
AcDbTrace
 10
1173.989374327353
 20
-183.1687036633388
 30
0.0
 11
1177.989374327353
 21
-183.1687036633388
 31
0.0
 12
1175.989374327353
 22
-195.1687036633388
 32
0.0
 13
1175.989374327353
 23
-195.1687036633388
 33
0.0
  0
MTEXT
  5
1F3C
330
1F2A
100
AcDbEntity
  8
图层3
 62
     0
100
AcDbMText
 10
1163.489374327353
 20
49.83129633666138
 30
0.0
 40
15.0
 41
0.0
 71
     5
 72
     1
  1
490 [19 1/4]
 11
0.0000000000000001
 21
1.0
 31
0.0
 73
     1
 44
1.0
  0
POINT
  5
1F3D
330
1F2A
100
AcDbEntity
  8
Defpoints
 62
     0
100
AcDbPoint
 10
1434.7354216438
 20
294.8312963366611
 30
0.0
  0
POINT
  5
1F3E
330
1F2A
100
AcDbEntity
  8
Defpoints
 62
     0
100
AcDbPoint
 10
1344.308331795995
 20
-195.1687036633389
 30
0.0
  0
POINT
  5
1F3F
330
1F2A
100
AcDbEntity
  8
Defpoints
 62
     0
100
AcDbPoint
 10
1175.989374327353
 20
-195.1687036633388
 30
0.0
  0
ENDBLK
  5
1F35
330
1F2A
100
AcDbEntity
  8
0
100
AcDbBlockEnd
  0
BLOCK
  5
1F4C
330
1F42
100
AcDbEntity
  8
0
100
AcDbBlockBegin
  2
*D15
 70
     1
 10
0.0
 20
0.0
 30
0.0
  3
*D15
  1

  0
LINE
  5
1F4F
330
1F42
100
AcDbEntity
  8
图层3
 62
     0
370
    -2
100
AcDbLine
 10
1229.735702570395
 20
52.74377581302886
 30
0.0
 11
1229.735702570395
 21
329.5120544740271
 31
0.0
  0
LINE
  5
1F50
330
1F42
100
AcDbEntity
  8
图层3
 62
     0
370
    -2
100
AcDbLine
 10
1934.735421643798
 20
16.33129633666112
 30
0.0
 11
1934.735421643798
 21
329.5120544740271
 31
0.0
  0
LINE
  5
1F51
330
1F42
100
AcDbEntity
  8
图层3
 62
     0
370
    -2
100
AcDbLine
 10
1241.735702570395
 20
328.2620544740271
 30
0.0
 11
1922.735421643798
 21
328.2620544740271
 31
0.0
  0
SOLID
  5
1F52
330
1F42
100
AcDbEntity
  8
图层3
 62
     0
100
AcDbTrace
 10
1241.735702570395
 20
330.2620544740271
 30
0.0
 11
1241.735702570395
 21
326.2620544740271
 31
0.0
 12
1229.735702570395
 22
328.2620544740271
 32
0.0
 13
1229.735702570395
 23
328.2620544740271
 33
0.0
  0
SOLID
  5
1F53
330
1F42
100
AcDbEntity
  8
图层3
 62
     0
100
AcDbTrace
 10
1922.735421643798
 20
330.2620544740271
 30
0.0
 11
1922.735421643798
 21
326.2620544740271
 31
0.0
 12
1934.735421643798
 22
328.2620544740271
 32
0.0
 13
1934.735421643798
 23
328.2620544740271
 33
0.0
  0
MTEXT
  5
1F54
330
1F42
100
AcDbEntity
  8
图层3
 62
     0
100
AcDbMText
 10
1582.235562107097
 20
340.7620544740271
 30
0.0
 40
15.0
 41
0.0
 71
     5
 72
     1
  1
705 [27 3/4]
 73
     1
 44
1.0
  0
POINT
  5
1F55
330
1F42
100
AcDbEntity
  8
Defpoints
 62
     0
100
AcDbPoint
 10
1229.735702570395
 20
48.74377581302885
 30
0.0
  0
POINT
  5
1F56
330
1F42
100
AcDbEntity
  8
Defpoints
 62
     0
100
AcDbPoint
 10
1934.735421643798
 20
12.33129633666112
 30
0.0
  0
POINT
  5
1F57
330
1F42
100
AcDbEntity
  8
Defpoints
 62
     0
100
AcDbPoint
 10
1934.735421643798
 20
328.2620544740271
 30
0.0
  0
ENDBLK
  5
1F4D
330
1F42
100
AcDbEntity
  8
0
100
AcDbBlockEnd
  0
BLOCK
  5
1F64
330
1F5A
100
AcDbEntity
  8
0
100
AcDbBlockBegin
  2
*D16
 70
     1
 10
0.0
 20
0.0
 30
0.0
  3
*D16
  1

  0
LINE
  5
1F67
330
1F5A
100
AcDbEntity
  8
图层3
 62
     0
370
    -2
100
AcDbLine
 10
1840.870159261781
 20
219.8312963366611
 30
0.0
 11
2010.551672816941
 21
219.831296336661
 31
0.0
  0
LINE
  5
1F68
330
1F5A
100
AcDbEntity
  8
图层3
 62
     0
370
    -2
100
AcDbLine
 10
1840.87015926178
 20
-195.1687036633388
 30
0.0
 11
2010.551672816941
 21
-195.1687036633389
 31
0.0
  0
LINE
  5
1F69
330
1F5A
100
AcDbEntity
  8
图层3
 62
     0
370
    -2
100
AcDbLine
 10
2009.301672816941
 20
207.8312963366611
 30
0.0
 11
2009.301672816941
 21
-183.1687036633389
 31
0.0
  0
SOLID
  5
1F6A
330
1F5A
100
AcDbEntity
  8
图层3
 62
     0
100
AcDbTrace
 10
2007.301672816941
 20
207.8312963366611
 30
0.0
 11
2011.301672816941
 21
207.8312963366611
 31
0.0
 12
2009.301672816941
 22
219.831296336661
 32
0.0
 13
2009.301672816941
 23
219.831296336661
 33
0.0
  0
SOLID
  5
1F6B
330
1F5A
100
AcDbEntity
  8
图层3
 62
     0
100
AcDbTrace
 10
2007.301672816941
 20
-183.1687036633389
 30
0.0
 11
2011.301672816941
 21
-183.1687036633389
 31
0.0
 12
2009.301672816941
 22
-195.1687036633389
 32
0.0
 13
2009.301672816941
 23
-195.1687036633389
 33
0.0
  0
MTEXT
  5
1F6C
330
1F5A
100
AcDbEntity
  8
图层3
 62
     0
100
AcDbMText
 10
1996.801672816941
 20
12.33129633666141
 30
0.0
 40
15.0
 41
0.0
 71
     5
 72
     1
  1
415 [16 3/8]
 11
0.0000000000000001
 21
1.0
 31
0.0
 73
     1
 44
1.0
  0
POINT
  5
1F6D
330
1F5A
100
AcDbEntity
  8
Defpoints
 62
     0
100
AcDbPoint
 10
1836.870159261781
 20
219.8312963366611
 30
0.0
  0
POINT
  5
1F6E
330
1F5A
100
AcDbEntity
  8
Defpoints
 62
     0
100
AcDbPoint
 10
1836.870159261781
 20
-195.1687036633388
 30
0.0
  0
POINT
  5
1F6F
330
1F5A
100
AcDbEntity
  8
Defpoints
 62
     0
100
AcDbPoint
 10
2009.301672816941
 20
-195.1687036633389
 30
0.0
  0
ENDBLK
  5
1F65
330
1F5A
100
AcDbEntity
  8
0
100
AcDbBlockEnd
  0
BLOCK
  5
1F89
330
1F83
100
AcDbEntity
  8
0
100
AcDbBlockBegin
  2
*D18
 70
     1
 10
0.0
 20
0.0
 30
0.0
  3
*D18
  1

  0
LINE
  5
1F8C
330
1F83
100
AcDbEntity
  8
图层3
 62
     0
370
    -2
100
AcDbLine
 10
1518.554954382269
 20
180.7723001832274
 30
0.0
 11
1346.054954382269
 21
180.7723001832273
 31
0.0
  0
LINE
  5
1F8D
330
1F83
100
AcDbEntity
  8
图层3
 62
     0
370
    -2
100
AcDbLine
 10
1346.054954382269
 20
180.7723001832273
 30
0.0
 11
1276.993505040786
 21
254.1281364531098
 31
0.0
  0
MTEXT
  5
1F8E
330
1F83
100
AcDbEntity
  8
图层3
 62
     0
100
AcDbMText
 10
1434.804954382269
 20
193.2723001832274
 30
0.0
 40
15.0
 41
0.0
 71
     5
 72
     1
  1
R110 [R4 3/8]
 73
     1
 44
1.0
  0
SOLID
  5
1F8F
330
1F83
100
AcDbEntity
  8
图层3
 62
     0
100
AcDbTrace
 10
1278.449700301727
 20
255.4990833383006
 30
0.0
 11
1275.537309779846
 21
252.7571895679191
 31
0.0
 12
1268.767823729642
 22
262.8653080187534
 32
0.0
 13
1268.767823729642
 23
262.8653080187534
 33
0.0
  0
POINT
  5
1F90
330
1F83
100
AcDbEntity
  8
Defpoints
 62
     0
100
AcDbPoint
 10
1268.767823729642
 20
262.8653080187534
 30
0.0
  0
POINT
  5
1F91
330
1F83
100
AcDbEntity
  8
Defpoints
 62
     0
100
AcDbPoint
 10
1344.169902415132
 20
182.7745686670209
 30
0.0
  0
ENDBLK
  5
1F8A
330
1F83
100
AcDbEntity
  8
0
100
AcDbBlockEnd
  0
BLOCK
  5
1F9A
330
1F94
100
AcDbEntity
  8
0
100
AcDbBlockBegin
  2
*D19
 70
     1
 10
0.0
 20
0.0
 30
0.0
  3
*D19
  1

  0
LINE
  5
1FB0
330
1F94
100
AcDbEntity
  8
图层3
 62
     0
370
    -2
100
AcDbLine
 10
1385.558882073157
 20
221.4148658527349
 30
0.0
 11
1558.058882073156
 21
221.4148658527347
 31
0.0
  0
LINE
  5
1FB1
330
1F94
100
AcDbEntity
  8
图层3
 62
     0
370
    -2
100
AcDbLine
 10
1558.058882073156
 20
221.4148658527347
 30
0.0
 11
1588.673494664017
 21
257.5269560933589
 31
0.0
  0
MTEXT
  5
1FB2
330
1F94
100
AcDbEntity
  8
图层3
 62
     0
100
AcDbMText
 10
1469.308882073156
 20
233.9148658527347
 30
0.0
 40
15.0
 41
0.0
 71
     5
 72
     1
  1
R110 [R4 3/8]
 73
     1
 44
1.0
  0
SOLID
  5
1FB3
330
1F94
100
AcDbEntity
  8
图层3
 62
     0
100
AcDbTrace
 10
1587.147935736949
 20
258.8202735176761
 30
0.0
 11
1590.199053591085
 21
256.2336386690415
 31
0.0
 12
1596.433399209921
 22
266.6803096557675
 32
0.0
 13
1596.433399209921
 23
266.6803096557675
 33
0.0
  0
POINT
  5
1FB4
330
1F94
100
AcDbEntity
  8
Defpoints
 62
     0
100
AcDbPoint
 10
1596.433399209921
 20
266.6803096557675
 30
0.0
  0
POINT
  5
1FB5
330
1F94
100
AcDbEntity
  8
Defpoints
 62
     0
100
AcDbPoint
 10
1525.300940872468
 20
182.7745686670218
 30
0.0
  0
ENDBLK
  5
1F9B
330
1F94
100
AcDbEntity
  8
0
100
AcDbBlockEnd
  0
BLOCK
  5
1FBD
330
1FB7
100
AcDbEntity
  8
0
100
AcDbBlockBegin
  2
*D20
 70
     1
 10
0.0
 20
0.0
 30
0.0
  3
*D20
  1

  0
LINE
  5
1FC0
330
1FB7
100
AcDbEntity
  8
图层3
 62
     0
370
    -2
100
AcDbLine
 10
1518.897566241547
 20
-83.38052038651369
 30
0.0
 11
1346.397566241547
 21
-83.38052038651358
 31
0.0
  0
LINE
  5
1FC1
330
1FB7
100
AcDbEntity
  8
图层3
 62
     0
370
    -2
100
AcDbLine
 10
1346.397566241547
 20
-83.38052038651358
 30
0.0
 11
1269.855613372658
 21
-148.8930531647289
 31
0.0
  0
MTEXT
  5
1FC2
330
1FB7
100
AcDbEntity
  8
图层3
 62
     0
100
AcDbMText
 10
1435.147566241547
 20
-70.88052038651347
 30
0.0
 40
15.0
 41
0.0
 71
     5
 72
     1
  1
R110 [R4 3/8]
 73
     1
 44
1.0
  0
SOLID
  5
1FC3
330
1FB7
100
AcDbEntity
  8
图层3
 62
     0
100
AcDbTrace
 10
1268.555116444058
 20
-147.3736099315996
 30
0.0
 11
1271.156110301258
 21
-150.4124963978583
 31
0.0
 12
1260.738953973882
 22
-156.6960347363277
 32
0.0
 13
1260.738953973882
 23
-156.6960347363277
 33
0.0
  0
POINT
  5
1FC4
330
1FB7
100
AcDbEntity
  8
Defpoints
 62
     0
100
AcDbPoint
 10
1260.738953973882
 20
-156.6960347363277
 30
0.0
  0
POINT
  5
1FC5
330
1FB7
100
AcDbEntity
  8
Defpoints
 62
     0
100
AcDbPoint
 10
1344.308331795994
 20
-85.16870366333865
 30
0.0
  0
ENDBLK
  5
1FBE
330
1FB7
100
AcDbEntity
  8
0
100
AcDbBlockEnd
  0
BLOCK
  5
1FCE
330
1FC8
100
AcDbEntity
  8
0
100
AcDbBlockBegin
  2
*D21
 70
     1
 10
0.0
 20
0.0
 30
0.0
  3
*D21
  1

  0
LINE
  5
1FD1
330
1FC8
100
AcDbEntity
  8
图层3
 62
     0
370
    -2
100
AcDbLine
 10
1654.960665951056
 20
-88.74881009632849
 30
0.0
 11
1824.960665951057
 21
-88.74881009632828
 31
0.0
  0
LINE
  5
1FD2
330
1FC8
100
AcDbEntity
  8
图层3
 62
     0
370
    -2
100
AcDbLine
 10
1824.960665951057
 20
-88.74881009632828
 30
0.0
 11
1896.778519552085
 21
-157.6142288792083
 31
0.0
  0
MTEXT
  5
1FD3
330
1FC8
100
AcDbEntity
  8
图层3
 62
     0
100
AcDbMText
 10
1737.460665951057
 20
-76.24881009632872
 30
0.0
 40
15.0
 41
0.0
 71
     5
 72
     1
  1
R95 [R3 3/4]
 73
     1
 44
1.0
  0
SOLID
  5
1FD4
330
1FC8
100
AcDbEntity
  8
图层3
 62
     0
100
AcDbTrace
 10
1898.162749075358
 20
-156.170653932454
 30
0.0
 11
1895.39429002881
 21
-159.0578038259626
 31
0.0
 12
1905.439969232611
 22
-165.919606018852
 32
0.0
 13
1905.439969232611
 23
-165.919606018852
 33
0.0
  0
POINT
  5
1FD5
330
1FC8
100
AcDbEntity
  8
Defpoints
 62
     0
100
AcDbPoint
 10
1905.439969232611
 20
-165.919606018852
 30
0.0
  0
POINT
  5
1FD6
330
1FC8
100
AcDbEntity
  8
Defpoints
 62
     0
100
AcDbPoint
 10
1836.87015926178
 20
-100.1687036633388
 30
0.0
  0
ENDBLK
  5
1FCF
330
1FC8
100
AcDbEntity
  8
0
100
AcDbBlockEnd
  0
BLOCK
  5
1FDF
330
1FD9
100
AcDbEntity
  8
0
100
AcDbBlockBegin
  2
*D22
 70
     1
 10
0.0
 20
0.0
 30
0.0
  3
*D22
  1

  0
LINE
  5
1FE2
330
1FD9
100
AcDbEntity
  8
图层3
 62
     0
370
    -2
100
AcDbLine
 10
1656.114989380314
 20
112.3182503117804
 30
0.0
 11
1826.114989380314
 21
112.3182503117804
 31
0.0
  0
LINE
  5
1FE3
330
1FD9
100
AcDbEntity
  8
图层3
 62
     0
370
    -2
100
AcDbLine
 10
1826.114989380314
 20
112.3182503117804
 30
0.0
 11
1890.97192290795
 21
187.7757096739384
 31
0.0
  0
MTEXT
  5
1FE4
330
1FD9
100
AcDbEntity
  8
图层3
 62
     0
100
AcDbMText
 10
1738.614989380314
 20
124.8182503117805
 30
0.0
 40
15.0
 41
0.0
 71
     5
 72
     1
  1
R95 [R3 3/4]
 73
     1
 44
1.0
  0
SOLID
  5
1FE5
330
1FD9
100
AcDbEntity
  8
图层3
 62
     0
100
AcDbTrace
 10
1889.455190056449
 20
189.0793666292678
 30
0.0
 11
1892.488655759451
 21
186.4720527186091
 31
0.0
 12
1898.793864639927
 22
196.8761067829424
 32
0.0
 13
1898.793864639927
 23
196.8761067829424
 33
0.0
  0
POINT
  5
1FE6
330
1FD9
100
AcDbEntity
  8
Defpoints
 62
     0
100
AcDbPoint
 10
1898.793864639927
 20
196.8761067829424
 30
0.0
  0
POINT
  5
1FE7
330
1FD9
100
AcDbEntity
  8
Defpoints
 62
     0
100
AcDbPoint
 10
1836.870159261781
 20
124.8312963366615
 30
0.0
  0
ENDBLK
  5
1FE0
330
1FD9
100
AcDbEntity
  8
0
100
AcDbBlockEnd
  0
BLOCK
  5
1FF7
330
1FEA
100
AcDbEntity
  8
0
100
AcDbBlockBegin
  2
*D23
 70
     1
 10
0.0
 20
0.0
 30
0.0
  3
*D23
  1

  0
LINE
  5
1FFA
330
1FEA
100
AcDbEntity
  8
图层3
 62
     0
370
    -2
100
AcDbLine
 10
1586.589245528888
 20
-195.1687036633389
 30
0.0
 11
1589.339245528888
 21
-195.1687036633389
 31
0.0
  0
LINE
  5
1FFB
330
1FEA
100
AcDbEntity
  8
图层3
 62
     0
370
    -2
100
AcDbLine
 10
1586.589245528888
 20
-185.1687036633389
 30
0.0
 11
1589.339245528888
 21
-185.1687036633389
 31
0.0
  0
LINE
  5
1FFC
330
1FEA
100
AcDbEntity
  8
图层3
 62
     0
370
    -2
100
AcDbLine
 10
1590.589245528888
 20
-207.1687036633389
 30
0.0
 11
1590.589245528888
 21
-219.1687036633389
 31
0.0
  0
LINE
  5
1FFD
330
1FEA
100
AcDbEntity
  8
图层3
 62
     0
370
    -2
100
AcDbLine
 10
1590.589245528888
 20
-173.1687036633388
 30
0.0
 11
1590.589245528888
 21
-161.1687036633389
 31
0.0
  0
LINE
  5
1FFE
330
1FEA
100
AcDbEntity
  8
图层3
 62
     0
370
    -2
100
AcDbLine
 10
1590.589245528888
 20
-161.1687036633389
 30
0.0
 11
1693.089245528888
 21
-161.1687036633389
 31
0.0
  0
LINE
  5
1FFF
330
1FEA
100
AcDbEntity
  8
图层3
 62
     0
370
    -2
100
AcDbLine
 10
1590.589245528888
 20
-195.1687036633389
 30
0.0
 11
1590.589245528888
 21
-185.1687036633389
 31
0.0
  0
SOLID
  5
2000
330
1FEA
100
AcDbEntity
  8
图层3
 62
     0
100
AcDbTrace
 10
1588.589245528888
 20
-207.1687036633389
 30
0.0
 11
1592.589245528888
 21
-207.1687036633389
 31
0.0
 12
1590.589245528888
 22
-195.1687036633389
 32
0.0
 13
1590.589245528888
 23
-195.1687036633389
 33
0.0
  0
SOLID
  5
2001
330
1FEA
100
AcDbEntity
  8
图层3
 62
     0
100
AcDbTrace
 10
1588.589245528888
 20
-173.1687036633388
 30
0.0
 11
1592.589245528888
 21
-173.1687036633388
 31
0.0
 12
1590.589245528888
 22
-185.1687036633389
 32
0.0
 13
1590.589245528888
 23
-185.1687036633389
 33
0.0
  0
MTEXT
  5
2002
330
1FEA
100
AcDbEntity
  8
图层3
 62
     0
100
AcDbMText
 10
1644.339245528888
 20
-148.6687036633386
 30
0.0
 40
15.0
 41
0.0
 71
     5
 72
     1
  1
10 [3/8]
 73
     1
 44
1.0
  0
POINT
  5
2003
330
1FEA
100
AcDbEntity
  8
Defpoints
 62
     0
100
AcDbPoint
 10
1590.589245528888
 20
-195.1687036633389
 30
0.0
  0
POINT
  5
2004
330
1FEA
100
AcDbEntity
  8
Defpoints
 62
     0
100
AcDbPoint
 10
1590.589245528888
 20
-185.1687036633389
 30
0.0
  0
POINT
  5
2005
330
1FEA
100
AcDbEntity
  8
Defpoints
 62
     0
100
AcDbPoint
 10
1590.589245528888
 20
-185.1687036633389
 30
0.0
  0
ENDBLK
  5
1FF8
330
1FEA
100
AcDbEntity
  8
0
100
AcDbBlockEnd
  0
BLOCK
  5
2015
330
200D
100
AcDbEntity
  8
0
100
AcDbBlockBegin
  2
*D24
 70
     1
 10
0.0
 20
0.0
 30
0.0
  3
*D24
  1

  0
LINE
  5
2020
330
200D
100
AcDbEntity
  8
图层3
 62
     0
370
    -2
100
AcDbLine
 10
1478.537095242313
 20
129.236440976954
 30
0.0
 11
1586.037095242313
 21
129.236440976954
 31
0.0
  0
LINE
  5
2021
330
200D
100
AcDbEntity
  8
图层3
 62
     0
370
    -2
100
AcDbLine
 10
1586.037095242313
 20
129.236440976954
 30
0.0
 11
1630.817711489769
 21
214.8875440319905
 31
0.0
  0
MTEXT
  5
2022
330
200D
100
AcDbEntity
  8
图层3
 62
     0
100
AcDbMText
 10
1529.787095242312
 20
141.7364409769536
 30
0.0
 40
15.0
 41
0.0
 71
     5
 72
     1
  1
R50 [R2]
 73
     1
 44
1.0
  0
LINE
  5
2023
330
200D
100
AcDbEntity
  8
图层3
 62
     0
370
    -2
100
AcDbLine
 10
1659.543729011922
 20
269.8312963366617
 30
0.0
 11
1636.377585848895
 21
225.5218186716041
 31
0.0
  0
SOLID
  5
2024
330
200D
100
AcDbEntity
  8
图层3
 62
     0
100
AcDbTrace
 10
1629.045332383167
 20
215.8141897585116
 30
0.0
 11
1632.590090596371
 21
213.9608983054694
 31
0.0
 12
1636.377585848895
 22
225.5218186716041
 32
0.0
 13
1636.377585848895
 23
225.5218186716041
 33
0.0
  0
POINT
  5
2025
330
200D
100
AcDbEntity
  8
Defpoints
 62
     0
100
AcDbPoint
 10
1636.377585848895
 20
225.5218186716041
 30
0.0
  0
POINT
  5
2026
330
200D
100
AcDbEntity
  8
Defpoints
 62
     0
100
AcDbPoint
 10
1659.543729011922
 20
269.8312963366617
 30
0.0
  0
ENDBLK
  5
2016
330
200D
100
AcDbEntity
  8
0
100
AcDbBlockEnd
  0
ENDSEC
  0
SECTION
  2
ENTITIES
  0
LWPOLYLINE
  5
1ECB
330
1F
100
AcDbEntity
  8
图层3
100
AcDbPolyline
 90
        4
 70
     1
 43
0.0
 10
2565.259704280601
 20
-523.8798894554952
 10
664.7544189599561
 20
-523.8798894554952
 10
664.7544189599561
 20
758.500470296377
 10
2565.259704280601
 20
758.500470296377
  0
LINE
  5
1EE3
102
{ACAD_REACTORS
330
1F70
102
}
330
1F
100
AcDbEntity
  8
图层2
100
AcDbLine
 10
1659.543729011921
 20
219.8312963366611
 30
0.0
 11
1836.870159261781
 21
219.8312963366611
 31
0.0
  0
ARC
  5
1EE5
102
{ACAD_REACTORS
330
1F58
102
}
330
1F
100
AcDbEntity
  8
图层2
100
AcDbCircle
 10
-370.2645783562016
 20
12.33129633666373
 30
0.0
 40
2305.0
100
AcDbArc
 50
357.0820985125362
 51
2.917901487463695
  0
ARC
  5
1EE8
102
{ACAD_REACTORS
330
1F58
102
}
330
1F
100
AcDbEntity
  8
图层2
100
AcDbCircle
 10
3334.7354216438
 20
49.83129633666107
 30
0.0
 40
2105.0
100
AcDbArc
 50
176.1790791027596
 51
183.8801231194826
  0
ARC
  5
1EE9
102
{ACAD_REACTORS
330
1F92
102
}
330
1F
100
AcDbEntity
  8
图层2
100
AcDbCircle
 10
1344.169902415132
 20
182.7745686670206
 30
0.0
 40
110.0
100
AcDbArc
 50
92.60190774388966
 51
176.1790791027595
  0
ARC
  5
1EEA
102
{ACAD_REACTORS
330
1F40
102
}
330
1F
100
AcDbEntity
  8
图层2
100
AcDbCircle
 10
1434.735421643799
 20
-1810.168703663339
 30
0.0
 40
2105.0
100
AcDbArc
 50
87.39809225611002
 51
92.60190774388993
  0
ARC
  5
1EEB
102
{ACAD_REACTORS
330
1FA3
102
}
330
1F
100
AcDbEntity
  8
图层2
100
AcDbCircle
 10
1525.300940872468
 20
182.7745686670209
 30
0.0
 40
110.0
100
AcDbArc
 50
32.96349279132684
 51
87.39809225611006
  0
LINE
  5
1EEC
102
{ACAD_REACTORS
330
1F40
330
1F70
330
2006
102
}
330
1F
100
AcDbEntity
  8
图层2
100
AcDbLine
 10
1344.308331795995
 20
-195.1687036633389
 30
0.0
 11
1836.870159261781
 21
-195.1687036633388
 31
0.0
  0
ARC
  5
1F01
102
{ACAD_REACTORS
330
1FE8
102
}
330
1F
100
AcDbEntity
  8
图层2
100
AcDbCircle
 10
1836.870159261781
 20
124.8312963366612
 30
0.0
 40
95.0
100
AcDbArc
 50
2.917901487463702
 51
90.0
  0
ARC
  5
1F02
102
{ACAD_REACTORS
330
1FD7
102
}
330
1F
100
AcDbEntity
  8
图层2
100
AcDbCircle
 10
1836.87015926178
 20
-100.1687036633388
 30
0.0
 40
95.0
100
AcDbArc
 50
270.0000000000002
 51
357.0820985125362
  0
ARC
  5
1F03
102
{ACAD_REACTORS
330
201F
102
}
330
1F
100
AcDbEntity
  8
图层2
100
AcDbCircle
 10
1659.543729011921
 20
269.8312963366611
 30
0.0
 40
50.0
100
AcDbArc
 50
212.9634927913269
 51
270.0
  0
ARC
  5
1F18
102
{ACAD_REACTORS
330
1FC6
102
}
330
1F
100
AcDbEntity
  8
图层2
100
AcDbCircle
 10
1344.308331795995
 20
-85.16870366333884
 30
0.0
 40
110.0
100
AcDbArc
 50
183.8801231194824
 51
270.0000000000001
  0
ARC
  5
1F1E
330
1F
100
AcDbEntity
  8
图层1
100
AcDbCircle
 10
1434.735421643799
 20
-1810.168703663339
 30
0.0
 40
2095.0
100
AcDbArc
 50
87.39809225611002
 51
92.60190774388993
  0
ARC
  5
1F1F
330
1F
100
AcDbEntity
  8
图层1
100
AcDbCircle
 10
1525.300940872468
 20
182.7745686670209
 30
0.0
 40
100.0
100
AcDbArc
 50
32.96349279132684
 51
87.39809225611006
  0
ARC
  5
1F20
330
1F
100
AcDbEntity
  8
图层1
100
AcDbCircle
 10
1659.543729011921
 20
269.8312963366611
 30
0.0
 40
60.0
100
AcDbArc
 50
212.9634927913269
 51
270.0
  0
LINE
  5
1F21
330
1F
100
AcDbEntity
  8
图层1
100
AcDbLine
 10
1659.543729011921
 20
209.8312963366612
 30
0.0
 11
1836.870159261781
 21
209.8312963366611
 31
0.0
  0
ARC
  5
1F22
330
1F
100
AcDbEntity
  8
图层1
100
AcDbCircle
 10
1836.870159261781
 20
124.8312963366612
 30
0.0
 40
85.0
100
AcDbArc
 50
2.917901487463702
 51
90.0
  0
ARC
  5
1F23
330
1F
100
AcDbEntity
  8
图层1
100
AcDbCircle
 10
-370.2645783562016
 20
12.33129633666373
 30
0.0
 40
2295.0
100
AcDbArc
 50
357.0820985125362
 51
2.917901487463695
  0
ARC
  5
1F24
330
1F
100
AcDbEntity
  8
图层1
100
AcDbCircle
 10
1836.87015926178
 20
-100.1687036633388
 30
0.0
 40
85.0
100
AcDbArc
 50
270.0000000000002
 51
357.0820985125362
  0
LINE
  5
1F25
102
{ACAD_REACTORS
330
2006
102
}
330
1F
100
AcDbEntity
  8
图层1
100
AcDbLine
 10
1344.308331795995
 20
-185.1687036633389
 30
0.0
 11
1836.870159261781
 21
-185.1687036633388
 31
0.0
  0
ARC
  5
1F26
330
1F
100
AcDbEntity
  8
图层1
100
AcDbCircle
 10
1344.308331795995
 20
-85.16870366333884
 30
0.0
 40
100.0
100
AcDbArc
 50
183.8801231194824
 51
270.0000000000001
  0
ARC
  5
1F27
330
1F
100
AcDbEntity
  8
图层1
100
AcDbCircle
 10
3334.7354216438
 20
49.83129633666107
 30
0.0
 40
2095.0
100
AcDbArc
 50
176.1790791027596
 51
183.8801231194826
  0
ARC
  5
1F28
330
1F
100
AcDbEntity
  8
图层1
100
AcDbCircle
 10
1344.169902415132
 20
182.7745686670206
 30
0.0
 40
100.0
100
AcDbArc
 50
92.60190774388966
 51
176.1790791027595
  0
DIMENSION
  5
1F29
102
{ACAD_XDICTIONARY
360
1F36
102
}
102
{ACAD_REACTORS
330
1F40
102
}
330
1F
100
AcDbEntity
  8
图层3
100
AcDbDimension
  2
*D14
 10
1175.989374327353
 20
-195.1687036633388
 30
0.0
 11
1163.489374327353
 21
49.83129633666138
 31
0.0
 70
    32
 71
     5
 42
490.0
  3
ISO-25
100
AcDbAlignedDimension
 13
1434.7354216438
 23
294.8312963366611
 33
0.0
 14
1344.308331795995
 24
-195.1687036633389
 34
0.0
 50
90.0
100
AcDbRotatedDimension
  0
DIMENSION
  5
1F41
102
{ACAD_XDICTIONARY
360
1F4E
102
}
102
{ACAD_REACTORS
330
1F58
102
}
330
1F
100
AcDbEntity
  8
图层3
100
AcDbDimension
  2
*D15
 10
1934.735421643798
 20
328.2620544740271
 30
0.0
 11
1582.235562107097
 21
340.7620544740271
 31
0.0
 70
    32
 71
     5
 42
704.9997190734029
  3
ISO-25
100
AcDbAlignedDimension
 13
1229.735702570395
 23
48.74377581302885
 33
0.0
 14
1934.735421643798
 24
12.33129633666112
 34
0.0
100
AcDbRotatedDimension
  0
DIMENSION
  5
1F59
102
{ACAD_XDICTIONARY
360
1F66
102
}
102
{ACAD_REACTORS
330
1F70
102
}
330
1F
100
AcDbEntity
  8
图层3
100
AcDbDimension
  2
*D16
 10
2009.301672816941
 20
-195.1687036633389
 30
0.0
 11
1996.801672816941
 21
12.33129633666141
 31
0.0
 70
    32
 71
     5
 42
415.0
  3
ISO-25
100
AcDbAlignedDimension
 13
1836.870159261781
 23
219.8312963366611
 33
0.0
 14
1836.870159261781
 24
-195.1687036633388
 34
0.0
 50
90.0
100
AcDbRotatedDimension
  0
DIMENSION
  5
1F82
102
{ACAD_XDICTIONARY
360
1F8B
102
}
102
{ACAD_REACTORS
330
1F92
102
}
330
1F
100
AcDbEntity
  8
图层3
100
AcDbDimension
  2
*D18
 10
1344.169902415132
 20
182.7745686670209
 30
0.0
 11
1434.804954382269
 21
180.7723001832274
 31
0.0
 70
   164
 71
     5
 42
109.9999999999994
  3
ISO-25
100
AcDbRadialDimension
 15
1268.767823729642
 25
262.8653080187534
 35
0.0
 40
0.0
1001
ACAD
1000
DSTYLE
1002
{
1070
   288
1070
     1
1002
}
  0
DIMENSION
  5
1F93
102
{ACAD_XDICTIONARY
360
1F9C
102
}
102
{ACAD_REACTORS
330
1FA3
102
}
330
1F
100
AcDbEntity
  8
图层3
100
AcDbDimension
  2
*D19
 10
1525.300940872468
 20
182.7745686670218
 30
0.0
 11
1469.308882073156
 21
221.4148658527347
 31
0.0
 70
   164
 71
     5
 42
109.9999999999995
  3
ISO-25
100
AcDbRadialDimension
 15
1596.433399209921
 25
266.6803096557675
 35
0.0
 40
0.0
1001
ACAD
1000
DSTYLE
1002
{
1070
   288
1070
     1
1002
}
  0
DIMENSION
  5
1FB6
102
{ACAD_XDICTIONARY
360
1FBF
102
}
102
{ACAD_REACTORS
330
1FC6
102
}
330
1F
100
AcDbEntity
  8
图层3
100
AcDbDimension
  2
*D20
 10
1344.308331795994
 20
-85.16870366333865
 30
0.0
 11
1435.147566241547
 21
-83.38052038651346
 31
0.0
 70
   164
 71
     5
 42
109.9999999999995
  3
ISO-25
100
AcDbRadialDimension
 15
1260.738953973882
 25
-156.6960347363277
 35
0.0
 40
0.0
1001
ACAD
1000
DSTYLE
1002
{
1070
   288
1070
     1
1002
}
  0
DIMENSION
  5
1FC7
102
{ACAD_XDICTIONARY
360
1FD0
102
}
102
{ACAD_REACTORS
330
1FD7
102
}
330
1F
100
AcDbEntity
  8
图层3
100
AcDbDimension
  2
*D21
 10
1836.87015926178
 20
-100.1687036633388
 30
0.0
 11
1737.460665951057
 21
-88.74881009632872
 31
0.0
 70
   164
 71
     5
 42
95.00000000000023
  3
ISO-25
100
AcDbRadialDimension
 15
1905.439969232611
 25
-165.919606018852
 35
0.0
 40
0.0
1001
ACAD
1000
DSTYLE
1002
{
1070
   288
1070
     1
1002
}
  0
DIMENSION
  5
1FD8
102
{ACAD_XDICTIONARY
360
1FE1
102
}
102
{ACAD_REACTORS
330
1FE8
102
}
330
1F
100
AcDbEntity
  8
图层3
100
AcDbDimension
  2
*D22
 10
1836.870159261781
 20
124.8312963366615
 30
0.0
 11
1738.614989380314
 21
112.3182503117805
 31
0.0
 70
   164
 71
     5
 42
94.99999999999909
  3
ISO-25
100
AcDbRadialDimension
 15
1898.793864639927
 25
196.8761067829424
 35
0.0
 40
0.0
1001
ACAD
1000
DSTYLE
1002
{
1070
   288
1070
     1
1002
}
  0
DIMENSION
  5
1FE9
102
{ACAD_XDICTIONARY
360
1FF9
102
}
102
{ACAD_REACTORS
330
2006
102
}
330
1F
100
AcDbEntity
  8
图层3
100
AcDbDimension
  2
*D23
 10
1590.589245528888
 20
-185.1687036633389
 30
0.0
 11
1644.339245528888
 21
-148.6687036633386
 31
0.0
 70
    32
 71
     5
 42
10.0
  3
ISO-25
100
AcDbAlignedDimension
 13
1590.589245528888
 23
-195.1687036633389
 33
0.0
 14
1590.589245528888
 24
-185.1687036633389
 34
0.0
 50
90.0
100
AcDbRotatedDimension
  0
LWPOLYLINE
  5
2008
330
1F
100
AcDbEntity
  8
图层3
100
AcDbPolyline
 90
        4
 70
     1
 43
0.0
 10
2276.719633108246
 20
-418.3646082391756
 10
900.5738216642717
 20
-418.3646082391756
 10
900.5738216642717
 20
511.6879706619616
 10
2276.719633108246
 20
511.6879706619616
  0
DIMENSION
  5
200C
102
{ACAD_XDICTIONARY
360
2017
102
}
102
{ACAD_REACTORS
330
201F
102
}
330
1F
100
AcDbEntity
  8
图层3
100
AcDbDimension
  2
*D24
 10
1659.543729011922
 20
269.8312963366617
 30
0.0
 11
1529.787095242312
 21
129.2364409769536
 31
0.0
 70
   164
 71
     5
 42
50.00000000000091
  3
ISO-25
100
AcDbRadialDimension
 15
1636.377585848895
 25
225.5218186716041
 35
0.0
 40
0.0
  0
TEXT
  5
2071
330
1F
100
AcDbEntity
  8
图层1
100
AcDbText
 10
1469.535388658952
 20
-289.5008646085585
 30
0.0
 40
52.12240561040995
  1
HU207013
100
AcDbText
  0
ENDSEC
  0
SECTION
  2
OBJECTS
  0
DICTIONARY
  5
C
330
0
100
AcDbDictionary
281
     1
  3
ACAD_COLOR
350
1877
  3
ACAD_GROUP
350
D
  3
ACAD_LAYOUT
350
1A
  3
ACAD_MATERIAL
350
1876
  3
ACAD_MLEADERSTYLE
350
2067
  3
ACAD_MLINESTYLE
350
17
  3
ACAD_PLOTSETTINGS
350
19
  3
ACAD_PLOTSTYLENAME
350
E
  3
ACAD_SCALELIST
350
2055
  3
ACAD_TABLESTYLE
350
1878
  3
ACAD_VISUALSTYLE
350
2041
  3
ACDB_RECOMPOSE_DATA
350
2080
  3
AcDbVariableDictionary
350
5E
  0
DICTIONARY
  5
1880
330
2
100
AcDbDictionary
280
     1
281
     1
  3
ACAD_LAYERFILTERS
360
200A
  3
ACLYDICTIONARY
360
2009
  0
DICTIONARY
  5
2072
330
10
100
AcDbDictionary
280
     1
281
     1
  3
ADSK_XREC_LAYER_RECONCILED
360
2073
  0
DICTIONARY
  5
2074
330
8C
100
AcDbDictionary
280
     1
281
     1
  3
ADSK_XREC_LAYER_RECONCILED
360
2075
  0
DICTIONARY
  5
2076
330
8D
100
AcDbDictionary
280
     1
281
     1
  3
ADSK_XREC_LAYER_RECONCILED
360
2077
  0
DICTIONARY
  5
2078
330
8E
100
AcDbDictionary
280
     1
281
     1
  3
ADSK_XREC_LAYER_RECONCILED
360
2079
  0
DICTIONARY
  5
207A
330
4D4
100
AcDbDictionary
280
     1
281
     1
  3
ADSK_XREC_LAYER_RECONCILED
360
207B
  0
DICTIONARY
  5
188B
330
1F
100
AcDbDictionary
280
     1
281
     1
  3
ACAD_SORTENTS
360
188C
  0
DICTIONARY
  5
1F36
330
1F29
100
AcDbDictionary
280
     1
281
     1
  3
ACAD_DIMASSOC
360
1F40
  0
DICTIONARY
  5
1F4E
330
1F41
100
AcDbDictionary
280
     1
281
     1
  3
ACAD_DIMASSOC
360
1F58
  0
DICTIONARY
  5
1F66
330
1F59
100
AcDbDictionary
280
     1
281
     1
  3
ACAD_DIMASSOC
360
1F70
  0
DICTIONARY
  5
1F8B
330
1F82
100
AcDbDictionary
280
     1
281
     1
  3
ACAD_DIMASSOC
360
1F92
  0
DICTIONARY
  5
1F9C
330
1F93
100
AcDbDictionary
280
     1
281
     1
  3
ACAD_DIMASSOC
360
1FA3
  0
DICTIONARY
  5
1FBF
330
1FB6
100
AcDbDictionary
280
     1
281
     1
  3
ACAD_DIMASSOC
360
1FC6
  0
DICTIONARY
  5
1FD0
330
1FC7
100
AcDbDictionary
280
     1
281
     1
  3
ACAD_DIMASSOC
360
1FD7
  0
DICTIONARY
  5
1FE1
330
1FD8
100
AcDbDictionary
280
     1
281
     1
  3
ACAD_DIMASSOC
360
1FE8
  0
DICTIONARY
  5
1FF9
330
1FE9
100
AcDbDictionary
280
     1
281
     1
  3
ACAD_DIMASSOC
360
2006
  0
DICTIONARY
  5
2017
330
200C
100
AcDbDictionary
280
     1
281
     1
  3
ACAD_DIMASSOC
360
201F
  0
DICTIONARY
  5
1877
102
{ACAD_REACTORS
330
C
102
}
330
C
100
AcDbDictionary
281
     1
  0
DICTIONARY
  5
D
102
{ACAD_REACTORS
330
C
102
}
330
C
100
AcDbDictionary
281
     1
  0
DICTIONARY
  5
1A
102
{ACAD_REACTORS
330
C
102
}
330
C
100
AcDbDictionary
281
     1
  3
Model
350
22
  3
布局1
350
51
  3
布局2
350
56
  0
DICTIONARY
  5
1876
102
{ACAD_REACTORS
330
C
102
}
330
C
100
AcDbDictionary
281
     1
  3
ByBlock
350
2031
  3
ByLayer
350
2029
  3
Global
350
2039
  0
DICTIONARY
  5
2067
102
{ACAD_REACTORS
330
C
102
}
330
C
100
AcDbDictionary
281
     1
  3
Standard
350
2068
  0
DICTIONARY
  5
17
102
{ACAD_REACTORS
330
C
102
}
330
C
100
AcDbDictionary
281
     1
  3
Standard
350
18
  0
DICTIONARY
  5
19
102
{ACAD_REACTORS
330
C
102
}
330
C
100
AcDbDictionary
281
     1
  0
ACDBDICTIONARYWDFLT
  5
E
102
{ACAD_REACTORS
330
C
102
}
330
C
100
AcDbDictionary
281
     1
  3
Normal
350
F
100
AcDbDictionaryWithDefault
340
F
  0
DICTIONARY
  5
2055
102
{ACAD_REACTORS
330
C
102
}
330
C
100
AcDbDictionary
281
     1
  3
A0
350
2056
  3
A1
350
2057
  3
A2
350
2058
  3
A3
350
2059
  3
A4
350
205A
  3
A5
350
205B
  3
A6
350
205C
  3
A7
350
205D
  3
A8
350
205E
  3
A9
350
205F
  3
B0
350
2060
  3
B1
350
2061
  3
B2
350
2062
  3
B3
350
2063
  3
B4
350
2064
  3
B5
350
2065
  3
B6
350
2066
  0
DICTIONARY
  5
1878
102
{ACAD_REACTORS
330
C
102
}
330
C
100
AcDbDictionary
281
     1
  3
Standard
350
1879
  0
DICTIONARY
  5
2041
102
{ACAD_REACTORS
330
C
102
}
330
C
100
AcDbDictionary
281
     1
  3
2dWireframe
350
2047
  3
3D Hidden
350
2049
  3
3dWireframe
350
2048
  3
Basic
350
2046
  3
Brighten
350
204D
  3
ColorChange
350
2051
  3
Conceptual
350
204A
  3
Dim
350
204C
  3
EdgeColorOff
350
2054
  3
Facepattern
350
2050
  3
Flat
350
2042
  3
FlatWithEdges
350
2043
  3
Gouraud
350
2044
  3
GouraudWithEdges
350
2045
  3
JitterOff
350
2052
  3
Linepattern
350
204F
  3
OverhangOff
350
2053
  3
Realistic
350
204B
  3
Thicken
350
204E
  0
XRECORD
  5
2080
102
{ACAD_REACTORS
330
C
102
}
330
C
100
AcDbXrecord
280
     1
 90
        1
330
1879
  0
DICTIONARY
  5
5E
102
{ACAD_REACTORS
330
C
102
}
330
C
100
AcDbDictionary
281
     1
  3
CANNOSCALE
350
207D
  3
CMLEADERSTYLE
350
207C
  3
CTABLESTYLE
350
187F
  3
DIMASSOC
350
5F
  3
HIDETEXT
350
63
  0
DICTIONARY
  5
200A
102
{ACAD_REACTORS
330
1880
102
}
330
1880
100
AcDbDictionary
281
     1
  0
DICTIONARY
  5
2009
102
{ACAD_REACTORS
330
1880
102
}
330
1880
100
AcDbDictionary
281
     1
1001
ACAD
1000
<All
  0
XRECORD
  5
2073
102
{ACAD_REACTORS
330
2072
102
}
330
2072
100
AcDbXrecord
280
     1
290
     1
  0
XRECORD
  5
2075
102
{ACAD_REACTORS
330
2074
102
}
330
2074
100
AcDbXrecord
280
     1
290
     1
  0
XRECORD
  5
2077
102
{ACAD_REACTORS
330
2076
102
}
330
2076
100
AcDbXrecord
280
     1
290
     1
  0
XRECORD
  5
2079
102
{ACAD_REACTORS
330
2078
102
}
330
2078
100
AcDbXrecord
280
     1
290
     1
  0
XRECORD
  5
207B
102
{ACAD_REACTORS
330
207A
102
}
330
207A
100
AcDbXrecord
280
     1
290
     1
  0
SORTENTSTABLE
  5
188C
102
{ACAD_REACTORS
330
188B
102
}
330
188B
100
AcDbSortentsTable
330
1F
331
1F03
  5
1EE7
331
1F27
  5
1C2D
331
1EE9
  5
1F02
331
1F1E
  5
15E0
331
1F23
  5
1F1E
331
1EE5
  5
1F18
331
1EEA
  5
15A4
331
1F1F
  5
1EE6
331
1F24
  5
1F20
331
1F28
  5
1F03
331
1EEB
  5
1EE5
331
1F20
  5
1F01
331
1F01
  5
1F21
331
1F25
  5
1F28
331
1EEC
  5
1F27
331
1F02
  5
1F1F
331
1F21
  5
1F26
331
1EE3
  5
1F25
331
1F18
  5
1C32
331
1F26
  5
1C3C
331
1EE8
  5
1897
331
1ECB
  5
1F24
  0
DIMASSOC
  5
1F40
102
{ACAD_REACTORS
330
1F36
102
}
330
1F36
100
AcDbDimAssoc
330
1F29
 90
        3
 70
     0
 71
     0
  1
AcDbOsnapPointRef
 72
     2
331
1EEA
 73
     2
 91
        0
 40
1.570796326794896
 10
0.0
 20
0.0
 30
0.0
 75
     0
  1
AcDbOsnapPointRef
 72
    13
331
1EEC
 73
     2
 91
        0
 40
0.0
 10
0.0
 20
0.0
 30
2.000000000000000E+50
 75
     0
  0
DIMASSOC
  5
1F58
102
{ACAD_REACTORS
330
1F4E
102
}
330
1F4E
100
AcDbDimAssoc
330
1F41
 90
        3
 70
     0
 71
     0
  1
AcDbOsnapPointRef
 72
     2
331
1EE8
 73
     2
 91
        0
 40
3.142109290441104
 10
0.0
 20
0.0
 30
0.0
 75
     0
  1
AcDbOsnapPointRef
 72
     2
331
1EE5
 73
     2
 91
        0
 40
6.283185307179585
 10
0.0
 20
0.0
 30
0.0
 75
     0
  0
DIMASSOC
  5
1F70
102
{ACAD_REACTORS
330
1F66
102
}
330
1F66
100
AcDbDimAssoc
330
1F59
 90
        3
 70
     0
 71
     0
  1
AcDbOsnapPointRef
 72
     1
331
1EE3
 73
     2
 91
        0
 40
1.0
 10
0.0
 20
0.0
 30
2.000000000000000E+50
 75
     0
  1
AcDbOsnapPointRef
 72
     1
331
1EEC
 73
     2
 91
        0
 40
1.0
 10
0.0
 20
0.0
 30
2.000000000000000E+50
 75
     0
  0
DIMASSOC
  5
1F92
102
{ACAD_REACTORS
330
1F8B
102
}
330
1F8B
100
AcDbDimAssoc
330
1F82
 90
        2
 70
     0
 71
     0
  1
AcDbOsnapPointRef
 72
     3
331
1EE9
 73
     2
 91
        0
 40
0.0
 10
0.0
 20
0.0
 30
0.0
 75
     0
  0
DIMASSOC
  5
1FA3
102
{ACAD_REACTORS
330
1F9C
102
}
330
1F9C
100
AcDbDimAssoc
330
1F93
 90
        2
 70
     0
 71
     0
  1
AcDbOsnapPointRef
 72
     3
331
1EEB
 73
     2
 91
        0
 40
0.0
 10
0.0
 20
0.0
 30
0.0
 75
     0
  0
DIMASSOC
  5
1FC6
102
{ACAD_REACTORS
330
1FBF
102
}
330
1FBF
100
AcDbDimAssoc
330
1FB6
 90
        2
 70
     0
 71
     0
  1
AcDbOsnapPointRef
 72
     3
331
1F18
 73
     2
 91
        0
 40
0.0
 10
0.0
 20
0.0
 30
0.0
 75
     0
  0
DIMASSOC
  5
1FD7
102
{ACAD_REACTORS
330
1FD0
102
}
330
1FD0
100
AcDbDimAssoc
330
1FC7
 90
        2
 70
     0
 71
     0
  1
AcDbOsnapPointRef
 72
     3
331
1F02
 73
     2
 91
        0
 40
0.0
 10
0.0
 20
0.0
 30
0.0
 75
     0
  0
DIMASSOC
  5
1FE8
102
{ACAD_REACTORS
330
1FE1
102
}
330
1FE1
100
AcDbDimAssoc
330
1FD8
 90
        2
 70
     0
 71
     0
  1
AcDbOsnapPointRef
 72
     3
331
1F01
 73
     2
 91
        0
 40
0.0
 10
0.0
 20
0.0
 30
0.0
 75
     0
  0
DIMASSOC
  5
2006
102
{ACAD_REACTORS
330
1FF9
102
}
330
1FF9
100
AcDbDimAssoc
330
1FE9
 90
        3
 70
     0
 71
     0
  1
AcDbOsnapPointRef
 72
     2
331
1EEC
 73
     2
 91
        0
 40
0.5000000000000002
 10
0.0
 20
0.0
 30
0.0
 75
     0
  1
AcDbOsnapPointRef
 72
     2
331
1F25
 73
     2
 91
        0
 40
0.5000000000000002
 10
0.0
 20
0.0
 30
0.0
 75
     0
  0
DIMASSOC
  5
201F
102
{ACAD_REACTORS
330
2017
102
}
330
2017
100
AcDbDimAssoc
330
200C
 90
        2
 70
     0
 71
     0
  1
AcDbOsnapPointRef
 72
     3
331
1F03
 73
     2
 91
        0
 40
0.0
 10
0.0
 20
0.0
 30
0.0
 75
     0
  0
LAYOUT
  5
22
102
{ACAD_REACTORS
330
1A
102
}
330
1A
100
AcDbPlotSettings
  1

  2
SHARP AR-158
  4
A4
  6

 40
5.111750125885009
 41
5.11176061630249
 42
5.111740112304687
 43
5.11175537109375
 44
210.0579986572266
 45
296.9259948730469
 46
2.45
 47
-23.37
 48
0.0
 49
0.0
140
0.0
141
0.0
142
1.0
143
4.099999999999999
 70
 11940
 72
     1
 73
     1
 74
     0
  7

 75
     0
147
0.2439024390243903
 76
     0
 77
     2
 78
   300
148
-929.9415956013254
149
416.1539153464364
100
AcDbLayout
  1
Model
 70
     1
 71
     0
 10
0.0
 20
0.0
 11
12.0
 21
9.0
 12
0.0
 22
0.0
 32
0.0
 14
0.0
 24
0.0
 34
0.0
 15
0.0
 25
0.0
 35
0.0
146
0.0
 13
0.0
 23
0.0
 33
0.0
 16
1.0
 26
0.0
 36
0.0
 17
0.0
 27
1.0
 37
0.0
 76
     0
330
1F
331
2027
  0
LAYOUT
  5
51
102
{ACAD_REACTORS
330
1A
102
}
330
1A
100
AcDbPlotSettings
  1

  2
None
  4

  6

 40
0.0
 41
0.0
 42
0.0
 43
0.0
 44
0.0
 45
0.0
 46
0.0
 47
0.0
 48
0.0
 49
0.0
140
0.0
141
0.0
142
1.0
143
1.0
 70
   688
 72
     0
 73
     0
 74
     5
  7

 75
    16
147
1.0
 76
     0
 77
     2
 78
   300
148
0.0
149
0.0
100
AcDbLayout
  1
布局1
 70
     1
 71
     1
 10
0.0
 20
0.0
 11
12.0
 21
9.0
 12
0.0
 22
0.0
 32
0.0
 14
0.0
 24
0.0
 34
0.0
 15
0.0
 25
0.0
 35
0.0
146
0.0
 13
0.0
 23
0.0
 33
0.0
 16
1.0
 26
0.0
 36
0.0
 17
0.0
 27
1.0
 37
0.0
 76
     0
330
50
  0
LAYOUT
  5
56
102
{ACAD_REACTORS
330
1A
102
}
330
1A
100
AcDbPlotSettings
  1

  2
None
  4

  6

 40
0.0
 41
0.0
 42
0.0
 43
0.0
 44
0.0
 45
0.0
 46
0.0
 47
0.0
 48
0.0
 49
0.0
140
0.0
141
0.0
142
1.0
143
1.0
 70
   688
 72
     0
 73
     0
 74
     5
  7

 75
    16
147
1.0
 76
     0
 77
     2
 78
   300
148
0.0
149
0.0
100
AcDbLayout
  1
布局2
 70
     1
 71
     2
 10
0.0
 20
0.0
 11
12.0
 21
9.0
 12
0.0
 22
0.0
 32
0.0
 14
0.0
 24
0.0
 34
0.0
 15
0.0
 25
0.0
 35
0.0
146
0.0
 13
0.0
 23
0.0
 33
0.0
 16
1.0
 26
0.0
 36
0.0
 17
0.0
 27
1.0
 37
0.0
 76
     0
330
55
  0
MATERIAL
  5
2031
102
{ACAD_XDICTIONARY
360
2032
102
}
102
{ACAD_REACTORS
330
1876
102
}
330
1876
100
AcDbMaterial
  1
ByBlock
 72
     0
 43
0.0008202099737533
 43
0.0
 43
0.0
 43
0.0
 43
0.0
 43
0.0008202099737533
 43
0.0
 43
0.0
 43
0.0
 43
0.0
 43
1.0
 43
0.0
 43
0.0
 43
0.0
 43
0.0
 43
1.0
 77
     0
 47
0.0008202099737533
 47
0.0
 47
0.0
 47
0.0
 47
0.0
 47
0.0008202099737533
 47
0.0
 47
0.0
 47
0.0
 47
0.0
 47
1.0
 47
0.0
 47
0.0
 47
0.0
 47
0.0
 47
1.0
171
     0
 49
0.0008202099737533
 49
0.0
 49
0.0
 49
0.0
 49
0.0
 49
0.0008202099737533
 49
0.0
 49
0.0
 49
0.0
 49
0.0
 49
1.0
 49
0.0
 49
0.0
 49
0.0
 49
0.0
 49
1.0
175
     0
142
0.0008202099737533
142
0.0
142
0.0
142
0.0
142
0.0
142
0.0008202099737533
142
0.0
142
0.0
142
0.0
142
0.0
142
1.0
142
0.0
142
0.0
142
0.0
142
0.0
142
1.0
179
     0
144
0.0008202099737533
144
0.0
144
0.0
144
0.0
144
0.0
144
0.0008202099737533
144
0.0
144
0.0
144
0.0
144
0.0
144
1.0
144
0.0
144
0.0
144
0.0
144
0.0
144
1.0
147
0.0008202099737533
147
0.0
147
0.0
147
0.0
147
0.0
147
0.0008202099737533
147
0.0
147
0.0
147
0.0
147
0.0
147
1.0
147
0.0
147
0.0
147
0.0
147
0.0
147
1.0
  0
MATERIAL
  5
2029
102
{ACAD_XDICTIONARY
360
202A
102
}
102
{ACAD_REACTORS
330
1876
102
}
330
1876
100
AcDbMaterial
  1
ByLayer
 72
     0
 43
0.0008202099737533
 43
0.0
 43
0.0
 43
0.0
 43
0.0
 43
0.0008202099737533
 43
0.0
 43
0.0
 43
0.0
 43
0.0
 43
1.0
 43
0.0
 43
0.0
 43
0.0
 43
0.0
 43
1.0
 77
     0
 47
0.0008202099737533
 47
0.0
 47
0.0
 47
0.0
 47
0.0
 47
0.0008202099737533
 47
0.0
 47
0.0
 47
0.0
 47
0.0
 47
1.0
 47
0.0
 47
0.0
 47
0.0
 47
0.0
 47
1.0
171
     0
 49
0.0008202099737533
 49
0.0
 49
0.0
 49
0.0
 49
0.0
 49
0.0008202099737533
 49
0.0
 49
0.0
 49
0.0
 49
0.0
 49
1.0
 49
0.0
 49
0.0
 49
0.0
 49
0.0
 49
1.0
175
     0
142
0.0008202099737533
142
0.0
142
0.0
142
0.0
142
0.0
142
0.0008202099737533
142
0.0
142
0.0
142
0.0
142
0.0
142
1.0
142
0.0
142
0.0
142
0.0
142
0.0
142
1.0
179
     0
144
0.0008202099737533
144
0.0
144
0.0
144
0.0
144
0.0
144
0.0008202099737533
144
0.0
144
0.0
144
0.0
144
0.0
144
1.0
144
0.0
144
0.0
144
0.0
144
0.0
144
1.0
147
0.0008202099737533
147
0.0
147
0.0
147
0.0
147
0.0
147
0.0008202099737533
147
0.0
147
0.0
147
0.0
147
0.0
147
1.0
147
0.0
147
0.0
147
0.0
147
0.0
147
1.0
  0
MATERIAL
  5
2039
102
{ACAD_XDICTIONARY
360
203A
102
}
102
{ACAD_REACTORS
330
1876
102
}
330
1876
100
AcDbMaterial
  1
Global
 72
     0
 43
0.0008202099737533
 43
0.0
 43
0.0
 43
0.0
 43
0.0
 43
0.0008202099737533
 43
0.0
 43
0.0
 43
0.0
 43
0.0
 43
1.0
 43
0.0
 43
0.0
 43
0.0
 43
0.0
 43
1.0
 77
     0
 47
0.0008202099737533
 47
0.0
 47
0.0
 47
0.0
 47
0.0
 47
0.0008202099737533
 47
0.0
 47
0.0
 47
0.0
 47
0.0
 47
1.0
 47
0.0
 47
0.0
 47
0.0
 47
0.0
 47
1.0
171
     0
 49
0.0008202099737533
 49
0.0
 49
0.0
 49
0.0
 49
0.0
 49
0.0008202099737533
 49
0.0
 49
0.0
 49
0.0
 49
0.0
 49
1.0
 49
0.0
 49
0.0
 49
0.0
 49
0.0
 49
1.0
175
     0
142
0.0008202099737533
142
0.0
142
0.0
142
0.0
142
0.0
142
0.0008202099737533
142
0.0
142
0.0
142
0.0
142
0.0
142
1.0
142
0.0
142
0.0
142
0.0
142
0.0
142
1.0
179
     0
144
0.0008202099737533
144
0.0
144
0.0
144
0.0
144
0.0
144
0.0008202099737533
144
0.0
144
0.0
144
0.0
144
0.0
144
1.0
144
0.0
144
0.0
144
0.0
144
0.0
144
1.0
147
0.0008202099737533
147
0.0
147
0.0
147
0.0
147
0.0
147
0.0008202099737533
147
0.0
147
0.0
147
0.0
147
0.0
147
1.0
147
0.0
147
0.0
147
0.0
147
0.0
147
1.0
  0
MLEADERSTYLE
  5
2068
102
{ACAD_REACTORS
330
2067
102
}
330
2067
100
AcDbMLeaderStyle
170
     2
171
     1
172
     0
 90
        2
 40
0.0
 41
0.0
173
     1
 91
-1056964608
340
14
 92
       -2
290
     1
 42
2.0
291
     1
 43
0.36
  3
Standard
 44
4.0
300

342
11
174
     1
178
     6
175
     1
176
     0
 93
-1056964608
 45
4.0
292
     0
297
     0
 46
4.0
 94
-1056964608
 47
1.0
 49
1.0
140
1.0
293
     1
141
0.0
294
     1
177
     0
142
1.0
295
     0
296
     0
143
0.125
1001
ACAD_MLEADERVER
1070
     2
  0
MLINESTYLE
  5
18
102
{ACAD_REACTORS
330
17
102
}
330
17
100
AcDbMlineStyle
  2
STANDARD
 70
     0
  3

 62
   256
 51
90.0
 52
90.0
 71
     2
 49
0.5
 62
   256
  6
BYLAYER
 49
-0.5
 62
   256
  6
BYLAYER
  0
ACDBPLACEHOLDER
  5
F
102
{ACAD_REACTORS
330
E
102
}
330
E
  0
SCALE
  5
2056
102
{ACAD_REACTORS
330
2055
102
}
330
2055
100
AcDbScale
 70
     0
300
1:1
140
1.0
141
1.0
290
     1
  0
SCALE
  5
2057
102
{ACAD_REACTORS
330
2055
102
}
330
2055
100
AcDbScale
 70
     0
300
1:2
140
1.0
141
2.0
290
     0
  0
SCALE
  5
2058
102
{ACAD_REACTORS
330
2055
102
}
330
2055
100
AcDbScale
 70
     0
300
1:4
140
1.0
141
4.0
290
     0
  0
SCALE
  5
2059
102
{ACAD_REACTORS
330
2055
102
}
330
2055
100
AcDbScale
 70
     0
300
1:5
140
1.0
141
5.0
290
     0
  0
SCALE
  5
205A
102
{ACAD_REACTORS
330
2055
102
}
330
2055
100
AcDbScale
 70
     0
300
1:8
140
1.0
141
8.0
290
     0
  0
SCALE
  5
205B
102
{ACAD_REACTORS
330
2055
102
}
330
2055
100
AcDbScale
 70
     0
300
1:10
140
1.0
141
10.0
290
     0
  0
SCALE
  5
205C
102
{ACAD_REACTORS
330
2055
102
}
330
2055
100
AcDbScale
 70
     0
300
1:16
140
1.0
141
16.0
290
     0
  0
SCALE
  5
205D
102
{ACAD_REACTORS
330
2055
102
}
330
2055
100
AcDbScale
 70
     0
300
1:20
140
1.0
141
20.0
290
     0
  0
SCALE
  5
205E
102
{ACAD_REACTORS
330
2055
102
}
330
2055
100
AcDbScale
 70
     0
300
1:30
140
1.0
141
30.0
290
     0
  0
SCALE
  5
205F
102
{ACAD_REACTORS
330
2055
102
}
330
2055
100
AcDbScale
 70
     0
300
1:40
140
1.0
141
40.0
290
     0
  0
SCALE
  5
2060
102
{ACAD_REACTORS
330
2055
102
}
330
2055
100
AcDbScale
 70
     0
300
1:50
140
1.0
141
50.0
290
     0
  0
SCALE
  5
2061
102
{ACAD_REACTORS
330
2055
102
}
330
2055
100
AcDbScale
 70
     0
300
1:100
140
1.0
141
100.0
290
     0
  0
SCALE
  5
2062
102
{ACAD_REACTORS
330
2055
102
}
330
2055
100
AcDbScale
 70
     0
300
2:1
140
2.0
141
1.0
290
     0
  0
SCALE
  5
2063
102
{ACAD_REACTORS
330
2055
102
}
330
2055
100
AcDbScale
 70
     0
300
4:1
140
4.0
141
1.0
290
     0
  0
SCALE
  5
2064
102
{ACAD_REACTORS
330
2055
102
}
330
2055
100
AcDbScale
 70
     0
300
8:1
140
8.0
141
1.0
290
     0
  0
SCALE
  5
2065
102
{ACAD_REACTORS
330
2055
102
}
330
2055
100
AcDbScale
 70
     0
300
10:1
140
10.0
141
1.0
290
     0
  0
SCALE
  5
2066
102
{ACAD_REACTORS
330
2055
102
}
330
2055
100
AcDbScale
 70
     0
300
100:1
140
100.0
141
1.0
290
     0
  0
TABLESTYLE
  5
1879
102
{ACAD_XDICTIONARY
360
207E
102
}
102
{ACAD_REACTORS
330
1878
102
}
330
1878
100
AcDbTableStyle
  3
Standard
 70
     0
 71
     0
 40
1.5
 41
1.5
280
     0
281
     0
  7
Standard
140
4.5
170
     2
 62
     0
 63
     7
283
     0
274
    -2
284
     1
 64
     0
275
    -2
285
     1
 65
     0
276
    -2
286
     1
 66
     0
277
    -2
287
     1
 67
     0
278
    -2
288
     1
 68
     0
279
    -2
289
     1
 69
     0
  7
Standard
140
6.0
170
     5
 62
     0
 63
     7
283
     0
274
    -2
284
     1
 64
     0
275
    -2
285
     1
 65
     0
276
    -2
286
     1
 66
     0
277
    -2
287
     1
 67
     0
278
    -2
288
     1
 68
     0
279
    -2
289
     1
 69
     0
  7
Standard
140
4.5
170
     5
 62
     0
 63
     7
283
     0
274
    -2
284
     1
 64
     0
275
    -2
285
     1
 65
     0
276
    -2
286
     1
 66
     0
277
    -2
287
     1
 67
     0
278
    -2
288
     1
 68
     0
279
    -2
289
     1
 69
     0
  0
VISUALSTYLE
  5
2047
102
{ACAD_XDICTIONARY
360
208F
102
}
102
{ACAD_REACTORS
330
2041
102
}
330
2041
100
AcDbVisualStyle
  2
2dWireframe
 70
     4
 71
     0
 72
     2
 73
     0
 90
        0
 40
-0.6
 41
-30.0
 62
     5
 63
     7
421
 16777215
 74
     1
 91
        4
 64
     7
 65
   257
 75
     1
175
     1
 42
1.0
 92
        0
 66
   257
 43
1.0
 76
     1
 77
     6
 78
     2
 67
     7
 79
     5
170
     0
171
     0
290
     0
174
     0
 93
        1
 44
0.0
173
     0
291
     0
 45
0.0
1001
ACAD
1000
AcDbSavedByObjectVersion
1070
     0
  0
VISUALSTYLE
  5
2049
102
{ACAD_XDICTIONARY
360
2093
102
}
102
{ACAD_REACTORS
330
2041
102
}
330
2041
100
AcDbVisualStyle
  2
3D Hidden
 70
     6
 71
     1
 72
     2
 73
     2
 90
        0
 40
-0.6
 41
-30.0
 62
     5
 63
     7
421
 16777215
 74
     2
 91
        2
 64
     7
 65
   257
 75
     2
175
     1
 42
179.0
 92
        0
 66
   257
 43
1.0
 76
     1
 77
     6
 78
     2
 67
     7
 79
     3
170
     0
171
     0
290
     0
174
     0
 93
        1
 44
0.0
173
     0
291
     0
 45
0.0
1001
ACAD
1000
AcDbSavedByObjectVersion
1070
     0
  0
VISUALSTYLE
  5
2048
102
{ACAD_XDICTIONARY
360
2091
102
}
102
{ACAD_REACTORS
330
2041
102
}
330
2041
100
AcDbVisualStyle
  2
3dWireframe
 70
     5
 71
     0
 72
     2
 73
     0
 90
        0
 40
-0.6
 41
-30.0
 62
     5
 63
     7
421
 16777215
 74
     1
 91
        4
 64
     7
 65
   257
 75
     1
175
     1
 42
1.0
 92
        0
 66
   257
 43
1.0
 76
     1
 77
     6
 78
     2
 67
     7
 79
     5
170
     0
171
     0
290
     0
174
     0
 93
        1
 44
0.0
173
     0
291
     0
 45
0.0
1001
ACAD
1000
AcDbSavedByObjectVersion
1070
     0
  0
VISUALSTYLE
  5
2046
102
{ACAD_XDICTIONARY
360
208D
102
}
102
{ACAD_REACTORS
330
2041
102
}
330
2041
100
AcDbVisualStyle
  2
Basic
 70
     7
 71
     1
 72
     0
 73
     1
 90
        0
 40
-0.6
 41
-30.0
 62
     5
 63
     7
421
 16777215
 74
     0
 91
        4
 64
     7
 65
   257
 75
     1
175
     1
 42
1.0
 92
        8
 66
     7
 43
1.0
 76
     1
 77
     6
 78
     2
 67
     7
 79
     5
170
     0
171
     0
290
     0
174
     0
 93
        1
 44
0.0
173
     0
291
     1
 45
0.0
1001
ACAD
1000
AcDbSavedByObjectVersion
1070
     0
  0
VISUALSTYLE
  5
204D
102
{ACAD_XDICTIONARY
360
209B
102
}
102
{ACAD_REACTORS
330
2041
102
}
330
2041
100
AcDbVisualStyle
  2
Brighten
 70
    12
 71
     2
 72
     2
 73
     0
 90
        0
 40
-0.6
 41
-30.0
 62
     5
 63
     7
421
 16777215
 74
     1
 91
        4
 64
     7
 65
   257
 75
     1
175
     1
 42
1.0
 92
        8
 66
     7
 43
1.0
 76
     1
 77
     6
 78
     2
 67
     7
 79
     5
170
     0
171
     0
290
     0
174
     0
 93
        1
 44
50.0
173
     0
291
     1
 45
0.0
1001
ACAD
1000
AcDbSavedByObjectVersion
1070
     0
  0
VISUALSTYLE
  5
2051
102
{ACAD_XDICTIONARY
360
20A3
102
}
102
{ACAD_REACTORS
330
2041
102
}
330
2041
100
AcDbVisualStyle
  2
ColorChange
 70
    16
 71
     2
 72
     2
 73
     3
 90
        0
 40
-0.6
 41
-30.0
 62
     5
 63
     8
421
  8421504
 74
     1
 91
        4
 64
     7
 65
   257
 75
     1
175
     1
 42
1.0
 92
        8
 66
     8
424
  8421504
 43
1.0
 76
     1
 77
     6
 78
     2
 67
     7
 79
     5
170
     0
171
     0
290
     0
174
     0
 93
        1
 44
0.0
173
     0
291
     1
 45
0.0
1001
ACAD
1000
AcDbSavedByObjectVersion
1070
     0
  0
VISUALSTYLE
  5
204A
102
{ACAD_XDICTIONARY
360
2095
102
}
102
{ACAD_REACTORS
330
2041
102
}
330
2041
100
AcDbVisualStyle
  2
Conceptual
 70
     9
 71
     3
 72
     2
 73
     0
 90
        0
 40
-0.6
 41
-30.0
 62
     5
 63
     7
421
 16777215
 74
     2
 91
        2
 64
     7
 65
   257
 75
     1
175
     1
 42
179.0
 92
        8
 66
     7
 43
1.0
 76
     1
 77
     6
 78
     2
 67
     7
 79
     3
170
     0
171
     0
290
     0
174
     0
 93
        1
 44
0.0
173
     0
291
     0
 45
0.0
1001
ACAD
1000
AcDbSavedByObjectVersion
1070
     0
  0
VISUALSTYLE
  5
204C
102
{ACAD_XDICTIONARY
360
2099
102
}
102
{ACAD_REACTORS
330
2041
102
}
330
2041
100
AcDbVisualStyle
  2
Dim
 70
    11
 71
     2
 72
     2
 73
     0
 90
        0
 40
-0.6
 41
-30.0
 62
     5
 63
     7
421
 16777215
 74
     1
 91
        4
 64
     7
 65
   257
 75
     1
175
     1
 42
1.0
 92
        8
 66
     7
 43
1.0
 76
     1
 77
     6
 78
     2
 67
     7
 79
     5
170
     0
171
     0
290
     0
174
     0
 93
        1
 44
-50.0
173
     0
291
     1
 45
0.0
1001
ACAD
1000
AcDbSavedByObjectVersion
1070
     0
  0
VISUALSTYLE
  5
2054
102
{ACAD_XDICTIONARY
360
20A9
102
}
102
{ACAD_REACTORS
330
2041
102
}
330
2041
100
AcDbVisualStyle
  2
EdgeColorOff
 70
    22
 71
     2
 72
     2
 73
     0
 90
        0
 40
-0.6
 41
-30.0
 62
     5
 63
     7
421
 16777215
 74
     1
 91
        4
 64
     7
 65
   257
 75
     1
175
     1
 42
1.0
 92
        8
 66
     7
 43
1.0
 76
     1
 77
     6
 78
     2
 67
     7
 79
     5
170
     0
171
     0
290
     0
174
     0
 93
        1
 44
0.0
173
     0
291
     1
 45
0.0
1001
ACAD
1000
AcDbSavedByObjectVersion
1070
     0
  0
VISUALSTYLE
  5
2050
102
{ACAD_XDICTIONARY
360
20A1
102
}
102
{ACAD_REACTORS
330
2041
102
}
330
2041
100
AcDbVisualStyle
  2
Facepattern
 70
    15
 71
     2
 72
     2
 73
     0
 90
        0
 40
-0.6
 41
-30.0
 62
     5
 63
     7
421
 16777215
 74
     1
 91
        4
 64
     7
 65
   257
 75
     1
175
     1
 42
1.0
 92
        8
 66
     7
 43
1.0
 76
     1
 77
     6
 78
     2
 67
     7
 79
     5
170
     0
171
     0
290
     0
174
     0
 93
        1
 44
0.0
173
     0
291
     1
 45
0.0
1001
ACAD
1000
AcDbSavedByObjectVersion
1070
     0
  0
VISUALSTYLE
  5
2042
102
{ACAD_XDICTIONARY
360
2085
102
}
102
{ACAD_REACTORS
330
2041
102
}
330
2041
100
AcDbVisualStyle
  2
Flat
 70
     0
 71
     2
 72
     1
 73
     1
 90
        2
 40
-0.6
 41
30.0
 62
     5
 63
     7
421
 16777215
 74
     0
 91
        4
 64
     7
 65
   257
 75
     1
175
     1
 42
1.0
 92
        8
 66
     7
 43
1.0
 76
     1
 77
     6
 78
     2
 67
     7
 79
     5
170
     0
171
     0
290
     0
174
     0
 93
       13
 44
0.0
173
     0
291
     1
 45
0.0
1001
ACAD
1000
AcDbSavedByObjectVersion
1070
     0
  0
VISUALSTYLE
  5
2043
102
{ACAD_XDICTIONARY
360
2087
102
}
102
{ACAD_REACTORS
330
2041
102
}
330
2041
100
AcDbVisualStyle
  2
FlatWithEdges
 70
     1
 71
     2
 72
     1
 73
     1
 90
        2
 40
-0.6
 41
30.0
 62
     5
 63
     7
421
 16777215
 74
     1
 91
        4
 64
     7
 65
   257
 75
     1
175
     1
 42
1.0
 92
        0
 66
   257
 43
1.0
 76
     1
 77
     6
 78
     2
 67
     7
 79
     5
170
     0
171
     0
290
     0
174
     0
 93
       13
 44
0.0
173
     0
291
     1
 45
0.0
1001
ACAD
1000
AcDbSavedByObjectVersion
1070
     0
  0
VISUALSTYLE
  5
2044
102
{ACAD_XDICTIONARY
360
2089
102
}
102
{ACAD_REACTORS
330
2041
102
}
330
2041
100
AcDbVisualStyle
  2
Gouraud
 70
     2
 71
     2
 72
     2
 73
     1
 90
        2
 40
-0.6
 41
30.0
 62
     5
 63
     7
421
 16777215
 74
     0
 91
        4
 64
     7
 65
   257
 75
     1
175
     1
 42
1.0
 92
        0
 66
     7
 43
1.0
 76
     1
 77
     6
 78
     2
 67
     7
 79
     5
170
     0
171
     0
290
     0
174
     0
 93
       13
 44
0.0
173
     0
291
     1
 45
0.0
1001
ACAD
1000
AcDbSavedByObjectVersion
1070
     0
  0
VISUALSTYLE
  5
2045
102
{ACAD_XDICTIONARY
360
208B
102
}
102
{ACAD_REACTORS
330
2041
102
}
330
2041
100
AcDbVisualStyle
  2
GouraudWithEdges
 70
     3
 71
     2
 72
     2
 73
     1
 90
        2
 40
-0.6
 41
30.0
 62
     5
 63
     7
421
 16777215
 74
     1
 91
        4
 64
     7
 65
   257
 75
     1
175
     1
 42
1.0
 92
        0
 66
   257
 43
1.0
 76
     1
 77
     6
 78
     2
 67
     7
 79
     5
170
     0
171
     0
290
     0
174
     0
 93
       13
 44
0.0
173
     0
291
     1
 45
0.0
1001
ACAD
1000
AcDbSavedByObjectVersion
1070
     0
  0
VISUALSTYLE
  5
2052
102
{ACAD_XDICTIONARY
360
20A5
102
}
102
{ACAD_REACTORS
330
2041
102
}
330
2041
100
AcDbVisualStyle
  2
JitterOff
 70
    20
 71
     2
 72
     2
 73
     0
 90
        0
 40
-0.6
 41
-30.0
 62
     5
 63
     7
421
 16777215
 74
     1
 91
        4
 64
     7
 65
   257
 75
     1
175
     1
 42
1.0
 92
       10
 66
     7
 43
1.0
 76
     1
 77
     6
 78
     2
 67
     7
 79
     5
170
     0
171
     0
290
     0
174
     0
 93
        1
 44
0.0
173
     0
291
     1
 45
0.0
1001
ACAD
1000
AcDbSavedByObjectVersion
1070
     0
  0
VISUALSTYLE
  5
204F
102
{ACAD_XDICTIONARY
360
209F
102
}
102
{ACAD_REACTORS
330
2041
102
}
330
2041
100
AcDbVisualStyle
  2
Linepattern
 70
    14
 71
     2
 72
     2
 73
     0
 90
        0
 40
-0.6
 41
-30.0
 62
     5
 63
     7
421
 16777215
 74
     1
 91
        4
 64
     7
 65
   257
 75
     7
175
     7
 42
1.0
 92
        8
 66
     7
 43
1.0
 76
     1
 77
     6
 78
     2
 67
     7
 79
     5
170
     0
171
     0
290
     0
174
     0
 93
        1
 44
0.0
173
     0
291
     1
 45
0.0
1001
ACAD
1000
AcDbSavedByObjectVersion
1070
     0
  0
VISUALSTYLE
  5
2053
102
{ACAD_XDICTIONARY
360
20A7
102
}
102
{ACAD_REACTORS
330
2041
102
}
330
2041
100
AcDbVisualStyle
  2
OverhangOff
 70
    21
 71
     2
 72
     2
 73
     0
 90
        0
 40
-0.6
 41
-30.0
 62
     5
 63
     7
421
 16777215
 74
     1
 91
        4
 64
     7
 65
   257
 75
     1
175
     1
 42
1.0
 92
        9
 66
     7
 43
1.0
 76
     1
 77
     6
 78
     2
 67
     7
 79
     5
170
     0
171
     0
290
     0
174
     0
 93
        1
 44
0.0
173
     0
291
     1
 45
0.0
1001
ACAD
1000
AcDbSavedByObjectVersion
1070
     0
  0
VISUALSTYLE
  5
204B
102
{ACAD_XDICTIONARY
360
2097
102
}
102
{ACAD_REACTORS
330
2041
102
}
330
2041
100
AcDbVisualStyle
  2
Realistic
 70
     8
 71
     2
 72
     2
 73
     0
 90
        0
 40
-0.6
 41
-30.0
 62
     5
 63
     7
421
 16777215
 74
     1
 91
        0
 64
     7
 65
   257
 75
     1
175
     1
 42
1.0
 92
        8
 66
     8
424
  7895160
 43
1.0
 76
     1
 77
     6
 78
     2
 67
     7
 79
     5
170
     0
171
     0
290
     0
174
     0
 93
       13
 44
0.0
173
     0
291
     0
 45
0.0
1001
ACAD
1000
AcDbSavedByObjectVersion
1070
     0
  0
VISUALSTYLE
  5
204E
102
{ACAD_XDICTIONARY
360
209D
102
}
102
{ACAD_REACTORS
330
2041
102
}
330
2041
100
AcDbVisualStyle
  2
Thicken
 70
    13
 71
     2
 72
     2
 73
     0
 90
        0
 40
-0.6
 41
-30.0
 62
     5
 63
     7
421
 16777215
 74
     1
 91
        4
 64
     7
 65
   257
 75
     1
175
     1
 42
1.0
 92
       12
 66
     7
 43
1.0
 76
     1
 77
     6
 78
     2
 67
     7
 79
     5
170
     0
171
     0
290
     0
174
     0
 93
        1
 44
0.0
173
     0
291
     1
 45
0.0
1001
ACAD
1000
AcDbSavedByObjectVersion
1070
     0
  0
DICTIONARYVAR
  5
207D
102
{ACAD_REACTORS
330
5E
102
}
330
5E
100
DictionaryVariables
280
     0
  1
1:1
  0
DICTIONARYVAR
  5
207C
102
{ACAD_REACTORS
330
5E
102
}
330
5E
100
DictionaryVariables
280
     0
  1
STANDARD
  0
DICTIONARYVAR
  5
187F
102
{ACAD_REACTORS
330
5E
102
}
330
5E
100
DictionaryVariables
280
     0
  1
STANDARD
  0
DICTIONARYVAR
  5
5F
102
{ACAD_REACTORS
330
5E
102
}
330
5E
100
DictionaryVariables
280
     0
  1
2
  0
DICTIONARYVAR
  5
63
102
{ACAD_REACTORS
330
5E
102
}
330
5E
100
DictionaryVariables
280
     0
  1
1
  0
DICTIONARY
  5
2032
330
2031
100
AcDbDictionary
280
     1
281
     1
  3
ACAD_XREC_ROUNDTRIP
360
2083
  3
BUMPTILE
360
2034
  3
DIFFUSETILE
360
2033
  3
OPACITYTILE
360
2037
  3
REFLECTIONTILE
360
2036
  3
REFRACTIONTILE
360
2038
  3
SPECULARTILE
360
2035
  0
DICTIONARY
  5
202A
330
2029
100
AcDbDictionary
280
     1
281
     1
  3
ACAD_XREC_ROUNDTRIP
360
2082
  3
BUMPTILE
360
202C
  3
DIFFUSETILE
360
202B
  3
OPACITYTILE
360
202F
  3
REFLECTIONTILE
360
202E
  3
REFRACTIONTILE
360
2030
  3
SPECULARTILE
360
202D
  0
DICTIONARY
  5
203A
330
2039
100
AcDbDictionary
280
     1
281
     1
  3
ACAD_XREC_ROUNDTRIP
360
2084
  3
BUMPTILE
360
203C
  3
DIFFUSETILE
360
203B
  3
OPACITYTILE
360
203F
  3
REFLECTIONTILE
360
203E
  3
REFRACTIONTILE
360
2040
  3
SPECULARTILE
360
203D
  0
DICTIONARY
  5
207E
330
1879
100
AcDbDictionary
280
     1
281
     1
  3
ACAD_ROUNDTRIP_2008_TABLESTYLE_CELLSTYLEMAP
360
207F
  3
ACAD_XREC_ROUNDTRIP
360
2081
  0
DICTIONARY
  5
208F
330
2047
100
AcDbDictionary
280
     1
281
     1
  3
ACAD_XREC_ROUNDTRIP
360
2090
  0
DICTIONARY
  5
2093
330
2049
100
AcDbDictionary
280
     1
281
     1
  3
ACAD_XREC_ROUNDTRIP
360
2094
  0
DICTIONARY
  5
2091
330
2048
100
AcDbDictionary
280
     1
281
     1
  3
ACAD_XREC_ROUNDTRIP
360
2092
  0
DICTIONARY
  5
208D
330
2046
100
AcDbDictionary
280
     1
281
     1
  3
ACAD_XREC_ROUNDTRIP
360
208E
  0
DICTIONARY
  5
209B
330
204D
100
AcDbDictionary
280
     1
281
     1
  3
ACAD_XREC_ROUNDTRIP
360
209C
  0
DICTIONARY
  5
20A3
330
2051
100
AcDbDictionary
280
     1
281
     1
  3
ACAD_XREC_ROUNDTRIP
360
20A4
  0
DICTIONARY
  5
2095
330
204A
100
AcDbDictionary
280
     1
281
     1
  3
ACAD_XREC_ROUNDTRIP
360
2096
  0
DICTIONARY
  5
2099
330
204C
100
AcDbDictionary
280
     1
281
     1
  3
ACAD_XREC_ROUNDTRIP
360
209A
  0
DICTIONARY
  5
20A9
330
2054
100
AcDbDictionary
280
     1
281
     1
  3
ACAD_XREC_ROUNDTRIP
360
20AA
  0
DICTIONARY
  5
20A1
330
2050
100
AcDbDictionary
280
     1
281
     1
  3
ACAD_XREC_ROUNDTRIP
360
20A2
  0
DICTIONARY
  5
2085
330
2042
100
AcDbDictionary
280
     1
281
     1
  3
ACAD_XREC_ROUNDTRIP
360
2086
  0
DICTIONARY
  5
2087
330
2043
100
AcDbDictionary
280
     1
281
     1
  3
ACAD_XREC_ROUNDTRIP
360
2088
  0
DICTIONARY
  5
2089
330
2044
100
AcDbDictionary
280
     1
281
     1
  3
ACAD_XREC_ROUNDTRIP
360
208A
  0
DICTIONARY
  5
208B
330
2045
100
AcDbDictionary
280
     1
281
     1
  3
ACAD_XREC_ROUNDTRIP
360
208C
  0
DICTIONARY
  5
20A5
330
2052
100
AcDbDictionary
280
     1
281
     1
  3
ACAD_XREC_ROUNDTRIP
360
20A6
  0
DICTIONARY
  5
209F
330
204F
100
AcDbDictionary
280
     1
281
     1
  3
ACAD_XREC_ROUNDTRIP
360
20A0
  0
DICTIONARY
  5
20A7
330
2053
100
AcDbDictionary
280
     1
281
     1
  3
ACAD_XREC_ROUNDTRIP
360
20A8
  0
DICTIONARY
  5
2097
330
204B
100
AcDbDictionary
280
     1
281
     1
  3
ACAD_XREC_ROUNDTRIP
360
2098
  0
DICTIONARY
  5
209D
330
204E
100
AcDbDictionary
280
     1
281
     1
  3
ACAD_XREC_ROUNDTRIP
360
209E
  0
XRECORD
  5
2083
102
{ACAD_REACTORS
330
2032
102
}
330
2032
100
AcDbXrecord
280
     1
102
MATERIAL
148
0.0
149
0.0
149
0.0
 93
        0
 94
      127
282
     0
 72
     0
 77
     0
171
     0
175
     0
179
     0
273
     0
  0
XRECORD
  5
2034
102
{ACAD_REACTORS
330
2032
102
}
330
2032
100
AcDbXrecord
280
     1
270
     1
271
     1
  0
XRECORD
  5
2033
102
{ACAD_REACTORS
330
2032
102
}
330
2032
100
AcDbXrecord
280
     1
270
     1
271
     1
  0
XRECORD
  5
2037
102
{ACAD_REACTORS
330
2032
102
}
330
2032
100
AcDbXrecord
280
     1
270
     1
271
     1
  0
XRECORD
  5
2036
102
{ACAD_REACTORS
330
2032
102
}
330
2032
100
AcDbXrecord
280
     1
270
     1
271
     1
  0
XRECORD
  5
2038
102
{ACAD_REACTORS
330
2032
102
}
330
2032
100
AcDbXrecord
280
     1
270
     1
271
     1
  0
XRECORD
  5
2035
102
{ACAD_REACTORS
330
2032
102
}
330
2032
100
AcDbXrecord
280
     1
270
     1
271
     1
  0
XRECORD
  5
2082
102
{ACAD_REACTORS
330
202A
102
}
330
202A
100
AcDbXrecord
280
     1
102
MATERIAL
148
0.0
149
0.0
149
0.0
 93
        0
 94
      127
282
     0
 72
     0
 77
     0
171
     0
175
     0
179
     0
273
     0
  0
XRECORD
  5
202C
102
{ACAD_REACTORS
330
202A
102
}
330
202A
100
AcDbXrecord
280
     1
270
     1
271
     1
  0
XRECORD
  5
202B
102
{ACAD_REACTORS
330
202A
102
}
330
202A
100
AcDbXrecord
280
     1
270
     1
271
     1
  0
XRECORD
  5
202F
102
{ACAD_REACTORS
330
202A
102
}
330
202A
100
AcDbXrecord
280
     1
270
     1
271
     1
  0
XRECORD
  5
202E
102
{ACAD_REACTORS
330
202A
102
}
330
202A
100
AcDbXrecord
280
     1
270
     1
271
     1
  0
XRECORD
  5
2030
102
{ACAD_REACTORS
330
202A
102
}
330
202A
100
AcDbXrecord
280
     1
270
     1
271
     1
  0
XRECORD
  5
202D
102
{ACAD_REACTORS
330
202A
102
}
330
202A
100
AcDbXrecord
280
     1
270
     1
271
     1
  0
XRECORD
  5
2084
102
{ACAD_REACTORS
330
203A
102
}
330
203A
100
AcDbXrecord
280
     1
102
MATERIAL
148
0.0
149
0.0
149
0.0
 93
        0
 94
      127
282
     0
 72
     0
 77
     0
171
     0
175
     0
179
     0
273
     0
  0
XRECORD
  5
203C
102
{ACAD_REACTORS
330
203A
102
}
330
203A
100
AcDbXrecord
280
     1
270
     1
271
     1
  0
XRECORD
  5
203B
102
{ACAD_REACTORS
330
203A
102
}
330
203A
100
AcDbXrecord
280
     1
270
     1
271
     1
  0
XRECORD
  5
203F
102
{ACAD_REACTORS
330
203A
102
}
330
203A
100
AcDbXrecord
280
     1
270
     1
271
     1
  0
XRECORD
  5
203E
102
{ACAD_REACTORS
330
203A
102
}
330
203A
100
AcDbXrecord
280
     1
270
     1
271
     1
  0
XRECORD
  5
2040
102
{ACAD_REACTORS
330
203A
102
}
330
203A
100
AcDbXrecord
280
     1
270
     1
271
     1
  0
XRECORD
  5
203D
102
{ACAD_REACTORS
330
203A
102
}
330
203A
100
AcDbXrecord
280
     1
270
     1
271
     1
  0
CELLSTYLEMAP
  5
207F
102
{ACAD_REACTORS
330
207E
102
}
330
207E
100
AcDbCellStyleMap
 90
        3
300
CELLSTYLE
  1
TABLEFORMAT_BEGIN
 90
        5
170
     1
 91
        0
 92
    32768
 62
   257
 93
        1
300
CONTENTFORMAT
  1
CONTENTFORMAT_BEGIN
 90
        0
 91
        0
 92
        4
 93
        0
300

 40
0.0
140
1.0
 94
        5
 62
     0
340
11
144
6.0
309
CONTENTFORMAT_END
171
     1
301
MARGIN
  1
CELLMARGIN_BEGIN
 40
1.5
 40
1.5
 40
1.5
 40
1.5
 40
0.18
 40
0.18
309
CELLMARGIN_END
 94
        6
 95
        1
302
GRIDFORMAT
  1
GRIDFORMAT_BEGIN
 90
        0
 91
        1
 62
     0
 92
       -2
340
0
 93
        0
 40
0.045
309
GRIDFORMAT_END
 95
        2
302
GRIDFORMAT
  1
GRIDFORMAT_BEGIN
 90
        0
 91
        1
 62
     0
 92
       -2
340
0
 93
        0
 40
0.045
309
GRIDFORMAT_END
 95
        4
302
GRIDFORMAT
  1
GRIDFORMAT_BEGIN
 90
        0
 91
        1
 62
     0
 92
       -2
340
0
 93
        0
 40
0.045
309
GRIDFORMAT_END
 95
        8
302
GRIDFORMAT
  1
GRIDFORMAT_BEGIN
 90
        0
 91
        1
 62
     0
 92
       -2
340
0
 93
        0
 40
0.045
309
GRIDFORMAT_END
 95
       16
302
GRIDFORMAT
  1
GRIDFORMAT_BEGIN
 90
        0
 91
        1
 62
     0
 92
       -2
340
0
 93
        0
 40
0.045
309
GRIDFORMAT_END
 95
       32
302
GRIDFORMAT
  1
GRIDFORMAT_BEGIN
 90
        0
 91
        1
 62
     0
 92
       -2
340
0
 93
        0
 40
0.045
309
GRIDFORMAT_END
309
TABLEFORMAT_END
  1
CELLSTYLE_BEGIN
 90
        1
 91
        1
300
_TITLE
309
CELLSTYLE_END
300
CELLSTYLE
  1
TABLEFORMAT_BEGIN
 90
        5
170
     1
 91
        0
 92
        0
 62
   257
 93
        1
300
CONTENTFORMAT
  1
CONTENTFORMAT_BEGIN
 90
        0
 91
        0
 92
        4
 93
        0
300

 40
0.0
140
1.0
 94
        5
 62
     0
340
11
144
4.5
309
CONTENTFORMAT_END
171
     1
301
MARGIN
  1
CELLMARGIN_BEGIN
 40
1.5
 40
1.5
 40
1.5
 40
1.5
 40
0.18
 40
0.18
309
CELLMARGIN_END
 94
        6
 95
        1
302
GRIDFORMAT
  1
GRIDFORMAT_BEGIN
 90
        0
 91
        1
 62
     0
 92
       -2
340
0
 93
        0
 40
0.045
309
GRIDFORMAT_END
 95
        2
302
GRIDFORMAT
  1
GRIDFORMAT_BEGIN
 90
        0
 91
        1
 62
     0
 92
       -2
340
0
 93
        0
 40
0.045
309
GRIDFORMAT_END
 95
        4
302
GRIDFORMAT
  1
GRIDFORMAT_BEGIN
 90
        0
 91
        1
 62
     0
 92
       -2
340
0
 93
        0
 40
0.045
309
GRIDFORMAT_END
 95
        8
302
GRIDFORMAT
  1
GRIDFORMAT_BEGIN
 90
        0
 91
        1
 62
     0
 92
       -2
340
0
 93
        0
 40
0.045
309
GRIDFORMAT_END
 95
       16
302
GRIDFORMAT
  1
GRIDFORMAT_BEGIN
 90
        0
 91
        1
 62
     0
 92
       -2
340
0
 93
        0
 40
0.045
309
GRIDFORMAT_END
 95
       32
302
GRIDFORMAT
  1
GRIDFORMAT_BEGIN
 90
        0
 91
        1
 62
     0
 92
       -2
340
0
 93
        0
 40
0.045
309
GRIDFORMAT_END
309
TABLEFORMAT_END
  1
CELLSTYLE_BEGIN
 90
        2
 91
        1
300
_HEADER
309
CELLSTYLE_END
300
CELLSTYLE
  1
TABLEFORMAT_BEGIN
 90
        5
170
     1
 91
        0
 92
        0
 62
   257
 93
        1
300
CONTENTFORMAT
  1
CONTENTFORMAT_BEGIN
 90
        0
 91
        0
 92
        4
 93
        0
300

 40
0.0
140
1.0
 94
        2
 62
     0
340
11
144
4.5
309
CONTENTFORMAT_END
171
     1
301
MARGIN
  1
CELLMARGIN_BEGIN
 40
1.5
 40
1.5
 40
1.5
 40
1.5
 40
0.18
 40
0.18
309
CELLMARGIN_END
 94
        6
 95
        1
302
GRIDFORMAT
  1
GRIDFORMAT_BEGIN
 90
        0
 91
        1
 62
     0
 92
       -2
340
0
 93
        0
 40
0.045
309
GRIDFORMAT_END
 95
        2
302
GRIDFORMAT
  1
GRIDFORMAT_BEGIN
 90
        0
 91
        1
 62
     0
 92
       -2
340
0
 93
        0
 40
0.045
309
GRIDFORMAT_END
 95
        4
302
GRIDFORMAT
  1
GRIDFORMAT_BEGIN
 90
        0
 91
        1
 62
     0
 92
       -2
340
0
 93
        0
 40
0.045
309
GRIDFORMAT_END
 95
        8
302
GRIDFORMAT
  1
GRIDFORMAT_BEGIN
 90
        0
 91
        1
 62
     0
 92
       -2
340
0
 93
        0
 40
0.045
309
GRIDFORMAT_END
 95
       16
302
GRIDFORMAT
  1
GRIDFORMAT_BEGIN
 90
        0
 91
        1
 62
     0
 92
       -2
340
0
 93
        0
 40
0.045
309
GRIDFORMAT_END
 95
       32
302
GRIDFORMAT
  1
GRIDFORMAT_BEGIN
 90
        0
 91
        1
 62
     0
 92
       -2
340
0
 93
        0
 40
0.045
309
GRIDFORMAT_END
309
TABLEFORMAT_END
  1
CELLSTYLE_BEGIN
 90
        3
 91
        2
300
_DATA
309
CELLSTYLE_END
  0
XRECORD
  5
2081
102
{ACAD_REACTORS
330
207E
102
}
330
207E
100
AcDbXrecord
280
     1
102
ACAD_ROUNDTRIP_PRE2007_TABLESTYLE
 90
        4
 91
        0
  1

 92
        4
 93
        0
  2

 94
        4
 95
        0
  3

  0
XRECORD
  5
2090
102
{ACAD_REACTORS
330
208F
102
}
330
208F
100
AcDbXrecord
280
     1
102
RTVSPropertyOp0
 70
     1
102
RTVSPropertyOp1
 70
     1
102
RTVSPropertyOp2
 70
     1
102
RTVSPropertyOp3
 70
     1
102
RTVSPropertyOp4
 70
     1
102
RTVSPropertyOp5
 70
     1
102
RTVSPropertyOp6
 70
     1
102
RTVSPropertyOp7
 70
     1
102
RTVSPropertyOp8
 70
     1
102
RTVSPropertyOp9
 70
     1
102
RTVSPropertyOp10
 70
     1
102
RTVSPropertyOp11
 70
     1
102
RTVSPropertyOp12
 70
     1
102
RTVSPropertyOp13
 70
     1
102
RTVSPropertyOp14
 70
     1
102
RTVSPropertyOp15
 70
     1
102
RTVSPropertyOp16
 70
     1
102
RTVSPropertyOp17
 70
     1
102
RTVSPropertyOp18
 70
     1
102
RTVSPropertyOp19
 70
     1
102
RTVSPropertyOp20
 70
     1
102
RTVSPropertyOp21
 70
     1
102
RTVSPropertyOp22
 70
     1
102
RTVSPropertyOp23
 70
     1
102
RTVSPropertyOp24
 70
     1
102
RTVSPropertyOp25
 70
     1
102
RTVSPropertyOp26
 70
     1
102
RTVSPropertyOp27
 70
     1
  0
XRECORD
  5
2094
102
{ACAD_REACTORS
330
2093
102
}
330
2093
100
AcDbXrecord
280
     1
102
RTVSPropertyOp0
 70
     1
102
RTVSPropertyOp1
 70
     1
102
RTVSPropertyOp2
 70
     1
102
RTVSPropertyOp3
 70
     1
102
RTVSPropertyOp4
 70
     1
102
RTVSPropertyOp5
 70
     1
102
RTVSPropertyOp6
 70
     1
102
RTVSPropertyOp7
 70
     1
102
RTVSPropertyOp8
 70
     1
102
RTVSPropertyOp9
 70
     1
102
RTVSPropertyOp10
 70
     1
102
RTVSPropertyOp11
 70
     1
102
RTVSPropertyOp12
 70
     1
102
RTVSPropertyOp13
 70
     1
102
RTVSPropertyOp14
 70
     1
102
RTVSPropertyOp15
 70
     1
102
RTVSPropertyOp16
 70
     1
102
RTVSPropertyOp17
 70
     1
102
RTVSPropertyOp18
 70
     1
102
RTVSPropertyOp19
 70
     1
102
RTVSPropertyOp20
 70
     1
102
RTVSPropertyOp21
 70
     1
102
RTVSPropertyOp22
 70
     1
102
RTVSPropertyOp23
 70
     1
102
RTVSPropertyOp24
 70
     1
102
RTVSPropertyOp25
 70
     1
102
RTVSPropertyOp26
 70
     1
102
RTVSPropertyOp27
 70
     1
  0
XRECORD
  5
2092
102
{ACAD_REACTORS
330
2091
102
}
330
2091
100
AcDbXrecord
280
     1
102
RTVSPropertyOp0
 70
     1
102
RTVSPropertyOp1
 70
     1
102
RTVSPropertyOp2
 70
     1
102
RTVSPropertyOp3
 70
     1
102
RTVSPropertyOp4
 70
     1
102
RTVSPropertyOp5
 70
     1
102
RTVSPropertyOp6
 70
     1
102
RTVSPropertyOp7
 70
     1
102
RTVSPropertyOp8
 70
     1
102
RTVSPropertyOp9
 70
     1
102
RTVSPropertyOp10
 70
     1
102
RTVSPropertyOp11
 70
     1
102
RTVSPropertyOp12
 70
     1
102
RTVSPropertyOp13
 70
     1
102
RTVSPropertyOp14
 70
     1
102
RTVSPropertyOp15
 70
     1
102
RTVSPropertyOp16
 70
     1
102
RTVSPropertyOp17
 70
     1
102
RTVSPropertyOp18
 70
     1
102
RTVSPropertyOp19
 70
     1
102
RTVSPropertyOp20
 70
     1
102
RTVSPropertyOp21
 70
     1
102
RTVSPropertyOp22
 70
     1
102
RTVSPropertyOp23
 70
     1
102
RTVSPropertyOp24
 70
     1
102
RTVSPropertyOp25
 70
     1
102
RTVSPropertyOp26
 70
     1
102
RTVSPropertyOp27
 70
     1
  0
XRECORD
  5
208E
102
{ACAD_REACTORS
330
208D
102
}
330
208D
100
AcDbXrecord
280
     1
102
RTVSPropertyOp0
 70
     1
102
RTVSPropertyOp1
 70
     1
102
RTVSPropertyOp2
 70
     1
102
RTVSPropertyOp3
 70
     1
102
RTVSPropertyOp4
 70
     1
102
RTVSPropertyOp5
 70
     1
102
RTVSPropertyOp6
 70
     1
102
RTVSPropertyOp7
 70
     1
102
RTVSPropertyOp8
 70
     1
102
RTVSPropertyOp9
 70
     1
102
RTVSPropertyOp10
 70
     1
102
RTVSPropertyOp11
 70
     1
102
RTVSPropertyOp12
 70
     1
102
RTVSPropertyOp13
 70
     1
102
RTVSPropertyOp14
 70
     1
102
RTVSPropertyOp15
 70
     1
102
RTVSPropertyOp16
 70
     1
102
RTVSPropertyOp17
 70
     1
102
RTVSPropertyOp18
 70
     1
102
RTVSPropertyOp19
 70
     1
102
RTVSPropertyOp20
 70
     1
102
RTVSPropertyOp21
 70
     1
102
RTVSPropertyOp22
 70
     1
102
RTVSPropertyOp23
 70
     1
102
RTVSPropertyOp24
 70
     1
102
RTVSPropertyOp25
 70
     1
102
RTVSPropertyOp26
 70
     1
102
RTVSPropertyOp27
 70
     1
  0
XRECORD
  5
209C
102
{ACAD_REACTORS
330
209B
102
}
330
209B
100
AcDbXrecord
280
     1
102
RTVSPropertyOp0
 70
     1
102
RTVSPropertyOp1
 70
     1
102
RTVSPropertyOp2
 70
     1
102
RTVSPropertyOp3
 70
     1
102
RTVSPropertyOp4
 70
     1
102
RTVSPropertyOp5
 70
     1
102
RTVSPropertyOp6
 70
     1
102
RTVSPropertyOp7
 70
     1
102
RTVSPropertyOp8
 70
     1
102
RTVSPropertyOp9
 70
     1
102
RTVSPropertyOp10
 70
     1
102
RTVSPropertyOp11
 70
     1
102
RTVSPropertyOp12
 70
     1
102
RTVSPropertyOp13
 70
     1
102
RTVSPropertyOp14
 70
     1
102
RTVSPropertyOp15
 70
     1
102
RTVSPropertyOp16
 70
     1
102
RTVSPropertyOp17
 70
     1
102
RTVSPropertyOp18
 70
     1
102
RTVSPropertyOp19
 70
     1
102
RTVSPropertyOp20
 70
     1
102
RTVSPropertyOp21
 70
     1
102
RTVSPropertyOp22
 70
     1
102
RTVSPropertyOp23
 70
     1
102
RTVSPropertyOp24
 70
     1
102
RTVSPropertyOp25
 70
     1
102
RTVSPropertyOp26
 70
     1
102
RTVSPropertyOp27
 70
     1
  0
XRECORD
  5
20A4
102
{ACAD_REACTORS
330
20A3
102
}
330
20A3
100
AcDbXrecord
280
     1
102
RTVSPropertyOp0
 70
     1
102
RTVSPropertyOp1
 70
     1
102
RTVSPropertyOp2
 70
     1
102
RTVSPropertyOp3
 70
     1
102
RTVSPropertyOp4
 70
     1
102
RTVSPropertyOp5
 70
     1
102
RTVSPropertyOp6
 70
     1
102
RTVSPropertyOp7
 70
     1
102
RTVSPropertyOp8
 70
     1
102
RTVSPropertyOp9
 70
     1
102
RTVSPropertyOp10
 70
     1
102
RTVSPropertyOp11
 70
     1
102
RTVSPropertyOp12
 70
     1
102
RTVSPropertyOp13
 70
     1
102
RTVSPropertyOp14
 70
     1
102
RTVSPropertyOp15
 70
     1
102
RTVSPropertyOp16
 70
     1
102
RTVSPropertyOp17
 70
     1
102
RTVSPropertyOp18
 70
     1
102
RTVSPropertyOp19
 70
     1
102
RTVSPropertyOp20
 70
     1
102
RTVSPropertyOp21
 70
     1
102
RTVSPropertyOp22
 70
     1
102
RTVSPropertyOp23
 70
     1
102
RTVSPropertyOp24
 70
     1
102
RTVSPropertyOp25
 70
     1
102
RTVSPropertyOp26
 70
     1
102
RTVSPropertyOp27
 70
     1
  0
XRECORD
  5
2096
102
{ACAD_REACTORS
330
2095
102
}
330
2095
100
AcDbXrecord
280
     1
102
RTVSPropertyOp0
 70
     1
102
RTVSPropertyOp1
 70
     1
102
RTVSPropertyOp2
 70
     1
102
RTVSPropertyOp3
 70
     1
102
RTVSPropertyOp4
 70
     1
102
RTVSPropertyOp5
 70
     1
102
RTVSPropertyOp6
 70
     1
102
RTVSPropertyOp7
 70
     1
102
RTVSPropertyOp8
 70
     1
102
RTVSPropertyOp9
 70
     1
102
RTVSPropertyOp10
 70
     1
102
RTVSPropertyOp11
 70
     1
102
RTVSPropertyOp12
 70
     1
102
RTVSPropertyOp13
 70
     1
102
RTVSPropertyOp14
 70
     1
102
RTVSPropertyOp15
 70
     1
102
RTVSPropertyOp16
 70
     1
102
RTVSPropertyOp17
 70
     1
102
RTVSPropertyOp18
 70
     1
102
RTVSPropertyOp19
 70
     1
102
RTVSPropertyOp20
 70
     1
102
RTVSPropertyOp21
 70
     1
102
RTVSPropertyOp22
 70
     1
102
RTVSPropertyOp23
 70
     1
102
RTVSPropertyOp24
 70
     1
102
RTVSPropertyOp25
 70
     1
102
RTVSPropertyOp26
 70
     1
102
RTVSPropertyOp27
 70
     1
  0
XRECORD
  5
209A
102
{ACAD_REACTORS
330
2099
102
}
330
2099
100
AcDbXrecord
280
     1
102
RTVSPropertyOp0
 70
     1
102
RTVSPropertyOp1
 70
     1
102
RTVSPropertyOp2
 70
     1
102
RTVSPropertyOp3
 70
     1
102
RTVSPropertyOp4
 70
     1
102
RTVSPropertyOp5
 70
     1
102
RTVSPropertyOp6
 70
     1
102
RTVSPropertyOp7
 70
     1
102
RTVSPropertyOp8
 70
     1
102
RTVSPropertyOp9
 70
     1
102
RTVSPropertyOp10
 70
     1
102
RTVSPropertyOp11
 70
     1
102
RTVSPropertyOp12
 70
     1
102
RTVSPropertyOp13
 70
     1
102
RTVSPropertyOp14
 70
     1
102
RTVSPropertyOp15
 70
     1
102
RTVSPropertyOp16
 70
     1
102
RTVSPropertyOp17
 70
     1
102
RTVSPropertyOp18
 70
     1
102
RTVSPropertyOp19
 70
     1
102
RTVSPropertyOp20
 70
     1
102
RTVSPropertyOp21
 70
     1
102
RTVSPropertyOp22
 70
     1
102
RTVSPropertyOp23
 70
     1
102
RTVSPropertyOp24
 70
     1
102
RTVSPropertyOp25
 70
     1
102
RTVSPropertyOp26
 70
     1
102
RTVSPropertyOp27
 70
     1
  0
XRECORD
  5
20AA
102
{ACAD_REACTORS
330
20A9
102
}
330
20A9
100
AcDbXrecord
280
     1
102
RTVSPropertyOp0
 70
     0
102
RTVSPropertyOp1
 70
     0
102
RTVSPropertyOp2
 70
     0
102
RTVSPropertyOp3
 70
     0
102
RTVSPropertyOp4
 70
     0
102
RTVSPropertyOp5
 70
     0
102
RTVSPropertyOp6
 70
     0
102
RTVSPropertyOp7
 70
     0
102
RTVSPropertyOp8
 70
     0
102
RTVSPropertyOp9
 70
     0
102
RTVSPropertyOp10
 70
     0
102
RTVSPropertyOp11
 70
     0
102
RTVSPropertyOp12
 70
     0
102
RTVSPropertyOp13
 70
     0
102
RTVSPropertyOp14
 70
     2
102
RTVSPropertyOp15
 70
     0
102
RTVSPropertyOp16
 70
     0
102
RTVSPropertyOp17
 70
     0
102
RTVSPropertyOp18
 70
     0
102
RTVSPropertyOp19
 70
     0
102
RTVSPropertyOp20
 70
     0
102
RTVSPropertyOp21
 70
     0
102
RTVSPropertyOp22
 70
     0
102
RTVSPropertyOp23
 70
     0
102
RTVSPropertyOp24
 70
     0
102
RTVSPropertyOp25
 70
     0
102
RTVSPropertyOp26
 70
     0
102
RTVSPropertyOp27
 70
     0
  0
XRECORD
  5
20A2
102
{ACAD_REACTORS
330
20A1
102
}
330
20A1
100
AcDbXrecord
280
     1
102
RTVSPropertyOp0
 70
     1
102
RTVSPropertyOp1
 70
     1
102
RTVSPropertyOp2
 70
     1
102
RTVSPropertyOp3
 70
     1
102
RTVSPropertyOp4
 70
     1
102
RTVSPropertyOp5
 70
     1
102
RTVSPropertyOp6
 70
     1
102
RTVSPropertyOp7
 70
     1
102
RTVSPropertyOp8
 70
     1
102
RTVSPropertyOp9
 70
     1
102
RTVSPropertyOp10
 70
     1
102
RTVSPropertyOp11
 70
     1
102
RTVSPropertyOp12
 70
     1
102
RTVSPropertyOp13
 70
     1
102
RTVSPropertyOp14
 70
     1
102
RTVSPropertyOp15
 70
     1
102
RTVSPropertyOp16
 70
     1
102
RTVSPropertyOp17
 70
     1
102
RTVSPropertyOp18
 70
     1
102
RTVSPropertyOp19
 70
     1
102
RTVSPropertyOp20
 70
     1
102
RTVSPropertyOp21
 70
     1
102
RTVSPropertyOp22
 70
     1
102
RTVSPropertyOp23
 70
     1
102
RTVSPropertyOp24
 70
     1
102
RTVSPropertyOp25
 70
     1
102
RTVSPropertyOp26
 70
     1
102
RTVSPropertyOp27
 70
     1
  0
XRECORD
  5
2086
102
{ACAD_REACTORS
330
2085
102
}
330
2085
100
AcDbXrecord
280
     1
102
RTVSPropertyOp0
 70
     1
102
RTVSPropertyOp1
 70
     1
102
RTVSPropertyOp2
 70
     1
102
RTVSPropertyOp3
 70
     1
102
RTVSPropertyOp4
 70
     1
102
RTVSPropertyOp5
 70
     1
102
RTVSPropertyOp6
 70
     1
102
RTVSPropertyOp7
 70
     1
102
RTVSPropertyOp8
 70
     1
102
RTVSPropertyOp9
 70
     1
102
RTVSPropertyOp10
 70
     1
102
RTVSPropertyOp11
 70
     1
102
RTVSPropertyOp12
 70
     1
102
RTVSPropertyOp13
 70
     1
102
RTVSPropertyOp14
 70
     1
102
RTVSPropertyOp15
 70
     1
102
RTVSPropertyOp16
 70
     1
102
RTVSPropertyOp17
 70
     1
102
RTVSPropertyOp18
 70
     1
102
RTVSPropertyOp19
 70
     1
102
RTVSPropertyOp20
 70
     1
102
RTVSPropertyOp21
 70
     1
102
RTVSPropertyOp22
 70
     1
102
RTVSPropertyOp23
 70
     1
102
RTVSPropertyOp24
 70
     1
102
RTVSPropertyOp25
 70
     1
102
RTVSPropertyOp26
 70
     1
102
RTVSPropertyOp27
 70
     1
  0
XRECORD
  5
2088
102
{ACAD_REACTORS
330
2087
102
}
330
2087
100
AcDbXrecord
280
     1
102
RTVSPropertyOp0
 70
     1
102
RTVSPropertyOp1
 70
     1
102
RTVSPropertyOp2
 70
     1
102
RTVSPropertyOp3
 70
     1
102
RTVSPropertyOp4
 70
     1
102
RTVSPropertyOp5
 70
     1
102
RTVSPropertyOp6
 70
     1
102
RTVSPropertyOp7
 70
     1
102
RTVSPropertyOp8
 70
     1
102
RTVSPropertyOp9
 70
     1
102
RTVSPropertyOp10
 70
     1
102
RTVSPropertyOp11
 70
     1
102
RTVSPropertyOp12
 70
     1
102
RTVSPropertyOp13
 70
     1
102
RTVSPropertyOp14
 70
     1
102
RTVSPropertyOp15
 70
     1
102
RTVSPropertyOp16
 70
     1
102
RTVSPropertyOp17
 70
     1
102
RTVSPropertyOp18
 70
     1
102
RTVSPropertyOp19
 70
     1
102
RTVSPropertyOp20
 70
     1
102
RTVSPropertyOp21
 70
     1
102
RTVSPropertyOp22
 70
     1
102
RTVSPropertyOp23
 70
     1
102
RTVSPropertyOp24
 70
     1
102
RTVSPropertyOp25
 70
     1
102
RTVSPropertyOp26
 70
     1
102
RTVSPropertyOp27
 70
     1
  0
XRECORD
  5
208A
102
{ACAD_REACTORS
330
2089
102
}
330
2089
100
AcDbXrecord
280
     1
102
RTVSPropertyOp0
 70
     1
102
RTVSPropertyOp1
 70
     1
102
RTVSPropertyOp2
 70
     1
102
RTVSPropertyOp3
 70
     1
102
RTVSPropertyOp4
 70
     1
102
RTVSPropertyOp5
 70
     1
102
RTVSPropertyOp6
 70
     1
102
RTVSPropertyOp7
 70
     1
102
RTVSPropertyOp8
 70
     1
102
RTVSPropertyOp9
 70
     1
102
RTVSPropertyOp10
 70
     1
102
RTVSPropertyOp11
 70
     1
102
RTVSPropertyOp12
 70
     1
102
RTVSPropertyOp13
 70
     1
102
RTVSPropertyOp14
 70
     1
102
RTVSPropertyOp15
 70
     1
102
RTVSPropertyOp16
 70
     1
102
RTVSPropertyOp17
 70
     1
102
RTVSPropertyOp18
 70
     1
102
RTVSPropertyOp19
 70
     1
102
RTVSPropertyOp20
 70
     1
102
RTVSPropertyOp21
 70
     1
102
RTVSPropertyOp22
 70
     1
102
RTVSPropertyOp23
 70
     1
102
RTVSPropertyOp24
 70
     1
102
RTVSPropertyOp25
 70
     1
102
RTVSPropertyOp26
 70
     1
102
RTVSPropertyOp27
 70
     1
  0
XRECORD
  5
208C
102
{ACAD_REACTORS
330
208B
102
}
330
208B
100
AcDbXrecord
280
     1
102
RTVSPropertyOp0
 70
     1
102
RTVSPropertyOp1
 70
     1
102
RTVSPropertyOp2
 70
     1
102
RTVSPropertyOp3
 70
     1
102
RTVSPropertyOp4
 70
     1
102
RTVSPropertyOp5
 70
     1
102
RTVSPropertyOp6
 70
     1
102
RTVSPropertyOp7
 70
     1
102
RTVSPropertyOp8
 70
     1
102
RTVSPropertyOp9
 70
     1
102
RTVSPropertyOp10
 70
     1
102
RTVSPropertyOp11
 70
     1
102
RTVSPropertyOp12
 70
     1
102
RTVSPropertyOp13
 70
     1
102
RTVSPropertyOp14
 70
     1
102
RTVSPropertyOp15
 70
     1
102
RTVSPropertyOp16
 70
     1
102
RTVSPropertyOp17
 70
     1
102
RTVSPropertyOp18
 70
     1
102
RTVSPropertyOp19
 70
     1
102
RTVSPropertyOp20
 70
     1
102
RTVSPropertyOp21
 70
     1
102
RTVSPropertyOp22
 70
     1
102
RTVSPropertyOp23
 70
     1
102
RTVSPropertyOp24
 70
     1
102
RTVSPropertyOp25
 70
     1
102
RTVSPropertyOp26
 70
     1
102
RTVSPropertyOp27
 70
     1
  0
XRECORD
  5
20A6
102
{ACAD_REACTORS
330
20A5
102
}
330
20A5
100
AcDbXrecord
280
     1
102
RTVSPropertyOp0
 70
     0
102
RTVSPropertyOp1
 70
     0
102
RTVSPropertyOp2
 70
     0
102
RTVSPropertyOp3
 70
     0
102
RTVSPropertyOp4
 70
     0
102
RTVSPropertyOp5
 70
     0
102
RTVSPropertyOp6
 70
     0
102
RTVSPropertyOp7
 70
     0
102
RTVSPropertyOp8
 70
     0
102
RTVSPropertyOp9
 70
     0
102
RTVSPropertyOp10
 70
     0
102
RTVSPropertyOp11
 70
     0
102
RTVSPropertyOp12
 70
     0
102
RTVSPropertyOp13
 70
     0
102
RTVSPropertyOp14
 70
     2
102
RTVSPropertyOp15
 70
     0
102
RTVSPropertyOp16
 70
     0
102
RTVSPropertyOp17
 70
     0
102
RTVSPropertyOp18
 70
     0
102
RTVSPropertyOp19
 70
     0
102
RTVSPropertyOp20
 70
     0
102
RTVSPropertyOp21
 70
     0
102
RTVSPropertyOp22
 70
     0
102
RTVSPropertyOp23
 70
     0
102
RTVSPropertyOp24
 70
     0
102
RTVSPropertyOp25
 70
     0
102
RTVSPropertyOp26
 70
     0
102
RTVSPropertyOp27
 70
     0
  0
XRECORD
  5
20A0
102
{ACAD_REACTORS
330
209F
102
}
330
209F
100
AcDbXrecord
280
     1
102
RTVSPropertyOp0
 70
     1
102
RTVSPropertyOp1
 70
     1
102
RTVSPropertyOp2
 70
     1
102
RTVSPropertyOp3
 70
     1
102
RTVSPropertyOp4
 70
     1
102
RTVSPropertyOp5
 70
     1
102
RTVSPropertyOp6
 70
     1
102
RTVSPropertyOp7
 70
     1
102
RTVSPropertyOp8
 70
     1
102
RTVSPropertyOp9
 70
     1
102
RTVSPropertyOp10
 70
     1
102
RTVSPropertyOp11
 70
     1
102
RTVSPropertyOp12
 70
     1
102
RTVSPropertyOp13
 70
     1
102
RTVSPropertyOp14
 70
     1
102
RTVSPropertyOp15
 70
     1
102
RTVSPropertyOp16
 70
     1
102
RTVSPropertyOp17
 70
     1
102
RTVSPropertyOp18
 70
     1
102
RTVSPropertyOp19
 70
     1
102
RTVSPropertyOp20
 70
     1
102
RTVSPropertyOp21
 70
     1
102
RTVSPropertyOp22
 70
     1
102
RTVSPropertyOp23
 70
     1
102
RTVSPropertyOp24
 70
     1
102
RTVSPropertyOp25
 70
     1
102
RTVSPropertyOp26
 70
     1
102
RTVSPropertyOp27
 70
     1
  0
XRECORD
  5
20A8
102
{ACAD_REACTORS
330
20A7
102
}
330
20A7
100
AcDbXrecord
280
     1
102
RTVSPropertyOp0
 70
     0
102
RTVSPropertyOp1
 70
     0
102
RTVSPropertyOp2
 70
     0
102
RTVSPropertyOp3
 70
     0
102
RTVSPropertyOp4
 70
     0
102
RTVSPropertyOp5
 70
     0
102
RTVSPropertyOp6
 70
     0
102
RTVSPropertyOp7
 70
     0
102
RTVSPropertyOp8
 70
     0
102
RTVSPropertyOp9
 70
     0
102
RTVSPropertyOp10
 70
     0
102
RTVSPropertyOp11
 70
     0
102
RTVSPropertyOp12
 70
     0
102
RTVSPropertyOp13
 70
     0
102
RTVSPropertyOp14
 70
     2
102
RTVSPropertyOp15
 70
     0
102
RTVSPropertyOp16
 70
     0
102
RTVSPropertyOp17
 70
     0
102
RTVSPropertyOp18
 70
     0
102
RTVSPropertyOp19
 70
     0
102
RTVSPropertyOp20
 70
     0
102
RTVSPropertyOp21
 70
     0
102
RTVSPropertyOp22
 70
     0
102
RTVSPropertyOp23
 70
     0
102
RTVSPropertyOp24
 70
     0
102
RTVSPropertyOp25
 70
     0
102
RTVSPropertyOp26
 70
     0
102
RTVSPropertyOp27
 70
     0
  0
XRECORD
  5
2098
102
{ACAD_REACTORS
330
2097
102
}
330
2097
100
AcDbXrecord
280
     1
102
RTVSPropertyOp0
 70
     1
102
RTVSPropertyOp1
 70
     1
102
RTVSPropertyOp2
 70
     1
102
RTVSPropertyOp3
 70
     1
102
RTVSPropertyOp4
 70
     1
102
RTVSPropertyOp5
 70
     1
102
RTVSPropertyOp6
 70
     1
102
RTVSPropertyOp7
 70
     1
102
RTVSPropertyOp8
 70
     1
102
RTVSPropertyOp9
 70
     1
102
RTVSPropertyOp10
 70
     1
102
RTVSPropertyOp11
 70
     1
102
RTVSPropertyOp12
 70
     1
102
RTVSPropertyOp13
 70
     1
102
RTVSPropertyOp14
 70
     1
102
RTVSPropertyOp15
 70
     1
102
RTVSPropertyOp16
 70
     1
102
RTVSPropertyOp17
 70
     1
102
RTVSPropertyOp18
 70
     1
102
RTVSPropertyOp19
 70
     1
102
RTVSPropertyOp20
 70
     1
102
RTVSPropertyOp21
 70
     1
102
RTVSPropertyOp22
 70
     1
102
RTVSPropertyOp23
 70
     1
102
RTVSPropertyOp24
 70
     1
102
RTVSPropertyOp25
 70
     1
102
RTVSPropertyOp26
 70
     1
102
RTVSPropertyOp27
 70
     1
  0
XRECORD
  5
209E
102
{ACAD_REACTORS
330
209D
102
}
330
209D
100
AcDbXrecord
280
     1
102
RTVSPropertyOp0
 70
     1
102
RTVSPropertyOp1
 70
     1
102
RTVSPropertyOp2
 70
     1
102
RTVSPropertyOp3
 70
     1
102
RTVSPropertyOp4
 70
     1
102
RTVSPropertyOp5
 70
     1
102
RTVSPropertyOp6
 70
     1
102
RTVSPropertyOp7
 70
     1
102
RTVSPropertyOp8
 70
     1
102
RTVSPropertyOp9
 70
     1
102
RTVSPropertyOp10
 70
     1
102
RTVSPropertyOp11
 70
     1
102
RTVSPropertyOp12
 70
     1
102
RTVSPropertyOp13
 70
     1
102
RTVSPropertyOp14
 70
     1
102
RTVSPropertyOp15
 70
     1
102
RTVSPropertyOp16
 70
     1
102
RTVSPropertyOp17
 70
     1
102
RTVSPropertyOp18
 70
     1
102
RTVSPropertyOp19
 70
     1
102
RTVSPropertyOp20
 70
     1
102
RTVSPropertyOp21
 70
     1
102
RTVSPropertyOp22
 70
     1
102
RTVSPropertyOp23
 70
     1
102
RTVSPropertyOp24
 70
     1
102
RTVSPropertyOp25
 70
     1
102
RTVSPropertyOp26
 70
     1
102
RTVSPropertyOp27
 70
     1
  0
ENDSEC
  0
EOF
