  0
SECTION
  2
HEADER
  9
$ACADVER
  1
AC1018
  9
$ACADMAINTVER
 70
   104
  9
$DWGCODEPAGE
  3
ANSI_936
  9
$LASTSAVEDBY
  1
sibin
  9
$INSBASE
 10
0.0
 20
0.0
 30
0.0
  9
$EXTMIN
 10
-719.5740870159544
 20
-514.197609424763
 30
0.0
  9
$EXTMAX
 10
3134.710819358806
 20
1267.802006703661
 30
0.0
  9
$LIMMIN
 10
0.0
 20
0.0
  9
$LIMMAX
 10
420.0
 20
297.0
  9
$ORTHOMODE
 70
     0
  9
$REGENMODE
 70
     1
  9
$FILLMODE
 70
     1
  9
$QTEXTMODE
 70
     0
  9
$MIRRTEXT
 70
     1
  9
$LTSCALE
 40
1.0
  9
$ATTMODE
 70
     1
  9
$TEXTSIZE
 40
2.5
  9
$TRACEWID
 40
1.0
  9
$TEXTSTYLE
  7
Standard
  9
$CLAYER
  8
图层3
  9
$CELTYPE
  6
ByLayer
  9
$CECOLOR
 62
   256
  9
$CELTSCALE
 40
1.0
  9
$DISPSILH
 70
     0
  9
$DIMSCALE
 40
1.0
  9
$DIMASZ
 40
13.0
  9
$DIMEXO
 40
4.0
  9
$DIMDLI
 40
3.75
  9
$DIMRND
 40
0.0
  9
$DIMDLE
 40
0.0
  9
$DIMEXE
 40
1.25
  9
$DIMTP
 40
0.0
  9
$DIMTM
 40
0.0
  9
$DIMTXT
 40
13.0
  9
$DIMCEN
 40
22.0
  9
$DIMTSZ
 40
0.0
  9
$DIMTOL
 70
     0
  9
$DIMLIM
 70
     0
  9
$DIMTIH
 70
     0
  9
$DIMTOH
 70
     1
  9
$DIMSE1
 70
     0
  9
$DIMSE2
 70
     0
  9
$DIMTAD
 70
     1
  9
$DIMZIN
 70
     8
  9
$DIMBLK
  1

  9
$DIMASO
 70
     1
  9
$DIMSHO
 70
     1
  9
$DIMPOST
  1

  9
$DIMAPOST
  1

  9
$DIMALT
 70
     1
  9
$DIMALTD
 70
     3
  9
$DIMALTF
 40
0.03937007874016
  9
$DIMLFAC
 40
1.0
  9
$DIMTOFL
 70
     1
  9
$DIMTVP
 40
0.0
  9
$DIMTIX
 70
     0
  9
$DIMSOXD
 70
     0
  9
$DIMSAH
 70
     0
  9
$DIMBLK1
  1

  9
$DIMBLK2
  1

  9
$DIMSTYLE
  2
ISO-25
  9
$DIMCLRD
 70
     0
  9
$DIMCLRE
 70
     0
  9
$DIMCLRT
 70
     0
  9
$DIMTFAC
 40
1.0
  9
$DIMGAP
 40
6.0
  9
$DIMJUST
 70
     0
  9
$DIMSD1
 70
     0
  9
$DIMSD2
 70
     0
  9
$DIMTOLJ
 70
     0
  9
$DIMTZIN
 70
     8
  9
$DIMALTZ
 70
     0
  9
$DIMALTTZ
 70
     0
  9
$DIMUPT
 70
     0
  9
$DIMDEC
 70
     2
  9
$DIMTDEC
 70
     2
  9
$DIMALTU
 70
     7
  9
$DIMALTTD
 70
     3
  9
$DIMTXSTY
  7
Standard
  9
$DIMAUNIT
 70
     0
  9
$DIMADEC
 70
     0
  9
$DIMALTRND
 40
0.0
  9
$DIMAZIN
 70
     0
  9
$DIMDSEP
 70
    46
  9
$DIMATFIT
 70
     3
  9
$DIMFRAC
 70
     0
  9
$DIMLDRBLK
  1

  9
$DIMLUNIT
 70
     2
  9
$DIMLWD
 70
    -2
  9
$DIMLWE
 70
    -2
  9
$DIMTMOVE
 70
     0
  9
$LUNITS
 70
     2
  9
$LUPREC
 70
     4
  9
$SKETCHINC
 40
1.0
  9
$FILLETRAD
 40
40.0
  9
$AUNITS
 70
     0
  9
$AUPREC
 70
     0
  9
$MENU
  1
.
  9
$ELEVATION
 40
0.0
  9
$PELEVATION
 40
0.0
  9
$THICKNESS
 40
0.0
  9
$LIMCHECK
 70
     0
  9
$CHAMFERA
 40
10.0
  9
$CHAMFERB
 40
10.0
  9
$CHAMFERC
 40
20.0
  9
$CHAMFERD
 40
0.0
  9
$SKPOLY
 70
     0
  9
$TDCREATE
 40
2453684.618738426
  9
$TDUCREATE
 40
2453684.285415278
  9
$TDUPDATE
 40
2458472.429872685
  9
$TDUUPDATE
 40
2458472.096539352
  9
$TDINDWG
 40
0.6256510417
  9
$TDUSRTIMER
 40
0.6256501157
  9
$USRTIMER
 70
     1
  9
$ANGBASE
 50
0.0
  9
$ANGDIR
 70
     0
  9
$PDMODE
 70
     0
  9
$PDSIZE
 40
0.0
  9
$PLINEWID
 40
0.0
  9
$SPLFRAME
 70
     0
  9
$SPLINETYPE
 70
     6
  9
$SPLINESEGS
 70
     8
  9
$HANDSEED
  5
4504
  9
$SURFTAB1
 70
     6
  9
$SURFTAB2
 70
     6
  9
$SURFTYPE
 70
     6
  9
$SURFU
 70
     6
  9
$SURFV
 70
     6
  9
$UCSBASE
  2

  9
$UCSNAME
  2

  9
$UCSORG
 10
0.0
 20
0.0
 30
0.0
  9
$UCSXDIR
 10
1.0
 20
0.0
 30
0.0
  9
$UCSYDIR
 10
0.0
 20
1.0
 30
0.0
  9
$UCSORTHOREF
  2

  9
$UCSORTHOVIEW
 70
     0
  9
$UCSORGTOP
 10
0.0
 20
0.0
 30
0.0
  9
$UCSORGBOTTOM
 10
0.0
 20
0.0
 30
0.0
  9
$UCSORGLEFT
 10
0.0
 20
0.0
 30
0.0
  9
$UCSORGRIGHT
 10
0.0
 20
0.0
 30
0.0
  9
$UCSORGFRONT
 10
0.0
 20
0.0
 30
0.0
  9
$UCSORGBACK
 10
0.0
 20
0.0
 30
0.0
  9
$PUCSBASE
  2

  9
$PUCSNAME
  2

  9
$PUCSORG
 10
0.0
 20
0.0
 30
0.0
  9
$PUCSXDIR
 10
1.0
 20
0.0
 30
0.0
  9
$PUCSYDIR
 10
0.0
 20
1.0
 30
0.0
  9
$PUCSORTHOREF
  2

  9
$PUCSORTHOVIEW
 70
     0
  9
$PUCSORGTOP
 10
0.0
 20
0.0
 30
0.0
  9
$PUCSORGBOTTOM
 10
0.0
 20
0.0
 30
0.0
  9
$PUCSORGLEFT
 10
0.0
 20
0.0
 30
0.0
  9
$PUCSORGRIGHT
 10
0.0
 20
0.0
 30
0.0
  9
$PUCSORGFRONT
 10
0.0
 20
0.0
 30
0.0
  9
$PUCSORGBACK
 10
0.0
 20
0.0
 30
0.0
  9
$USERI1
 70
     0
  9
$USERI2
 70
     0
  9
$USERI3
 70
     0
  9
$USERI4
 70
     0
  9
$USERI5
 70
     0
  9
$USERR1
 40
0.0
  9
$USERR2
 40
0.0
  9
$USERR3
 40
0.0
  9
$USERR4
 40
0.0
  9
$USERR5
 40
0.0
  9
$WORLDVIEW
 70
     1
  9
$SHADEDGE
 70
     3
  9
$SHADEDIF
 70
    70
  9
$TILEMODE
 70
     1
  9
$MAXACTVP
 70
    64
  9
$PINSBASE
 10
0.0
 20
0.0
 30
0.0
  9
$PLIMCHECK
 70
     0
  9
$PEXTMIN
 10
0.0
 20
0.0
 30
0.0
  9
$PEXTMAX
 10
0.0
 20
0.0
 30
0.0
  9
$PLIMMIN
 10
0.0
 20
0.0
  9
$PLIMMAX
 10
12.0
 20
9.0
  9
$UNITMODE
 70
     0
  9
$VISRETAIN
 70
     1
  9
$PLINEGEN
 70
     0
  9
$PSLTSCALE
 70
     1
  9
$TREEDEPTH
 70
  3020
  9
$CMLSTYLE
  2
Standard
  9
$CMLJUST
 70
     0
  9
$CMLSCALE
 40
20.0
  9
$PROXYGRAPHICS
 70
     1
  9
$MEASUREMENT
 70
     1
  9
$CELWEIGHT
370
    -1
  9
$ENDCAPS
280
     0
  9
$JOINSTYLE
280
     0
  9
$LWDISPLAY
290
     0
  9
$INSUNITS
 70
     4
  9
$HYPERLINKBASE
  1

  9
$STYLESHEET
  1

  9
$XEDIT
290
     1
  9
$CEPSNTYPE
380
     0
  9
$PSTYLEMODE
290
     1
  9
$FINGERPRINTGUID
  2
{FDEAD578-A652-11D2-9A35-0060089B3A3F}
  9
$VERSIONGUID
  2
{86D16EDF-68F9-4C4F-B3A4-06A2677ADF0F}
  9
$EXTNAMES
290
     1
  9
$PSVPSCALE
 40
0.0
  9
$OLESTARTUP
290
     0
  9
$SORTENTS
280
   127
  9
$INDEXCTL
280
     0
  9
$HIDETEXT
280
     1
  9
$XCLIPFRAME
290
     0
  9
$HALOGAP
280
     0
  9
$OBSCOLOR
 70
   257
  9
$OBSLTYPE
280
     0
  9
$INTERSECTIONDISPLAY
280
     0
  9
$INTERSECTIONCOLOR
 70
   257
  9
$DIMASSOC
280
     2
  9
$PROJECTNAME
  1

  0
ENDSEC
  0
SECTION
  2
CLASSES
  0
CLASS
  1
ACDBDICTIONARYWDFLT
  2
AcDbDictionaryWithDefault
  3
ObjectDBX Classes
 90
        0
 91
        1
280
     0
281
     0
  0
CLASS
  1
DICTIONARYVAR
  2
AcDbDictionaryVar
  3
ObjectDBX Classes
 90
        0
 91
        7
280
     0
281
     0
  0
CLASS
  1
DIMASSOC
  2
AcDbDimAssoc
  3
"AcDbDimAssoc|Product Desc:     AcDim ARX App For Dimension|Company:          Autodesk, Inc.|WEB Address:      www.autodesk.com"
 90
        0
 91
       35
280
     0
281
     0
  0
CLASS
  1
TABLESTYLE
  2
AcDbTableStyle
  3
ObjectDBX Classes
 90
     4095
 91
        1
280
     0
281
     0
  0
CLASS
  1
SORTENTSTABLE
  2
AcDbSortentsTable
  3
ObjectDBX Classes
 90
        0
 91
        1
280
     0
281
     0
  0
CLASS
  1
MATERIAL
  2
AcDbMaterial
  3
ObjectDBX Classes
 90
     1153
 91
        3
280
     0
281
     0
  0
CLASS
  1
VISUALSTYLE
  2
AcDbVisualStyle
  3
ObjectDBX Classes
 90
     4095
 91
       24
280
     0
281
     0
  0
CLASS
  1
SCALE
  2
AcDbScale
  3
ObjectDBX Classes
 90
     1153
 91
       17
280
     0
281
     0
  0
CLASS
  1
MLEADERSTYLE
  2
AcDbMLeaderStyle
  3
ACDB_MLEADERSTYLE_CLASS
 90
     4095
 91
        1
280
     0
281
     0
  0
CLASS
  1
ACDBSECTIONVIEWSTYLE
  2
AcDbSectionViewStyle
  3
ObjectDBX Classes
 90
     1025
 91
        1
280
     0
281
     0
  0
CLASS
  1
ACDBDETAILVIEWSTYLE
  2
AcDbDetailViewStyle
  3
ObjectDBX Classes
 90
     1025
 91
        1
280
     0
281
     0
  0
CLASS
  1
CELLSTYLEMAP
  2
AcDbCellStyleMap
  3
ObjectDBX Classes
 90
     1152
 91
        1
280
     0
281
     0
  0
ENDSEC
  0
SECTION
  2
TABLES
  0
TABLE
  2
VPORT
  5
8
330
0
100
AcDbSymbolTable
 70
     1
  0
VPORT
  5
4371
330
8
100
AcDbSymbolTableRecord
100
AcDbViewportTableRecord
  2
*Active
 70
     0
 10
0.0
 20
0.0
 11
1.0
 21
1.0
 12
1335.485844452676
 22
695.9671663496664
 13
0.0
 23
0.0
 14
10.0
 24
10.0
 15
10.0
 25
10.0
 16
0.0
 26
0.0
 36
1.0
 17
0.0
 27
0.0
 37
0.0
 40
1137.265820744404
 41
2.727142857142857
 42
50.0
 43
0.0
 44
0.0
 50
0.0
 51
0.0
 71
     0
 72
  1000
 73
     1
 74
     3
 75
     0
 76
     0
 77
     0
 78
     0
281
     0
 65
     1
110
0.0
120
0.0
130
0.0
111
1.0
121
0.0
131
0.0
112
0.0
122
1.0
132
0.0
 79
     0
146
0.0
1001
ACAD_NAV_VCDISPLAY
1070
     3
  0
ENDTAB
  0
TABLE
  2
LTYPE
  5
5
330
0
100
AcDbSymbolTable
 70
     8
  0
LTYPE
  5
14
330
5
100
AcDbSymbolTableRecord
100
AcDbLinetypeTableRecord
  2
ByBlock
 70
     0
  3

 72
    65
 73
     0
 40
0.0
  0
LTYPE
  5
15
330
5
100
AcDbSymbolTableRecord
100
AcDbLinetypeTableRecord
  2
ByLayer
 70
     0
  3

 72
    65
 73
     0
 40
0.0
  0
LTYPE
  5
16
330
5
100
AcDbSymbolTableRecord
100
AcDbLinetypeTableRecord
  2
Continuous
 70
     0
  3
Solid line
 72
    65
 73
     0
 40
0.0
  0
LTYPE
  5
133
330
5
100
AcDbSymbolTableRecord
100
AcDbLinetypeTableRecord
  2
DASHED2
 70
     0
  3
Dashed (.5x) _ _ _ _ _ _ _ _ _ _ _ _ _ _ _ _ _
 72
    65
 73
     2
 40
9.524999999999998
 49
6.349999999999999
 74
     0
 49
-3.174999999999999
 74
     0
  0
LTYPE
  5
136
330
5
100
AcDbSymbolTableRecord
100
AcDbLinetypeTableRecord
  2
ACAD_ISO02W100
 70
     0
  3
ISO dash __ __ __ __ __ __ __ __ __ __ __ __ __
 72
    65
 73
     2
 40
15.0
 49
12.0
 74
     0
 49
-3.0
 74
     0
  0
LTYPE
  5
137
330
5
100
AcDbSymbolTableRecord
100
AcDbLinetypeTableRecord
  2
DASHED
 70
     0
  3
Dashed __ __ __ __ __ __ __ __ __ __ __ __ __ _
 72
    65
 73
     2
 40
19.05
 49
12.7
 74
     0
 49
-6.349999999999999
 74
     0
  0
LTYPE
  5
138
330
5
100
AcDbSymbolTableRecord
100
AcDbLinetypeTableRecord
  2
HIDDEN
 70
     0
  3
Hidden __ __ __ __ __ __ __ __ __ __ __ __ __ _
 72
    65
 73
     2
 40
9.524999999999998
 49
6.349999999999999
 74
     0
 49
-3.174999999999999
 74
     0
  0
LTYPE
  5
139
330
5
100
AcDbSymbolTableRecord
100
AcDbLinetypeTableRecord
  2
DASHEDX2
 70
     0
  3
Dashed (2x) ____  ____  ____  ____  ____  ___
 72
    65
 73
     2
 40
38.1
 49
25.4
 74
     0
 49
-12.7
 74
     0
  0
LTYPE
  5
374B
330
5
100
AcDbSymbolTableRecord
100
AcDbLinetypeTableRecord
  2
CENTER
 70
     0
  3
Center ____ _ ____ _ ____ _ ____ _ ____ _ ____
 72
    65
 73
     4
 40
50.8
 49
31.75
 74
     0
 49
-6.349999999999999
 74
     0
 49
6.349999999999999
 74
     0
 49
-6.349999999999999
 74
     0
  0
ENDTAB
  0
TABLE
  2
LAYER
  5
2
102
{ACAD_XDICTIONARY
360
285F
102
}
330
0
100
AcDbSymbolTable
 70
     6
  0
LAYER
  5
10
102
{ACAD_XDICTIONARY
360
44A9
102
}
330
2
100
AcDbSymbolTableRecord
100
AcDbLayerTableRecord
  2
0
 70
     0
 62
     7
  6
Continuous
370
    -3
390
F
  0
LAYER
  5
70
102
{ACAD_XDICTIONARY
360
44AB
102
}
330
2
100
AcDbSymbolTableRecord
100
AcDbLayerTableRecord
  2
图层1
 70
     0
 62
     6
  6
CENTER
370
    15
390
F
  0
LAYER
  5
71
102
{ACAD_XDICTIONARY
360
44AD
102
}
330
2
100
AcDbSymbolTableRecord
100
AcDbLayerTableRecord
  2
图层2
 70
     0
 62
     4
  6
Continuous
370
    20
390
F
  0
LAYER
  5
72
102
{ACAD_XDICTIONARY
360
44AF
102
}
330
2
100
AcDbSymbolTableRecord
100
AcDbLayerTableRecord
  2
图层3
 70
     0
 62
     3
  6
Continuous
370
    13
390
F
  0
LAYER
  5
82
330
2
100
AcDbSymbolTableRecord
100
AcDbLayerTableRecord
  2
Defpoints
 70
     0
 62
     7
  6
Continuous
290
     0
370
    -3
390
F
  0
LAYER
  5
134
102
{ACAD_XDICTIONARY
360
44B1
102
}
330
2
100
AcDbSymbolTableRecord
100
AcDbLayerTableRecord
  2
图层4
 70
     0
 62
     7
  6
DASHEDX2
370
    15
390
F
  0
ENDTAB
  0
TABLE
  2
STYLE
  5
3
330
0
100
AcDbSymbolTable
 70
     2
  0
STYLE
  5
11
330
3
100
AcDbSymbolTableRecord
100
AcDbTextStyleTableRecord
  2
Standard
 70
     0
 40
0.0
 41
1.0
 50
0.0
 71
     0
 42
2.5
  3
txt
  4

  0
STYLE
  5
132
330
3
100
AcDbSymbolTableRecord
100
AcDbTextStyleTableRecord
  2

 70
     1
 40
0.0
 41
1.0
 50
0.0
 71
     0
 42
2.5
  3
ltypeshp.shx
  4

  0
ENDTAB
  0
TABLE
  2
VIEW
  5
6
330
0
100
AcDbSymbolTable
 70
     0
  0
ENDTAB
  0
TABLE
  2
UCS
  5
7
330
0
100
AcDbSymbolTable
 70
     0
  0
ENDTAB
  0
TABLE
  2
APPID
  5
9
330
0
100
AcDbSymbolTable
 70
     6
  0
APPID
  5
12
330
9
100
AcDbSymbolTableRecord
100
AcDbRegAppTableRecord
  2
ACAD
 70
     0
  0
APPID
  5
2862
330
9
100
AcDbSymbolTableRecord
100
AcDbRegAppTableRecord
  2
ACAD_DSTYLE_DIMTEXT_FILL
 70
     0
  0
APPID
  5
43CA
330
9
100
AcDbSymbolTableRecord
100
AcDbRegAppTableRecord
  2
ACAD_EXEMPT_FROM_CAD_STANDARDS
 70
     0
  0
APPID
  5
4467
330
9
100
AcDbSymbolTableRecord
100
AcDbRegAppTableRecord
  2
ACAD_DSTYLE_DIMRADIAL_EXTENSION
 70
     0
  0
APPID
  5
44B7
330
9
100
AcDbSymbolTableRecord
100
AcDbRegAppTableRecord
  2
ACAD_NAV_VCDISPLAY
 70
     0
  0
APPID
  5
44FD
330
9
100
AcDbSymbolTableRecord
100
AcDbRegAppTableRecord
  2
ACAD_MLEADERVER
 70
     0
  0
ENDTAB
  0
TABLE
  2
DIMSTYLE
  5
A
330
0
100
AcDbSymbolTable
 70
     2
100
AcDbDimStyleTable
 71
     1
340
27
  0
DIMSTYLE
105
27
102
{ACAD_REACTORS
330
3AF5
330
3EE5
330
43D7
330
43EF
330
4407
330
441F
330
4437
330
444F
330
4468
330
4479
330
4489
330
4499
102
}
330
A
100
AcDbSymbolTableRecord
100
AcDbDimStyleTableRecord
  2
ISO-25
 70
     0
 41
13.0
 42
4.0
 43
3.75
 44
1.25
 73
     0
 77
     1
 78
     8
140
13.0
141
22.0
143
0.03937007874016
147
6.0
170
     1
171
     3
172
     1
271
     2
272
     2
273
     7
274
     3
283
     0
284
     8
340
11
  0
ENDTAB
  0
TABLE
  2
BLOCK_RECORD
  5
1
330
0
100
AcDbSymbolTable
 70
    42
  0
BLOCK_RECORD
  5
1F
102
{ACAD_XDICTIONARY
360
270E
102
}
330
1
100
AcDbSymbolTableRecord
100
AcDbBlockTableRecord
  2
*Model_Space
340
22
  0
BLOCK_RECORD
  5
50
330
1
100
AcDbSymbolTableRecord
100
AcDbBlockTableRecord
  2
*Paper_Space
340
51
  0
BLOCK_RECORD
  5
55
330
1
100
AcDbSymbolTableRecord
100
AcDbBlockTableRecord
  2
*Paper_Space0
340
56
  0
BLOCK_RECORD
  5
462
330
1
100
AcDbSymbolTableRecord
100
AcDbBlockTableRecord
  2
a
340
0
  0
BLOCK_RECORD
  5
3770
330
1
100
AcDbSymbolTableRecord
100
AcDbBlockTableRecord
  2
*D5
340
0
  0
BLOCK_RECORD
  5
3788
330
1
100
AcDbSymbolTableRecord
100
AcDbBlockTableRecord
  2
*D6
340
0
  0
BLOCK_RECORD
  5
37A0
330
1
100
AcDbSymbolTableRecord
100
AcDbBlockTableRecord
  2
*D7
340
0
  0
BLOCK_RECORD
  5
3974
330
1
100
AcDbSymbolTableRecord
100
AcDbBlockTableRecord
  2
*D8
340
0
  0
BLOCK_RECORD
  5
39CF
330
1
100
AcDbSymbolTableRecord
100
AcDbBlockTableRecord
  2
*D9
340
0
  0
BLOCK_RECORD
  5
3A43
330
1
100
AcDbSymbolTableRecord
100
AcDbBlockTableRecord
  2
*D10
340
0
  0
BLOCK_RECORD
  5
3A88
330
1
100
AcDbSymbolTableRecord
100
AcDbBlockTableRecord
  2
*D11
340
0
  0
BLOCK_RECORD
  5
3AF8
330
1
100
AcDbSymbolTableRecord
100
AcDbBlockTableRecord
  2
*D12
340
0
  0
BLOCK_RECORD
  5
3B0D
330
1
100
AcDbSymbolTableRecord
100
AcDbBlockTableRecord
  2
*D13
340
0
  0
BLOCK_RECORD
  5
3C0A
330
1
100
AcDbSymbolTableRecord
100
AcDbBlockTableRecord
  2
*D14
340
0
  0
BLOCK_RECORD
  5
3C58
330
1
100
AcDbSymbolTableRecord
100
AcDbBlockTableRecord
  2
*D15
340
0
  0
BLOCK_RECORD
  5
3CA9
330
1
100
AcDbSymbolTableRecord
100
AcDbBlockTableRecord
  2
*D16
340
0
  0
BLOCK_RECORD
  5
3CC1
330
1
100
AcDbSymbolTableRecord
100
AcDbBlockTableRecord
  2
*D17
340
0
  0
BLOCK_RECORD
  5
3CD9
330
1
100
AcDbSymbolTableRecord
100
AcDbBlockTableRecord
  2
*D18
340
0
  0
BLOCK_RECORD
  5
3CE9
330
1
100
AcDbSymbolTableRecord
100
AcDbBlockTableRecord
  2
*D19
340
0
  0
BLOCK_RECORD
  5
3E4D
330
1
100
AcDbSymbolTableRecord
100
AcDbBlockTableRecord
  2
*D20
340
0
  0
BLOCK_RECORD
  5
3E65
330
1
100
AcDbSymbolTableRecord
100
AcDbBlockTableRecord
  2
*D21
340
0
  0
BLOCK_RECORD
  5
3E87
330
1
100
AcDbSymbolTableRecord
100
AcDbBlockTableRecord
  2
*D22
340
0
  0
BLOCK_RECORD
  5
3E9F
330
1
100
AcDbSymbolTableRecord
100
AcDbBlockTableRecord
  2
*D23
340
0
  0
BLOCK_RECORD
  5
3EEA
330
1
100
AcDbSymbolTableRecord
100
AcDbBlockTableRecord
  2
*D24
340
0
  0
BLOCK_RECORD
  5
4288
330
1
100
AcDbSymbolTableRecord
100
AcDbBlockTableRecord
  2
*D26
340
0
  0
BLOCK_RECORD
  5
42A8
330
1
100
AcDbSymbolTableRecord
100
AcDbBlockTableRecord
  2
*D27
340
0
  0
BLOCK_RECORD
  5
4327
330
1
100
AcDbSymbolTableRecord
100
AcDbBlockTableRecord
  2
*D29
340
0
  0
BLOCK_RECORD
  5
4343
330
1
100
AcDbSymbolTableRecord
100
AcDbBlockTableRecord
  2
*D30
340
0
  0
BLOCK_RECORD
  5
43D8
330
1
100
AcDbSymbolTableRecord
100
AcDbBlockTableRecord
  2
*D32
340
0
  0
BLOCK_RECORD
  5
43F0
330
1
100
AcDbSymbolTableRecord
100
AcDbBlockTableRecord
  2
*D33
340
0
  0
BLOCK_RECORD
  5
4408
330
1
100
AcDbSymbolTableRecord
100
AcDbBlockTableRecord
  2
*D34
340
0
  0
BLOCK_RECORD
  5
4420
330
1
100
AcDbSymbolTableRecord
100
AcDbBlockTableRecord
  2
*D35
340
0
  0
BLOCK_RECORD
  5
4438
330
1
100
AcDbSymbolTableRecord
100
AcDbBlockTableRecord
  2
*D36
340
0
  0
BLOCK_RECORD
  5
4450
330
1
100
AcDbSymbolTableRecord
100
AcDbBlockTableRecord
  2
*D37
340
0
  0
BLOCK_RECORD
  5
4469
330
1
100
AcDbSymbolTableRecord
100
AcDbBlockTableRecord
  2
*D38
340
0
  0
BLOCK_RECORD
  5
447A
330
1
100
AcDbSymbolTableRecord
100
AcDbBlockTableRecord
  2
*D39
340
0
  0
BLOCK_RECORD
  5
448A
330
1
100
AcDbSymbolTableRecord
100
AcDbBlockTableRecord
  2
*D40
340
0
  0
BLOCK_RECORD
  5
449A
330
1
100
AcDbSymbolTableRecord
100
AcDbBlockTableRecord
  2
*D41
340
0
  0
ENDTAB
  0
ENDSEC
  0
SECTION
  2
BLOCKS
  0
BLOCK
  5
20
330
1F
100
AcDbEntity
  8
0
100
AcDbBlockBegin
  2
*Model_Space
 70
     0
 10
0.0
 20
0.0
 30
0.0
  3
*Model_Space
  1

  0
ENDBLK
  5
21
330
1F
100
AcDbEntity
  8
0
100
AcDbBlockEnd
  0
BLOCK
  5
52
330
50
100
AcDbEntity
 67
     1
  8
0
100
AcDbBlockBegin
  2
*Paper_Space
 70
     0
 10
0.0
 20
0.0
 30
0.0
  3
*Paper_Space
  1

  0
ENDBLK
  5
53
330
50
100
AcDbEntity
 67
     1
  8
0
100
AcDbBlockEnd
  0
BLOCK
  5
57
330
55
100
AcDbEntity
 67
     1
  8
0
100
AcDbBlockBegin
  2
*Paper_Space0
 70
     0
 10
0.0
 20
0.0
 30
0.0
  3
*Paper_Space0
  1

  0
ENDBLK
  5
58
330
55
100
AcDbEntity
 67
     1
  8
0
100
AcDbBlockEnd
  0
BLOCK
  5
475
330
462
100
AcDbEntity
  8
0
100
AcDbBlockBegin
  2
a
 70
     0
 10
0.0
 20
0.0
 30
0.0
  3
a
  1

  0
LINE
  5
463
330
462
100
AcDbEntity
  8
图层3
100
AcDbLine
 10
-51.58183479263425
 20
5.069342261306474
 30
0.0
 11
128.4181652073657
 21
5.069342261306474
 31
0.0
  0
LINE
  5
464
330
462
100
AcDbEntity
  8
图层3
100
AcDbLine
 10
-51.58183479263425
 20
-4.930657738693525
 30
0.0
 11
128.4181652073657
 21
-4.930657738693525
 31
0.0
  0
LINE
  5
465
330
462
100
AcDbEntity
  8
图层3
100
AcDbLine
 10
-51.58183479263425
 20
-14.93065773869352
 30
0.0
 11
128.4181652073657
 21
-14.93065773869352
 31
0.0
  0
LINE
  5
466
330
462
100
AcDbEntity
  8
图层3
100
AcDbLine
 10
-51.58183479263425
 20
-24.93065773869353
 30
0.0
 11
128.4181652073657
 21
-24.93065773869353
 31
0.0
  0
LINE
  5
467
330
462
100
AcDbEntity
  8
图层3
100
AcDbLine
 10
-51.58183479263425
 20
-34.93065773869353
 30
0.0
 11
128.4181652073657
 21
-34.93065773869353
 31
0.0
  0
LINE
  5
468
330
462
100
AcDbEntity
  8
图层3
100
AcDbLine
 10
-51.58183479263425
 20
5.069342261306474
 30
0.0
 11
-51.58183479263425
 21
-34.93065773869353
 31
0.0
  0
LINE
  5
469
330
462
100
AcDbEntity
  8
图层3
100
AcDbLine
 10
128.4181652073657
 20
5.069342261306474
 30
0.0
 11
128.4181652073657
 21
-34.93065773869353
 31
0.0
  0
LINE
  5
46A
330
462
100
AcDbEntity
  8
图层3
100
AcDbLine
 10
-31.58183479263426
 20
-4.930657738693525
 30
0.0
 11
-31.58183479263426
 21
-34.93065773869353
 31
0.0
  0
LINE
  5
46B
330
462
100
AcDbEntity
  8
图层3
100
AcDbLine
 10
78.41816520736575
 20
-4.930657738693469
 30
0.0
 11
78.41816520736575
 21
-24.93065773869353
 31
0.0
  0
LINE
  5
46C
330
462
100
AcDbEntity
  8
图层3
100
AcDbLine
 10
58.41816520736575
 20
-4.930657738693525
 30
0.0
 11
58.41816520736575
 21
-34.93065773869353
 31
0.0
  0
LINE
  5
46D
330
462
100
AcDbEntity
  8
图层3
100
AcDbLine
 10
38.41816520736586
 20
-24.93065773869364
 30
0.0
 11
38.41816520736575
 21
-34.93065773869364
 31
0.0
  0
MTEXT
  5
46E
330
462
100
AcDbEntity
  8
图层3
100
AcDbMText
 10
-7.991267257440085
 20
3.638071533116089
 30
0.0
 40
5.0
 41
129.0054
 71
     1
 72
     5
  1
{\f幼圆|b0|i0|c134|p49;江门市蓬江区荷塘合和五金厂}
 73
     1
 44
1.0
  0
MTEXT
  5
46F
330
462
100
AcDbEntity
  8
图层3
100
AcDbMText
 10
-48.26895764370283
 20
-6.568323419867056
 30
0.0
 40
5.0
 41
16.6364
 71
     1
 72
     5
  1
{\f幼圆|b0|i0|c134|p49;名称}
 73
     1
 44
1.0
  0
MTEXT
  5
470
330
462
100
AcDbEntity
  8
图层3
100
AcDbMText
 10
-47.9770915309241
 20
-16.19149345429582
 30
0.0
 40
5.0
 41
15.1771
 71
     1
 72
     5
  1
{\f幼圆|b0|i0|c134|p49;材料}
 73
     1
 44
1.0
  0
MTEXT
  5
471
330
462
100
AcDbEntity
  8
图层3
100
AcDbMText
 10
-48.26895764370283
 20
-26.10627442497457
 30
0.0
 40
5.0
 41
16.3446
 71
     1
 72
     5
  1
{\f幼圆|b0|i0|c134|p49;日期}
 73
     1
 44
1.0
  0
MTEXT
  5
472
330
462
100
AcDbEntity
  8
图层3
100
AcDbMText
 10
61.76502632027404
 20
-6.276710960589753
 30
0.0
 40
5.0
 41
16.3446
 71
     1
 72
     5
  1
{\f幼圆|b0|i0|c134|p49;型号}
 73
     1
 44
1.0
  0
MTEXT
  5
473
330
462
100
AcDbEntity
  8
图层3
100
AcDbMText
 10
61.76502632027404
 20
-16.19149193126873
 30
0.0
 40
5.0
 41
16.0527
 71
     1
 72
     5
  1
{\f幼圆|b0|i0|c134|p49;图号}
 73
     1
 44
1.0
  0
MTEXT
  5
474
330
462
100
AcDbEntity
  8
图层3
100
AcDbMText
 10
41.62617975974217
 20
-26.10627594800144
 30
0.0
 40
5.0
 41
16.9283
 71
     1
 72
     5
  1
{\f幼圆|b0|i0|c134|p49;编号}
 73
     1
 44
1.0
  0
ENDBLK
  5
476
330
462
100
AcDbEntity
  8
0
100
AcDbBlockEnd
  0
BLOCK
  5
377A
330
3770
100
AcDbEntity
  8
0
100
AcDbBlockBegin
  2
*D5
 70
     1
 10
0.0
 20
0.0
 30
0.0
  3
*D5
  1

  0
LINE
  5
3FDB
330
3770
100
AcDbEntity
  8
图层3
 62
     0
440
 16777216
370
    -2
100
AcDbLine
 10
1507.438083003132
 20
1110.508878865095
 30
0.0
 11
1440.658300949652
 21
1110.508878865095
 31
0.0
  0
LINE
  5
3FDC
330
3770
100
AcDbEntity
  8
图层3
 62
     0
440
 16777216
370
    -2
100
AcDbLine
 10
1507.438083003131
 20
890.5088788650925
 30
0.0
 11
1440.658300949652
 21
890.5088788650925
 31
0.0
  0
LINE
  5
3FDD
330
3770
100
AcDbEntity
  8
图层3
 62
     0
440
 16777216
370
    -2
100
AcDbLine
 10
1441.908300949652
 20
1097.508878865095
 30
0.0
 11
1441.908300949652
 21
903.5088788650924
 31
0.0
  0
SOLID
  5
3FDE
330
3770
100
AcDbEntity
  8
图层3
 62
     0
440
 16777216
100
AcDbTrace
 10
1439.741634282986
 20
1097.508878865095
 30
0.0
 11
1444.074967616319
 21
1097.508878865095
 31
0.0
 12
1441.908300949652
 22
1110.508878865095
 32
0.0
 13
1441.908300949652
 23
1110.508878865095
 33
0.0
  0
SOLID
  5
3FDF
330
3770
100
AcDbEntity
  8
图层3
 62
     0
440
 16777216
100
AcDbTrace
 10
1439.741634282986
 20
903.5088788650924
 30
0.0
 11
1444.074967616319
 21
903.5088788650924
 31
0.0
 12
1441.908300949652
 22
890.5088788650925
 32
0.0
 13
1441.908300949652
 23
890.5088788650925
 33
0.0
  0
MTEXT
  5
3FE0
330
3770
100
AcDbEntity
  8
图层3
 62
     0
440
 16777216
100
AcDbMText
 10
1429.408300949652
 20
1000.508878865094
 30
0.0
 40
13.0
 41
0.0
 71
     5
 72
     1
  1
%%c110 [%%c4 3/4]
 11
0.0000000000000001
 21
1.0
 31
0.0
 73
     1
 44
1.0
  0
POINT
  5
3FE1
330
3770
100
AcDbEntity
  8
Defpoints
 62
     0
440
 16777216
100
AcDbPoint
 10
1511.438083003132
 20
1110.508878865095
 30
0.0
  0
POINT
  5
3FE2
330
3770
100
AcDbEntity
  8
Defpoints
 62
     0
440
 16777216
100
AcDbPoint
 10
1511.438083003131
 20
890.5088788650925
 30
0.0
  0
POINT
  5
3FE3
330
3770
100
AcDbEntity
  8
Defpoints
 62
     0
440
 16777216
100
AcDbPoint
 10
1441.908300949652
 20
890.5088788650925
 30
0.0
  0
ENDBLK
  5
377B
330
3770
100
AcDbEntity
  8
0
100
AcDbBlockEnd
  0
BLOCK
  5
3792
330
3788
100
AcDbEntity
  8
0
100
AcDbBlockBegin
  2
*D6
 70
     1
 10
0.0
 20
0.0
 30
0.0
  3
*D6
  1

  0
LINE
  5
3FE4
330
3788
100
AcDbEntity
  8
图层3
 62
     0
440
 16777216
370
    -2
100
AcDbLine
 10
1522.438083003131
 20
1120.508878865092
 30
0.0
 11
1714.78951495135
 21
1120.508878865092
 31
0.0
  0
LINE
  5
3FE5
330
3788
100
AcDbEntity
  8
图层3
 62
     0
440
 16777216
370
    -2
100
AcDbLine
 10
1522.438083003132
 20
880.5088788650943
 30
0.0
 11
1714.78951495135
 21
880.5088788650943
 31
0.0
  0
LINE
  5
3FE6
330
3788
100
AcDbEntity
  8
图层3
 62
     0
440
 16777216
370
    -2
100
AcDbLine
 10
1713.539514951349
 20
1107.508878865092
 30
0.0
 11
1713.539514951349
 21
893.5088788650942
 31
0.0
  0
SOLID
  5
3FE7
330
3788
100
AcDbEntity
  8
图层3
 62
     0
440
 16777216
100
AcDbTrace
 10
1711.372848284683
 20
1107.508878865092
 30
0.0
 11
1715.706181618016
 21
1107.508878865092
 31
0.0
 12
1713.539514951349
 22
1120.508878865092
 32
0.0
 13
1713.539514951349
 23
1120.508878865092
 33
0.0
  0
SOLID
  5
3FE8
330
3788
100
AcDbEntity
  8
图层3
 62
     0
440
 16777216
100
AcDbTrace
 10
1711.372848284683
 20
893.5088788650942
 30
0.0
 11
1715.706181618016
 21
893.5088788650942
 31
0.0
 12
1713.539514951349
 22
880.5088788650943
 32
0.0
 13
1713.539514951349
 23
880.5088788650943
 33
0.0
  0
MTEXT
  5
3FE9
330
3788
100
AcDbEntity
  8
图层3
 62
     0
440
 16777216
100
AcDbMText
 10
1701.039514951349
 20
1000.508878865093
 30
0.0
 40
13.0
 41
0.0
 71
     5
 72
     1
  1
%%c120 [%%c4 [3/4]
 11
0.0000000000000001
 21
1.0
 31
0.0
 73
     1
 44
1.0
  0
POINT
  5
3FEA
330
3788
100
AcDbEntity
  8
Defpoints
 62
     0
440
 16777216
100
AcDbPoint
 10
1518.438083003131
 20
1120.508878865092
 30
0.0
  0
POINT
  5
3FEB
330
3788
100
AcDbEntity
  8
Defpoints
 62
     0
440
 16777216
100
AcDbPoint
 10
1518.438083003132
 20
880.5088788650943
 30
0.0
  0
POINT
  5
3FEC
330
3788
100
AcDbEntity
  8
Defpoints
 62
     0
440
 16777216
100
AcDbPoint
 10
1713.539514951349
 20
880.5088788650943
 30
0.0
  0
ENDBLK
  5
3793
330
3788
100
AcDbEntity
  8
0
100
AcDbBlockEnd
  0
BLOCK
  5
37AC
330
37A0
100
AcDbEntity
  8
0
100
AcDbBlockBegin
  2
*D7
 70
     1
 10
0.0
 20
0.0
 30
0.0
  3
*D7
  1

  0
LINE
  5
3FED
330
37A0
100
AcDbEntity
  8
图层3
 62
     0
440
 16777216
370
    -2
100
AcDbLine
 10
1507.438083003132
 20
1094.708878865095
 30
0.0
 11
1507.438083003132
 21
1181.062326649788
 31
0.0
  0
LINE
  5
3FEE
330
37A0
100
AcDbEntity
  8
图层3
 62
     0
440
 16777216
370
    -2
100
AcDbLine
 10
1518.438083003131
 20
1124.508878865093
 30
0.0
 11
1518.438083003131
 21
1181.062326649788
 31
0.0
  0
LINE
  5
3FEF
330
37A0
100
AcDbEntity
  8
图层3
 62
     0
440
 16777216
370
    -2
100
AcDbLine
 10
1494.438083003132
 20
1179.812326649789
 30
0.0
 11
1481.438083003132
 21
1179.812326649789
 31
0.0
  0
LINE
  5
3FF0
330
37A0
100
AcDbEntity
  8
图层3
 62
     0
440
 16777216
370
    -2
100
AcDbLine
 10
1531.438083003131
 20
1179.812326649789
 30
0.0
 11
1662.938083003131
 21
1179.812326649789
 31
0.0
  0
LINE
  5
3FF1
330
37A0
100
AcDbEntity
  8
图层3
 62
     0
440
 16777216
370
    -2
100
AcDbLine
 10
1507.438083003132
 20
1179.812326649789
 30
0.0
 11
1518.438083003131
 21
1179.812326649789
 31
0.0
  0
SOLID
  5
3FF2
330
37A0
100
AcDbEntity
  8
图层3
 62
     0
440
 16777216
100
AcDbTrace
 10
1494.438083003132
 20
1181.978993316455
 30
0.0
 11
1494.438083003132
 21
1177.645659983122
 31
0.0
 12
1507.438083003132
 22
1179.812326649789
 32
0.0
 13
1507.438083003132
 23
1179.812326649789
 33
0.0
  0
SOLID
  5
3FF3
330
37A0
100
AcDbEntity
  8
图层3
 62
     0
440
 16777216
100
AcDbTrace
 10
1531.438083003131
 20
1181.978993316455
 30
0.0
 11
1531.438083003131
 21
1177.645659983122
 31
0.0
 12
1518.438083003131
 22
1179.812326649789
 32
0.0
 13
1518.438083003131
 23
1179.812326649789
 33
0.0
  0
MTEXT
  5
3FF4
330
37A0
100
AcDbEntity
  8
图层3
 62
     0
440
 16777216
100
AcDbMText
 10
1611.438083003131
 20
1192.312326649789
 30
0.0
 40
13.0
 41
0.0
 71
     5
 72
     1
  1
5.5 [1/4]
 73
     1
 44
1.0
  0
POINT
  5
3FF5
330
37A0
100
AcDbEntity
  8
Defpoints
 62
     0
440
 16777216
100
AcDbPoint
 10
1507.438083003132
 20
1090.708878865095
 30
0.0
  0
POINT
  5
3FF6
330
37A0
100
AcDbEntity
  8
Defpoints
 62
     0
440
 16777216
100
AcDbPoint
 10
1518.438083003131
 20
1120.508878865092
 30
0.0
  0
POINT
  5
3FF7
330
37A0
100
AcDbEntity
  8
Defpoints
 62
     0
440
 16777216
100
AcDbPoint
 10
1518.438083003131
 20
1179.812326649789
 30
0.0
  0
ENDBLK
  5
37AD
330
37A0
100
AcDbEntity
  8
0
100
AcDbBlockEnd
  0
BLOCK
  5
397E
330
3974
100
AcDbEntity
  8
0
100
AcDbBlockBegin
  2
*D8
 70
     1
 10
0.0
 20
0.0
 30
0.0
  3
*D8
  1

  0
ARC
  5
4001
330
3974
100
AcDbEntity
  8
图层3
 62
     0
440
 16777216
370
    -2
100
AcDbCircle
 10
1871.916945472746
 20
476.2729753126704
 30
0.0
 40
71.1921288739223
100
AcDbArc
 50
100.477055497777
 51
166.5229445022231
  0
SOLID
  5
4002
330
3974
100
AcDbEntity
  8
图层3
 62
     0
440
 16777216
100
AcDbTrace
 10
1858.773422003159
 20
548.4357922151931
 30
0.0
 11
1859.169064992239
 21
544.1205582235108
 31
0.0
 12
1871.916945472746
 22
547.4651041865927
 32
0.0
 13
1871.916945472746
 23
547.4651041865927
 33
0.0
  0
SOLID
  5
4003
330
3974
100
AcDbEntity
  8
图层3
 62
     0
440
 16777216
100
AcDbTrace
 10
1804.829517831288
 20
492.5542533964365
 30
0.0
 11
1800.540904071982
 21
493.1751960679171
 31
0.0
 12
1800.822382937193
 22
479.9988834542578
 32
0.0
 13
1800.822382937193
 23
479.9988834542578
 33
0.0
  0
MTEXT
  5
4004
102
{ACAD_XDICTIONARY
360
44BC
102
}
330
3974
100
AcDbEntity
  8
图层3
 62
     0
440
 16777216
100
AcDbMText
 10
1814.30708561283
 20
536.981100653271
 30
0.0
 40
13.0
 41
0.0
 71
     5
 72
     1
  1
87\M+5A1E3
 11
0.7253743710122885
 21
0.6883545756937531
 31
0.0
 73
     1
 44
1.0
  0
POINT
  5
4005
330
3974
100
AcDbEntity
  8
Defpoints
 62
     0
440
 16777216
100
AcDbPoint
 10
1837.402316508851
 20
538.5390142190103
 30
0.0
  0
POINT
  5
4006
330
3974
100
AcDbEntity
  8
Defpoints
 62
     0
440
 16777216
100
AcDbPoint
 10
1871.916945472746
 20
476.2729753126704
 30
0.0
  0
POINT
  5
4007
330
3974
100
AcDbEntity
  8
Defpoints
 62
     0
440
 16777216
100
AcDbPoint
 10
1871.916945472746
 20
670.7729753126705
 30
0.0
  0
POINT
  5
4008
330
3974
100
AcDbEntity
  8
Defpoints
 62
     0
440
 16777216
100
AcDbPoint
 10
1871.916945472746
 20
462.2729753126704
 30
0.0
  0
POINT
  5
4009
330
3974
100
AcDbEntity
  8
Defpoints
 62
     0
440
 16777216
100
AcDbPoint
 10
1718.765532469638
 20
484.2993007622228
 30
0.0
  0
ENDBLK
  5
397F
330
3974
100
AcDbEntity
  8
0
100
AcDbBlockEnd
  0
BLOCK
  5
39DB
330
39CF
100
AcDbEntity
  8
0
100
AcDbBlockBegin
  2
*D9
 70
     1
 10
0.0
 20
0.0
 30
0.0
  3
*D9
  1

  0
LINE
  5
427B
330
39CF
100
AcDbEntity
  8
图层3
 62
     0
440
 16777216
370
    -2
100
AcDbLine
 10
1875.916945472745
 20
903.2248419833138
 30
0.0
 11
1875.916945472745
 21
903.7356098011507
 31
0.0
  0
LINE
  5
427C
330
39CF
100
AcDbEntity
  8
图层3
 62
     0
440
 16777216
370
    -2
100
AcDbLine
 10
1879.916945472745
 20
906.5229753126708
 30
0.0
 11
1879.916945472745
 21
903.7356098011507
 31
0.0
  0
LINE
  5
427D
330
39CF
100
AcDbEntity
  8
图层3
 62
     0
440
 16777216
370
    -2
100
AcDbLine
 10
1892.916945472745
 20
904.9856098011508
 30
0.0
 11
1905.916945472745
 21
904.9856098011508
 31
0.0
  0
LINE
  5
427E
330
39CF
100
AcDbEntity
  8
图层3
 62
     0
440
 16777216
370
    -2
100
AcDbLine
 10
1862.916945472745
 20
904.9856098011508
 30
0.0
 11
1750.750278806078
 21
904.9856098011508
 31
0.0
  0
LINE
  5
427F
330
39CF
100
AcDbEntity
  8
图层3
 62
     0
440
 16777216
370
    -2
100
AcDbLine
 10
1879.916945472745
 20
904.9856098011508
 30
0.0
 11
1875.916945472745
 21
904.9856098011508
 31
0.0
  0
SOLID
  5
4280
330
39CF
100
AcDbEntity
  8
图层3
 62
     0
440
 16777216
100
AcDbTrace
 10
1892.916945472745
 20
907.1522764678174
 30
0.0
 11
1892.916945472745
 21
902.8189431344841
 31
0.0
 12
1879.916945472745
 22
904.9856098011508
 32
0.0
 13
1879.916945472745
 23
904.9856098011508
 33
0.0
  0
SOLID
  5
4281
330
39CF
100
AcDbEntity
  8
图层3
 62
     0
440
 16777216
100
AcDbTrace
 10
1862.916945472745
 20
907.1522764678174
 30
0.0
 11
1862.916945472745
 21
902.8189431344841
 31
0.0
 12
1875.916945472745
 22
904.9856098011508
 32
0.0
 13
1875.916945472745
 23
904.9856098011508
 33
0.0
  0
MTEXT
  5
4282
330
39CF
100
AcDbEntity
  8
图层3
 62
     0
440
 16777216
100
AcDbMText
 10
1793.583612139412
 20
917.4856098011508
 30
0.0
 40
13.0
 41
0.0
 71
     5
 72
     1
  1
4 [1/8]
 73
     1
 44
1.0
  0
POINT
  5
4283
330
39CF
100
AcDbEntity
  8
Defpoints
 62
     0
440
 16777216
100
AcDbPoint
 10
1875.916945472745
 20
907.2248419833139
 30
0.0
  0
POINT
  5
4284
330
39CF
100
AcDbEntity
  8
Defpoints
 62
     0
440
 16777216
100
AcDbPoint
 10
1879.916945472745
 20
910.5229753126707
 30
0.0
  0
POINT
  5
4285
330
39CF
100
AcDbEntity
  8
Defpoints
 62
     0
440
 16777216
100
AcDbPoint
 10
1879.916945472745
 20
904.9856098011508
 30
0.0
  0
ENDBLK
  5
39DC
330
39CF
100
AcDbEntity
  8
0
100
AcDbBlockEnd
  0
BLOCK
  5
3A51
330
3A43
100
AcDbEntity
  8
0
100
AcDbBlockBegin
  2
*D10
 70
     1
 10
0.0
 20
0.0
 30
0.0
  3
*D10
  1

  0
LINE
  5
4015
330
3A43
100
AcDbEntity
  8
图层3
 62
     0
440
 16777216
370
    -2
100
AcDbLine
 10
1879.916945472746
 20
960.6767086539553
 30
0.0
 11
1879.916945472746
 21
1023.48174338894
 31
0.0
  0
LINE
  5
4016
330
3A43
100
AcDbEntity
  8
图层3
 62
     0
440
 16777216
370
    -2
100
AcDbLine
 10
1873.088518347997
 20
963.5051357787039
 30
0.0
 11
1832.678652394235
 21
1003.915001732465
 31
0.0
  0
ARC
  5
4017
330
3A43
100
AcDbEntity
  8
图层3
 62
     0
440
 16777216
370
    -2
100
AcDbCircle
 10
1879.916945472746
 20
956.6767086539554
 30
0.0
 40
65.55503473498443
100
AcDbArc
 50
67.23832976931872
 51
78.61916488465936
  0
ARC
  5
4018
330
3A43
100
AcDbEntity
  8
图层3
 62
     0
440
 16777216
370
    -2
100
AcDbCircle
 10
1879.916945472746
 20
956.6767086539554
 30
0.0
 40
65.55503473498443
100
AcDbArc
 50
146.3808351153408
 51
157.7616702306815
  0
ARC
  5
4019
330
3A43
100
AcDbEntity
  8
图层3
 62
     0
440
 16777216
370
    -2
100
AcDbCircle
 10
1879.916945472746
 20
956.6767086539554
 30
0.0
 40
65.55503473498443
100
AcDbArc
 50
90.00000000000003
 51
135.0000000000002
  0
SOLID
  5
401A
330
3A43
100
AcDbEntity
  8
图层3
 62
     0
440
 16777216
100
AcDbTrace
 10
1892.638051425801
 20
1018.786760402682
 30
0.0
 11
1893.067715856313
 21
1023.098739792119
 31
0.0
 12
1879.916945472746
 22
1022.23174338894
 32
0.0
 13
1879.916945472746
 23
1022.23174338894
 33
0.0
  0
SOLID
  5
401B
330
3A43
100
AcDbEntity
  8
图层3
 62
     0
440
 16777216
100
AcDbTrace
 10
1823.650477918718
 20
994.3451783758872
 30
0.0
 11
1827.003326417776
 21
991.5999671417297
 31
0.0
 12
1833.562535870718
 22
1003.031118255982
 32
0.0
 13
1833.562535870718
 23
1003.031118255982
 33
0.0
  0
MTEXT
  5
401C
102
{ACAD_XDICTIONARY
360
44BE
102
}
330
3A43
100
AcDbEntity
  8
图层3
 62
     0
440
 16777216
100
AcDbMText
 10
1848.485714607923
 20
1028.123655221334
 30
0.0
 40
13.0
 41
0.0
 71
     5
 72
     1
  1
45\M+5A1E3
 11
0.915340654321122
 21
0.40268037765327
 31
0.0
 73
     1
 44
1.0
  0
POINT
  5
401D
330
3A43
100
AcDbEntity
  8
Defpoints
 62
     0
440
 16777216
100
AcDbPoint
 10
1862.950053980974
 20
1019.998009747753
 30
0.0
  0
POINT
  5
401E
330
3A43
100
AcDbEntity
  8
Defpoints
 62
     0
440
 16777216
100
AcDbPoint
 10
1879.916945472745
 20
956.6767086539554
 30
0.0
  0
POINT
  5
401F
330
3A43
100
AcDbEntity
  8
Defpoints
 62
     0
440
 16777216
100
AcDbPoint
 10
1879.916945472746
 20
956.6767086539552
 30
0.0
  0
POINT
  5
4020
330
3A43
100
AcDbEntity
  8
Defpoints
 62
     0
440
 16777216
100
AcDbPoint
 10
1879.916945472745
 20
670.7729753126702
 30
0.0
  0
POINT
  5
4021
330
3A43
100
AcDbEntity
  8
Defpoints
 62
     0
440
 16777216
100
AcDbPoint
 10
1875.916945472743
 20
960.6767086539578
 30
0.0
  0
ENDBLK
  5
3A52
330
3A43
100
AcDbEntity
  8
0
100
AcDbBlockEnd
  0
BLOCK
  5
3A94
330
3A88
100
AcDbEntity
  8
0
100
AcDbBlockBegin
  2
*D11
 70
     1
 10
0.0
 20
0.0
 30
0.0
  3
*D11
  1

  0
LINE
  5
4022
330
3A88
100
AcDbEntity
  8
图层3
 62
     0
440
 16777216
370
    -2
100
AcDbLine
 10
1879.916945472745
 20
666.7729753126702
 30
0.0
 11
1879.916945472745
 21
655.9968147538302
 31
0.0
  0
LINE
  5
4023
330
3A88
100
AcDbEntity
  8
图层3
 62
     0
440
 16777216
370
    -2
100
AcDbLine
 10
1871.916945472746
 20
666.7729753126703
 30
0.0
 11
1871.916945472746
 21
655.9968147538302
 31
0.0
  0
LINE
  5
4024
330
3A88
100
AcDbEntity
  8
图层3
 62
     0
440
 16777216
370
    -2
100
AcDbLine
 10
1892.916945472745
 20
657.2468147538302
 30
0.0
 11
1905.916945472745
 21
657.2468147538302
 31
0.0
  0
LINE
  5
4025
330
3A88
100
AcDbEntity
  8
图层3
 62
     0
440
 16777216
370
    -2
100
AcDbLine
 10
1858.916945472745
 20
657.2468147538302
 30
0.0
 11
1755.916945472745
 21
657.2468147538302
 31
0.0
  0
LINE
  5
4026
330
3A88
100
AcDbEntity
  8
图层3
 62
     0
440
 16777216
370
    -2
100
AcDbLine
 10
1879.916945472745
 20
657.2468147538302
 30
0.0
 11
1871.916945472746
 21
657.2468147538302
 31
0.0
  0
SOLID
  5
4027
330
3A88
100
AcDbEntity
  8
图层3
 62
     0
440
 16777216
100
AcDbTrace
 10
1892.916945472745
 20
659.4134814204968
 30
0.0
 11
1892.916945472745
 21
655.0801480871635
 31
0.0
 12
1879.916945472745
 22
657.2468147538302
 32
0.0
 13
1879.916945472745
 23
657.2468147538302
 33
0.0
  0
SOLID
  5
4028
330
3A88
100
AcDbEntity
  8
图层3
 62
     0
440
 16777216
100
AcDbTrace
 10
1858.916945472745
 20
659.4134814204968
 30
0.0
 11
1858.916945472745
 21
655.0801480871635
 31
0.0
 12
1871.916945472746
 22
657.2468147538302
 32
0.0
 13
1871.916945472746
 23
657.2468147538302
 33
0.0
  0
MTEXT
  5
4029
330
3A88
100
AcDbEntity
  8
图层3
 62
     0
440
 16777216
100
AcDbMText
 10
1800.916945472745
 20
669.7468147538302
 30
0.0
 40
13.0
 41
0.0
 71
     5
 72
     1
  1
8 [3/8]
 73
     1
 44
1.0
  0
POINT
  5
402A
330
3A88
100
AcDbEntity
  8
Defpoints
 62
     0
440
 16777216
100
AcDbPoint
 10
1879.916945472745
 20
670.7729753126702
 30
0.0
  0
POINT
  5
402B
330
3A88
100
AcDbEntity
  8
Defpoints
 62
     0
440
 16777216
100
AcDbPoint
 10
1871.916945472746
 20
670.7729753126703
 30
0.0
  0
POINT
  5
402C
330
3A88
100
AcDbEntity
  8
Defpoints
 62
     0
440
 16777216
100
AcDbPoint
 10
1871.916945472746
 20
657.2468147538302
 30
0.0
  0
ENDBLK
  5
3A95
330
3A88
100
AcDbEntity
  8
0
100
AcDbBlockEnd
  0
BLOCK
  5
3B00
330
3AF8
100
AcDbEntity
  8
0
100
AcDbBlockBegin
  2
*D12
 70
     1
 10
0.0
 20
0.0
 30
0.0
  3
*D12
  1

  0
LINE
  5
40AE
330
3AF8
100
AcDbEntity
  8
图层3
 62
     0
440
 16777216
370
    -2
100
AcDbLine
 10
1524.12705447147
 20
466.799732522154
 30
0.0
 11
1666.62705447147
 21
466.799732522154
 31
0.0
  0
LINE
  5
40AF
330
3AF8
100
AcDbEntity
  8
图层3
 62
     0
440
 16777216
370
    -2
100
AcDbLine
 10
1666.62705447147
 20
466.799732522154
 30
0.0
 11
1684.475533236597
 21
485.705599489072
 31
0.0
  0
MTEXT
  5
40B0
330
3AF8
100
AcDbEntity
  8
图层3
 62
     0
440
 16777216
100
AcDbMText
 10
1592.37705447147
 20
479.2997325221539
 30
0.0
 40
13.0
 41
0.0
 71
     5
 72
     1
  1
R40 [R1 5/8]
 73
     1
 44
1.0
  0
LINE
  5
40B1
330
3AF8
100
AcDbEntity
  8
图层3
 62
     0
440
 16777216
370
    -2
100
AcDbLine
 10
1720.858970719357
 20
524.2444821524063
 30
0.0
 11
1693.399772619161
 21
495.1585329725312
 31
0.0
  0
SOLID
  5
40B2
330
3AF8
100
AcDbEntity
  8
图层3
 62
     0
440
 16777216
100
AcDbTrace
 10
1682.900044322687
 20
487.1929727194992
 30
0.0
 11
1686.051022150507
 21
484.2182262586447
 31
0.0
 12
1693.399772619161
 22
495.1585329725312
 32
0.0
 13
1693.399772619161
 23
495.1585329725312
 33
0.0
  0
POINT
  5
40B3
330
3AF8
100
AcDbEntity
  8
Defpoints
 62
     0
440
 16777216
100
AcDbPoint
 10
1693.399772619161
 20
495.1585329725312
 30
0.0
  0
POINT
  5
40B4
330
3AF8
100
AcDbEntity
  8
Defpoints
 62
     0
440
 16777216
100
AcDbPoint
 10
1720.858970719357
 20
524.2444821524063
 30
0.0
  0
ENDBLK
  5
3B01
330
3AF8
100
AcDbEntity
  8
0
100
AcDbBlockEnd
  0
BLOCK
  5
3B17
330
3B0D
100
AcDbEntity
  8
0
100
AcDbBlockBegin
  2
*D13
 70
     1
 10
0.0
 20
0.0
 30
0.0
  3
*D13
  1

  0
LINE
  5
40B5
330
3B0D
100
AcDbEntity
  8
图层3
 62
     0
440
 16777216
370
    -2
100
AcDbLine
 10
616.8870484228657
 20
633.5366188344404
 30
0.0
 11
824.5710487516371
 21
633.5366188344405
 31
0.0
  0
LINE
  5
40B6
330
3B0D
100
AcDbEntity
  8
图层3
 62
     0
440
 16777216
370
    -2
100
AcDbLine
 10
824.5710487516371
 20
633.5366188344405
 30
0.0
 11
774.2474971148126
 21
690.9761330695513
 31
0.0
  0
LINE
  5
40B7
330
3B0D
100
AcDbEntity
  8
图层3
 62
     0
440
 16777216
370
    -2
100
AcDbLine
 10
697.6741416028159
 20
778.3772842383621
 30
0.0
 11
689.1074150825407
 21
788.1553820455441
 31
0.0
  0
MTEXT
  5
40B8
102
{ACAD_XDICTIONARY
360
44C2
102
}
330
3B0D
100
AcDbEntity
  8
图层3
 62
     0
440
 16777216
100
AcDbMText
 10
693.8037150895325
 20
646.0366188344405
 30
0.0
 40
13.0
 41
0.0
 71
     5
 72
     1
  1
\U+220590.2 [\U+22053 1/2]
 73
     1
 44
1.0
  0
LINE
  5
40B9
330
3B0D
100
AcDbEntity
  8
图层3
 62
     0
440
 16777216
370
    -2
100
AcDbLine
 10
706.2408681230908
 20
768.5991864311802
 30
0.0
 11
765.6807705945375
 21
700.7542308767332
 31
0.0
  0
SOLID
  5
40BA
330
3B0D
100
AcDbEntity
  8
图层3
 62
     0
440
 16777216
100
AcDbTrace
 10
699.3038245706795
 20
779.8050719917413
 30
0.0
 11
696.0444586349522
 21
776.9494964849829
 31
0.0
 12
706.2408681230908
 22
768.5991864311802
 32
0.0
 13
706.2408681230908
 23
768.5991864311802
 33
0.0
  0
SOLID
  5
40BB
330
3B0D
100
AcDbEntity
  8
图层3
 62
     0
440
 16777216
100
AcDbTrace
 10
775.8771800826764
 20
692.4039208229305
 30
0.0
 11
772.6178141469489
 21
689.548345316172
 31
0.0
 12
765.6807705945375
 22
700.7542308767332
 32
0.0
 13
765.6807705945375
 23
700.7542308767332
 33
0.0
  0
POINT
  5
40BC
330
3B0D
100
AcDbEntity
  8
Defpoints
 62
     0
440
 16777216
100
AcDbPoint
 10
765.6807705945375
 20
700.7542308767332
 30
0.0
  0
POINT
  5
40BD
330
3B0D
100
AcDbEntity
  8
Defpoints
 62
     0
440
 16777216
100
AcDbPoint
 10
706.2408681230908
 20
768.5991864311802
 30
0.0
  0
ENDBLK
  5
3B18
330
3B0D
100
AcDbEntity
  8
0
100
AcDbBlockEnd
  0
BLOCK
  5
3C16
330
3C0A
100
AcDbEntity
  8
0
100
AcDbBlockBegin
  2
*D14
 70
     1
 10
0.0
 20
0.0
 30
0.0
  3
*D14
  1

  0
LINE
  5
403D
330
3C0A
100
AcDbEntity
  8
图层3
 62
     0
440
 16777216
370
    -2
100
AcDbLine
 10
654.2108193588144
 20
870.6767086539567
 30
0.0
 11
499.0458843769499
 21
870.6767086539567
 31
0.0
  0
LINE
  5
403E
330
3C0A
100
AcDbEntity
  8
图层3
 62
     0
440
 16777216
370
    -2
100
AcDbLine
 10
563.2108193588147
 20
941.6767086539564
 30
0.0
 11
499.04588437695
 21
941.6767086539564
 31
0.0
  0
LINE
  5
403F
330
3C0A
100
AcDbEntity
  8
图层3
 62
     0
440
 16777216
370
    -2
100
AcDbLine
 10
500.29588437695
 20
883.6767086539566
 30
0.0
 11
500.29588437695
 21
928.6767086539565
 31
0.0
  0
LINE
  5
4040
330
3C0A
100
AcDbEntity
  8
图层3
 62
     0
440
 16777216
370
    -2
100
AcDbLine
 10
500.29588437695
 20
941.6767086539564
 30
0.0
 11
500.29588437695
 21
993.3244913477137
 31
0.0
  0
LINE
  5
4041
330
3C0A
100
AcDbEntity
  8
图层3
 62
     0
440
 16777216
370
    -2
100
AcDbLine
 10
500.29588437695
 20
993.3244913477137
 30
0.0
 11
618.9625510436167
 21
993.3244913477137
 31
0.0
  0
SOLID
  5
4042
330
3C0A
100
AcDbEntity
  8
图层3
 62
     0
440
 16777216
100
AcDbTrace
 10
498.1292177102832
 20
883.6767086539566
 30
0.0
 11
502.4625510436166
 21
883.6767086539566
 31
0.0
 12
500.29588437695
 22
870.6767086539567
 32
0.0
 13
500.29588437695
 23
870.6767086539567
 33
0.0
  0
SOLID
  5
4043
330
3C0A
100
AcDbEntity
  8
图层3
 62
     0
440
 16777216
100
AcDbTrace
 10
498.1292177102833
 20
928.6767086539565
 30
0.0
 11
502.4625510436167
 21
928.6767086539565
 31
0.0
 12
500.29588437695
 22
941.6767086539564
 32
0.0
 13
500.29588437695
 23
941.6767086539564
 33
0.0
  0
MTEXT
  5
4044
330
3C0A
100
AcDbEntity
  8
图层3
 62
     0
440
 16777216
100
AcDbMText
 10
562.6292177102832
 20
1005.824491347714
 30
0.0
 40
13.0
 41
0.0
 71
     5
 72
     1
  1
71 [2 3/4]
 73
     1
 44
1.0
  0
POINT
  5
4045
330
3C0A
100
AcDbEntity
  8
Defpoints
 62
     0
440
 16777216
100
AcDbPoint
 10
658.2108193588144
 20
870.6767086539567
 30
0.0
  0
POINT
  5
4046
330
3C0A
100
AcDbEntity
  8
Defpoints
 62
     0
440
 16777216
100
AcDbPoint
 10
567.2108193588147
 20
941.6767086539564
 30
0.0
  0
POINT
  5
4047
330
3C0A
100
AcDbEntity
  8
Defpoints
 62
     0
440
 16777216
100
AcDbPoint
 10
500.29588437695
 20
941.6767086539564
 30
0.0
  0
ENDBLK
  5
3C17
330
3C0A
100
AcDbEntity
  8
0
100
AcDbBlockEnd
  0
BLOCK
  5
3C64
330
3C58
100
AcDbEntity
  8
0
100
AcDbBlockBegin
  2
*D15
 70
     1
 10
0.0
 20
0.0
 30
0.0
  3
*D15
  1

  0
LINE
  5
4048
330
3C58
100
AcDbEntity
  8
图层3
 62
     0
440
 16777216
370
    -2
100
AcDbLine
 10
1107.460819358814
 20
854.6767086539567
 30
0.0
 11
1369.742107621356
 21
854.6767086539565
 31
0.0
  0
LINE
  5
4049
330
3C58
100
AcDbEntity
  8
图层3
 62
     0
440
 16777216
370
    -2
100
AcDbLine
 10
1177.460819358814
 20
734.6767086539568
 30
0.0
 11
1369.742107621356
 21
734.6767086539566
 31
0.0
  0
LINE
  5
404A
330
3C58
100
AcDbEntity
  8
图层3
 62
     0
440
 16777216
370
    -2
100
AcDbLine
 10
1368.492107621356
 20
841.6767086539564
 30
0.0
 11
1368.492107621356
 21
747.6767086539567
 31
0.0
  0
SOLID
  5
404B
330
3C58
100
AcDbEntity
  8
图层3
 62
     0
440
 16777216
100
AcDbTrace
 10
1366.325440954689
 20
841.6767086539564
 30
0.0
 11
1370.658774288023
 21
841.6767086539564
 31
0.0
 12
1368.492107621356
 22
854.6767086539565
 32
0.0
 13
1368.492107621356
 23
854.6767086539565
 33
0.0
  0
SOLID
  5
404C
330
3C58
100
AcDbEntity
  8
图层3
 62
     0
440
 16777216
100
AcDbTrace
 10
1366.325440954689
 20
747.6767086539567
 30
0.0
 11
1370.658774288023
 21
747.6767086539567
 31
0.0
 12
1368.492107621356
 22
734.6767086539566
 32
0.0
 13
1368.492107621356
 23
734.6767086539566
 33
0.0
  0
MTEXT
  5
404D
330
3C58
100
AcDbEntity
  8
图层3
 62
     0
440
 16777216
100
AcDbMText
 10
1345.158774288022
 20
796.1733247823067
 30
0.0
 40
13.0
 41
0.0
 71
     5
 72
     1
  1
120\P[4 3/4]
 11
0.0000000000000001
 21
1.0
 31
0.0
 73
     1
 44
1.0
  0
POINT
  5
404E
330
3C58
100
AcDbEntity
  8
Defpoints
 62
     0
440
 16777216
100
AcDbPoint
 10
1103.460819358814
 20
854.6767086539567
 30
0.0
  0
POINT
  5
404F
330
3C58
100
AcDbEntity
  8
Defpoints
 62
     0
440
 16777216
100
AcDbPoint
 10
1173.460819358814
 20
734.6767086539568
 30
0.0
  0
POINT
  5
4050
330
3C58
100
AcDbEntity
  8
Defpoints
 62
     0
440
 16777216
100
AcDbPoint
 10
1368.492107621356
 20
734.6767086539566
 30
0.0
  0
ENDBLK
  5
3C65
330
3C58
100
AcDbEntity
  8
0
100
AcDbBlockEnd
  0
BLOCK
  5
3CB3
330
3CA9
100
AcDbEntity
  8
0
100
AcDbBlockBegin
  2
*D16
 70
     1
 10
0.0
 20
0.0
 30
0.0
  3
*D16
  1

  0
LINE
  5
4051
330
3CA9
100
AcDbEntity
  8
图层3
 62
     0
440
 16777216
370
    -2
100
AcDbLine
 10
563.2108193588148
 20
960.6767086539566
 30
0.0
 11
435.2795414160965
 21
960.6767086539566
 31
0.0
  0
LINE
  5
4052
330
3CA9
100
AcDbEntity
  8
图层3
 62
     0
440
 16777216
370
    -2
100
AcDbLine
 10
563.2108193588142
 20
440.6767086539568
 30
0.0
 11
435.2795414160964
 21
440.6767086539568
 31
0.0
  0
LINE
  5
4053
330
3CA9
100
AcDbEntity
  8
图层3
 62
     0
440
 16777216
370
    -2
100
AcDbLine
 10
436.5295414160965
 20
947.6767086539565
 30
0.0
 11
436.5295414160964
 21
453.6767086539568
 31
0.0
  0
SOLID
  5
4054
330
3CA9
100
AcDbEntity
  8
图层3
 62
     0
440
 16777216
100
AcDbTrace
 10
434.3628747494299
 20
947.6767086539565
 30
0.0
 11
438.6962080827632
 21
947.6767086539565
 31
0.0
 12
436.5295414160965
 22
960.6767086539566
 32
0.0
 13
436.5295414160965
 23
960.6767086539566
 33
0.0
  0
SOLID
  5
4055
330
3CA9
100
AcDbEntity
  8
图层3
 62
     0
440
 16777216
100
AcDbTrace
 10
434.3628747494297
 20
453.6767086539568
 30
0.0
 11
438.6962080827631
 21
453.6767086539568
 31
0.0
 12
436.5295414160964
 22
440.6767086539568
 32
0.0
 13
436.5295414160964
 23
440.6767086539568
 33
0.0
  0
MTEXT
  5
4056
330
3CA9
100
AcDbEntity
  8
图层3
 62
     0
440
 16777216
100
AcDbMText
 10
424.0295414160963
 20
700.6767086539568
 30
0.0
 40
13.0
 41
0.0
 71
     5
 72
     1
  1
520 [20 1/2]
 11
0.0000000000000001
 21
1.0
 31
0.0
 73
     1
 44
1.0
  0
POINT
  5
4057
330
3CA9
100
AcDbEntity
  8
Defpoints
 62
     0
440
 16777216
100
AcDbPoint
 10
567.2108193588148
 20
960.6767086539566
 30
0.0
  0
POINT
  5
4058
330
3CA9
100
AcDbEntity
  8
Defpoints
 62
     0
440
 16777216
100
AcDbPoint
 10
567.2108193588142
 20
440.6767086539568
 30
0.0
  0
POINT
  5
4059
330
3CA9
100
AcDbEntity
  8
Defpoints
 62
     0
440
 16777216
100
AcDbPoint
 10
436.5295414160964
 20
440.6767086539568
 30
0.0
  0
ENDBLK
  5
3CB4
330
3CA9
100
AcDbEntity
  8
0
100
AcDbBlockEnd
  0
BLOCK
  5
3CCB
330
3CC1
100
AcDbEntity
  8
0
100
AcDbBlockBegin
  2
*D17
 70
     1
 10
0.0
 20
0.0
 30
0.0
  3
*D17
  1

  0
LINE
  5
405A
330
3CC1
100
AcDbEntity
  8
图层3
 62
     0
440
 16777216
370
    -2
100
AcDbLine
 10
731.9608193588147
 20
854.6767086539567
 30
0.0
 11
490.4097210148211
 21
854.6767086539567
 31
0.0
  0
LINE
  5
405B
330
3CC1
100
AcDbEntity
  8
图层3
 62
     0
440
 16777216
370
    -2
100
AcDbLine
 10
731.9608193588126
 20
475.6767086539566
 30
0.0
 11
490.409721014821
 21
475.6767086539567
 31
0.0
  0
LINE
  5
405C
330
3CC1
100
AcDbEntity
  8
图层3
 62
     0
440
 16777216
370
    -2
100
AcDbLine
 10
491.6597210148212
 20
841.6767086539566
 30
0.0
 11
491.6597210148211
 21
488.6767086539567
 31
0.0
  0
SOLID
  5
405D
330
3CC1
100
AcDbEntity
  8
图层3
 62
     0
440
 16777216
100
AcDbTrace
 10
489.4930543481544
 20
841.6767086539566
 30
0.0
 11
493.8263876814878
 21
841.6767086539566
 31
0.0
 12
491.6597210148212
 22
854.6767086539567
 32
0.0
 13
491.6597210148212
 23
854.6767086539567
 33
0.0
  0
SOLID
  5
405E
330
3CC1
100
AcDbEntity
  8
图层3
 62
     0
440
 16777216
100
AcDbTrace
 10
489.4930543481544
 20
488.6767086539567
 30
0.0
 11
493.8263876814878
 21
488.6767086539567
 31
0.0
 12
491.6597210148211
 22
475.6767086539567
 32
0.0
 13
491.6597210148211
 23
475.6767086539567
 33
0.0
  0
MTEXT
  5
405F
330
3CC1
100
AcDbEntity
  8
图层3
 62
     0
440
 16777216
100
AcDbMText
 10
479.159721014821
 20
665.1767086539567
 30
0.0
 40
13.0
 41
0.0
 71
     5
 72
     1
  1
379 [14 7/8]
 11
0.0000000000000001
 21
1.0
 31
0.0
 73
     1
 44
1.0
  0
POINT
  5
4060
330
3CC1
100
AcDbEntity
  8
Defpoints
 62
     0
440
 16777216
100
AcDbPoint
 10
735.9608193588147
 20
854.6767086539567
 30
0.0
  0
POINT
  5
4061
330
3CC1
100
AcDbEntity
  8
Defpoints
 62
     0
440
 16777216
100
AcDbPoint
 10
735.9608193588126
 20
475.6767086539566
 30
0.0
  0
POINT
  5
4062
330
3CC1
100
AcDbEntity
  8
Defpoints
 62
     0
440
 16777216
100
AcDbPoint
 10
491.6597210148211
 20
475.6767086539567
 30
0.0
  0
ENDBLK
  5
3CCC
330
3CC1
100
AcDbEntity
  8
0
100
AcDbBlockEnd
  0
BLOCK
  5
3CDF
330
3CD9
100
AcDbEntity
  8
0
100
AcDbBlockBegin
  2
*D18
 70
     1
 10
0.0
 20
0.0
 30
0.0
  3
*D18
  1

  0
LINE
  5
40BE
330
3CD9
100
AcDbEntity
  8
图层3
 62
     0
440
 16777216
370
    -2
100
AcDbLine
 10
1205.120529136247
 20
634.5498197615015
 30
0.0
 11
947.9862500263555
 21
630.4685269416475
 31
0.0
  0
MTEXT
  5
40BF
330
3CD9
100
AcDbEntity
  8
图层3
 62
     0
440
 16777216
100
AcDbMText
 10
1097.102398516941
 20
645.3369062675264
 30
0.0
 40
13.0
 41
0.0
 71
     5
 72
     1
  1
4-R2200 [R86 5/8]
 11
0.9998740600514214
 21
0.015870224834169
 31
0.0
 73
     1
 44
1.0
  0
SOLID
  5
40C0
330
3CD9
100
AcDbEntity
  8
图层3
 62
     0
440
 16777216
100
AcDbTrace
 10
947.9518645392147
 20
632.6349207384256
 30
0.0
 11
948.0206355134962
 21
628.3021331448695
 31
0.0
 12
934.9878872456869
 22
630.2622140188034
 32
0.0
 13
934.9878872456869
 23
630.2622140188034
 33
0.0
  0
POINT
  5
40C1
330
3CD9
100
AcDbEntity
  8
Defpoints
 62
     0
440
 16777216
100
AcDbPoint
 10
934.9878872456869
 20
630.2622140188034
 30
0.0
  0
POINT
  5
40C2
330
3CD9
100
AcDbEntity
  8
Defpoints
 62
     0
440
 16777216
100
AcDbPoint
 10
3134.710819358806
 20
665.1767086539756
 30
0.0
  0
ENDBLK
  5
3CE0
330
3CD9
100
AcDbEntity
  8
0
100
AcDbBlockEnd
  0
BLOCK
  5
3CEF
330
3CE9
100
AcDbEntity
  8
0
100
AcDbBlockBegin
  2
*D19
 70
     1
 10
0.0
 20
0.0
 30
0.0
  3
*D19
  1

  0
LINE
  5
40C3
330
3CE9
100
AcDbEntity
  8
图层3
 62
     0
440
 16777216
370
    -2
100
AcDbLine
 10
971.709660371242
 20
578.4499922533743
 30
0.0
 11
1169.626327037908
 21
578.4499922533743
 31
0.0
  0
LINE
  5
40C4
330
3CE9
100
AcDbEntity
  8
图层3
 62
     0
440
 16777216
370
    -2
100
AcDbLine
 10
1169.626327037908
 20
578.4499922533743
 30
0.0
 11
1238.415072951133
 21
525.4393691220866
 31
0.0
  0
MTEXT
  5
40C5
330
3CE9
100
AcDbEntity
  8
图层3
 62
     0
440
 16777216
100
AcDbMText
 10
1057.292993704575
 20
590.9499922533743
 30
0.0
 40
13.0
 41
0.0
 71
     5
 72
     1
  1
4-R105 [R4 1/8]
 73
     1
 44
1.0
  0
SOLID
  5
40C6
330
3CE9
100
AcDbEntity
  8
图层3
 62
     0
440
 16777216
100
AcDbTrace
 10
1239.737620322775
 20
527.1555605141545
 30
0.0
 11
1237.092525579492
 21
523.7231777300185
 31
0.0
 12
1248.712221303541
 22
517.5040848922358
 32
0.0
 13
1248.712221303541
 23
517.5040848922358
 33
0.0
  0
POINT
  5
40C7
330
3CE9
100
AcDbEntity
  8
Defpoints
 62
     0
440
 16777216
100
AcDbPoint
 10
1248.712221303541
 20
517.5040848922358
 30
0.0
  0
POINT
  5
40C8
330
3CE9
100
AcDbEntity
  8
Defpoints
 62
     0
440
 16777216
100
AcDbPoint
 10
1165.542946149483
 20
581.5967652102604
 30
0.0
  0
ENDBLK
  5
3CF0
330
3CE9
100
AcDbEntity
  8
0
100
AcDbBlockEnd
  0
BLOCK
  5
3E57
330
3E4D
100
AcDbEntity
  8
0
100
AcDbBlockBegin
  2
*D20
 70
     1
 10
0.0
 20
0.0
 30
0.0
  3
*D20
  1

  0
LINE
  5
406E
330
3E4D
100
AcDbEntity
  8
图层3
 62
     0
440
 16777216
370
    -2
100
AcDbLine
 10
567.2108193588146
 20
661.1767086539567
 30
0.0
 11
567.2108193588146
 21
387.9578838098396
 31
0.0
  0
LINE
  5
406F
330
3E4D
100
AcDbEntity
  8
图层3
 62
     0
440
 16777216
370
    -2
100
AcDbLine
 10
904.7108193588146
 20
661.1767086539544
 30
0.0
 11
904.7108193588146
 21
387.9578838098396
 31
0.0
  0
LINE
  5
4070
330
3E4D
100
AcDbEntity
  8
图层3
 62
     0
440
 16777216
370
    -2
100
AcDbLine
 10
580.2108193588146
 20
389.2078838098396
 30
0.0
 11
891.7108193588147
 21
389.2078838098396
 31
0.0
  0
SOLID
  5
4071
330
3E4D
100
AcDbEntity
  8
图层3
 62
     0
440
 16777216
100
AcDbTrace
 10
580.2108193588146
 20
391.3745504765063
 30
0.0
 11
580.2108193588146
 21
387.0412171431729
 31
0.0
 12
567.2108193588146
 22
389.2078838098396
 32
0.0
 13
567.2108193588146
 23
389.2078838098396
 33
0.0
  0
SOLID
  5
4072
330
3E4D
100
AcDbEntity
  8
图层3
 62
     0
440
 16777216
100
AcDbTrace
 10
891.7108193588147
 20
391.3745504765063
 30
0.0
 11
891.7108193588147
 21
387.0412171431729
 31
0.0
 12
904.7108193588146
 22
389.2078838098396
 32
0.0
 13
904.7108193588146
 23
389.2078838098396
 33
0.0
  0
MTEXT
  5
4073
330
3E4D
100
AcDbEntity
  8
图层3
 62
     0
440
 16777216
100
AcDbMText
 10
735.9608193588146
 20
401.7078838098395
 30
0.0
 40
13.0
 41
0.0
 71
     5
 72
     1
  1
337.5 [13 1/4]
 73
     1
 44
1.0
  0
POINT
  5
4074
330
3E4D
100
AcDbEntity
  8
Defpoints
 62
     0
440
 16777216
100
AcDbPoint
 10
567.2108193588146
 20
665.1767086539567
 30
0.0
  0
POINT
  5
4075
330
3E4D
100
AcDbEntity
  8
Defpoints
 62
     0
440
 16777216
100
AcDbPoint
 10
904.7108193588146
 20
665.1767086539544
 30
0.0
  0
POINT
  5
4076
330
3E4D
100
AcDbEntity
  8
Defpoints
 62
     0
440
 16777216
100
AcDbPoint
 10
904.7108193588146
 20
389.2078838098396
 30
0.0
  0
ENDBLK
  5
3E58
330
3E4D
100
AcDbEntity
  8
0
100
AcDbBlockEnd
  0
BLOCK
  5
3E74
330
3E65
100
AcDbEntity
  8
0
100
AcDbBlockBegin
  2
*D21
 70
     1
 10
0.0
 20
0.0
 30
0.0
  3
*D21
  1

  0
LINE
  5
4077
330
3E65
100
AcDbEntity
  8
图层3
 62
     0
440
 16777216
370
    -2
100
AcDbLine
 10
904.7108193588146
 20
661.1767086539544
 30
0.0
 11
904.7108193588146
 21
387.9578838098396
 31
0.0
  0
LINE
  5
4078
330
3E65
100
AcDbEntity
  8
图层3
 62
     0
440
 16777216
370
    -2
100
AcDbLine
 10
934.7108193588141
 20
661.1767086539567
 30
0.0
 11
934.7108193588141
 21
387.9578838098396
 31
0.0
  0
LINE
  5
4079
330
3E65
100
AcDbEntity
  8
图层3
 62
     0
440
 16777216
370
    -2
100
AcDbLine
 10
891.7108193588147
 20
389.2078838098396
 30
0.0
 11
878.7108193588146
 21
389.2078838098396
 31
0.0
  0
LINE
  5
407A
330
3E65
100
AcDbEntity
  8
图层3
 62
     0
440
 16777216
370
    -2
100
AcDbLine
 10
947.7108193588142
 20
389.2078838098396
 30
0.0
 11
960.7108193588143
 21
389.2078838098396
 31
0.0
  0
LINE
  5
407B
330
3E65
100
AcDbEntity
  8
图层3
 62
     0
440
 16777216
370
    -2
100
AcDbLine
 10
919.7108193588144
 20
389.2078838098396
 30
0.0
 11
919.7108193588144
 21
358.9578838098396
 31
0.0
  0
LINE
  5
407C
330
3E65
100
AcDbEntity
  8
图层3
 62
     0
440
 16777216
370
    -2
100
AcDbLine
 10
919.7108193588144
 20
358.9578838098396
 30
0.0
 11
1037.877486025481
 21
358.9578838098396
 31
0.0
  0
MTEXT
  5
407D
330
3E65
100
AcDbEntity
  8
图层3
 62
     0
440
 16777216
100
AcDbMText
 10
978.7941526921478
 20
371.4578838098396
 30
0.0
 40
13.0
 41
0.0
 71
     5
 72
     1
  1
30 [1 1/8]
 73
     1
 44
1.0
  0
LINE
  5
407E
330
3E65
100
AcDbEntity
  8
图层3
 62
     0
440
 16777216
370
    -2
100
AcDbLine
 10
904.7108193588146
 20
389.2078838098396
 30
0.0
 11
934.7108193588141
 21
389.2078838098396
 31
0.0
  0
LINE
  5
407F
330
3E65
100
AcDbEntity
  8
图层3
 62
     0
440
 16777216
370
    -2
100
AcDbLine
 10
904.7108193588146
 20
389.2078838098396
 30
0.0
 11
934.7108193588141
 21
389.2078838098396
 31
0.0
  0
SOLID
  5
4080
330
3E65
100
AcDbEntity
  8
图层3
 62
     0
440
 16777216
100
AcDbTrace
 10
891.7108193588147
 20
391.3745504765063
 30
0.0
 11
891.7108193588147
 21
387.0412171431729
 31
0.0
 12
904.7108193588146
 22
389.2078838098396
 32
0.0
 13
904.7108193588146
 23
389.2078838098396
 33
0.0
  0
SOLID
  5
4081
330
3E65
100
AcDbEntity
  8
图层3
 62
     0
440
 16777216
100
AcDbTrace
 10
947.7108193588142
 20
391.3745504765063
 30
0.0
 11
947.7108193588142
 21
387.0412171431729
 31
0.0
 12
934.7108193588141
 22
389.2078838098396
 32
0.0
 13
934.7108193588141
 23
389.2078838098396
 33
0.0
  0
POINT
  5
4082
330
3E65
100
AcDbEntity
  8
Defpoints
 62
     0
440
 16777216
100
AcDbPoint
 10
904.7108193588146
 20
665.1767086539544
 30
0.0
  0
POINT
  5
4083
330
3E65
100
AcDbEntity
  8
Defpoints
 62
     0
440
 16777216
100
AcDbPoint
 10
934.7108193588141
 20
665.1767086539567
 30
0.0
  0
POINT
  5
4084
330
3E65
100
AcDbEntity
  8
Defpoints
 62
     0
440
 16777216
100
AcDbPoint
 10
934.7108193588141
 20
389.2078838098396
 30
0.0
  0
ENDBLK
  5
3E75
330
3E65
100
AcDbEntity
  8
0
100
AcDbBlockEnd
  0
BLOCK
  5
3E91
330
3E87
100
AcDbEntity
  8
0
100
AcDbBlockBegin
  2
*D22
 70
     1
 10
0.0
 20
0.0
 30
0.0
  3
*D22
  1

  0
LINE
  5
4085
330
3E87
100
AcDbEntity
  8
图层3
 62
     0
440
 16777216
370
    -2
100
AcDbLine
 10
934.7108193588141
 20
661.1767086539567
 30
0.0
 11
934.7108193588141
 21
387.9578838098396
 31
0.0
  0
LINE
  5
4086
330
3E87
100
AcDbEntity
  8
图层3
 62
     0
440
 16777216
370
    -2
100
AcDbLine
 10
1272.210819358814
 20
661.1767086539544
 30
0.0
 11
1272.210819358814
 21
387.9578838098396
 31
0.0
  0
LINE
  5
4087
330
3E87
100
AcDbEntity
  8
图层3
 62
     0
440
 16777216
370
    -2
100
AcDbLine
 10
947.7108193588142
 20
389.2078838098396
 30
0.0
 11
1259.210819358814
 21
389.2078838098396
 31
0.0
  0
SOLID
  5
4088
330
3E87
100
AcDbEntity
  8
图层3
 62
     0
440
 16777216
100
AcDbTrace
 10
947.7108193588142
 20
391.3745504765063
 30
0.0
 11
947.7108193588142
 21
387.0412171431729
 31
0.0
 12
934.7108193588141
 22
389.2078838098396
 32
0.0
 13
934.7108193588141
 23
389.2078838098396
 33
0.0
  0
SOLID
  5
4089
330
3E87
100
AcDbEntity
  8
图层3
 62
     0
440
 16777216
100
AcDbTrace
 10
1259.210819358814
 20
391.3745504765063
 30
0.0
 11
1259.210819358814
 21
387.0412171431729
 31
0.0
 12
1272.210819358814
 22
389.2078838098396
 32
0.0
 13
1272.210819358814
 23
389.2078838098396
 33
0.0
  0
MTEXT
  5
408A
330
3E87
100
AcDbEntity
  8
图层3
 62
     0
440
 16777216
100
AcDbMText
 10
1103.460819358814
 20
401.7078838098395
 30
0.0
 40
13.0
 41
0.0
 71
     5
 72
     1
  1
337.5 [13 1/4]
 73
     1
 44
1.0
  0
POINT
  5
408B
330
3E87
100
AcDbEntity
  8
Defpoints
 62
     0
440
 16777216
100
AcDbPoint
 10
934.7108193588141
 20
665.1767086539567
 30
0.0
  0
POINT
  5
408C
330
3E87
100
AcDbEntity
  8
Defpoints
 62
     0
440
 16777216
100
AcDbPoint
 10
1272.210819358814
 20
665.1767086539544
 30
0.0
  0
POINT
  5
408D
330
3E87
100
AcDbEntity
  8
Defpoints
 62
     0
440
 16777216
100
AcDbPoint
 10
1272.210819358814
 20
389.2078838098396
 30
0.0
  0
ENDBLK
  5
3E92
330
3E87
100
AcDbEntity
  8
0
100
AcDbBlockEnd
  0
BLOCK
  5
3EA9
330
3E9F
100
AcDbEntity
  8
0
100
AcDbBlockBegin
  2
*D23
 70
     1
 10
0.0
 20
0.0
 30
0.0
  3
*D23
  1

  0
LINE
  5
408E
330
3E9F
100
AcDbEntity
  8
图层3
 62
     0
440
 16777216
370
    -2
100
AcDbLine
 10
532.2108193588142
 20
471.6767086539569
 30
0.0
 11
532.2108193588142
 21
313.197465324235
 31
0.0
  0
LINE
  5
408F
330
3E9F
100
AcDbEntity
  8
图层3
 62
     0
440
 16777216
370
    -2
100
AcDbLine
 10
1307.210819358815
 20
471.6767086539567
 30
0.0
 11
1307.210819358815
 21
313.197465324235
 31
0.0
  0
LINE
  5
4090
330
3E9F
100
AcDbEntity
  8
图层3
 62
     0
440
 16777216
370
    -2
100
AcDbLine
 10
545.2108193588143
 20
314.4474653242351
 30
0.0
 11
1294.210819358815
 21
314.4474653242351
 31
0.0
  0
SOLID
  5
4091
330
3E9F
100
AcDbEntity
  8
图层3
 62
     0
440
 16777216
100
AcDbTrace
 10
545.2108193588143
 20
316.6141319909018
 30
0.0
 11
545.2108193588143
 21
312.2807986575684
 31
0.0
 12
532.2108193588142
 22
314.4474653242351
 32
0.0
 13
532.2108193588142
 23
314.4474653242351
 33
0.0
  0
SOLID
  5
4092
330
3E9F
100
AcDbEntity
  8
图层3
 62
     0
440
 16777216
100
AcDbTrace
 10
1294.210819358815
 20
316.6141319909018
 30
0.0
 11
1294.210819358815
 21
312.2807986575684
 31
0.0
 12
1307.210819358815
 22
314.4474653242351
 32
0.0
 13
1307.210819358815
 23
314.4474653242351
 33
0.0
  0
MTEXT
  5
4093
330
3E9F
100
AcDbEntity
  8
图层3
 62
     0
440
 16777216
100
AcDbMText
 10
919.7108193588144
 20
326.9474653242351
 30
0.0
 40
13.0
 41
0.0
 71
     5
 72
     1
  1
775 [30 1/2]
 73
     1
 44
1.0
  0
POINT
  5
4094
330
3E9F
100
AcDbEntity
  8
Defpoints
 62
     0
440
 16777216
100
AcDbPoint
 10
532.2108193588142
 20
475.6767086539569
 30
0.0
  0
POINT
  5
4095
330
3E9F
100
AcDbEntity
  8
Defpoints
 62
     0
440
 16777216
100
AcDbPoint
 10
1307.210819358815
 20
475.6767086539567
 30
0.0
  0
POINT
  5
4096
330
3E9F
100
AcDbEntity
  8
Defpoints
 62
     0
440
 16777216
100
AcDbPoint
 10
1307.210819358815
 20
314.4474653242351
 30
0.0
  0
ENDBLK
  5
3EAA
330
3E9F
100
AcDbEntity
  8
0
100
AcDbBlockEnd
  0
BLOCK
  5
3EF0
330
3EEA
100
AcDbEntity
  8
0
100
AcDbBlockBegin
  2
*D24
 70
     1
 10
0.0
 20
0.0
 30
0.0
  3
*D24
  1

  0
LINE
  5
43C4
330
3EEA
100
AcDbEntity
  8
图层3
 62
     0
440
 16777216
370
    -2
100
AcDbLine
 10
1056.065637985651
 20
813.0376231335809
 30
0.0
 11
1229.062061031423
 21
813.037623133581
 31
0.0
  0
LINE
  5
43C5
330
3EEA
100
AcDbEntity
  8
图层3
 62
     0
440
 16777216
370
    -2
100
AcDbLine
 10
1229.062061031423
 20
813.037623133581
 30
0.0
 11
1245.246657424917
 21
829.7328320882904
 31
0.0
  0
MTEXT
  5
43C6
330
3EEA
100
AcDbEntity
  8
图层3
 62
     0
440
 16777216
100
AcDbMText
 10
1128.648971318984
 20
825.5376231335812
 30
0.0
 40
13.0
 41
0.0
 71
     5
 72
     1
  1
R105 [R4 1/8]
 73
     1
 44
1.0
  0
SOLID
  5
43C7
330
3EEA
100
AcDbEntity
  8
图层3
 62
     0
440
 16777216
100
AcDbTrace
 10
1243.690987851282
 20
831.2409224775285
 30
0.0
 11
1246.802326998551
 21
828.2247416990525
 31
0.0
 12
1254.295199760344
 22
839.0668495300984
 32
0.0
 13
1254.295199760344
 23
839.0668495300984
 33
0.0
  0
POINT
  5
43C8
330
3EEA
100
AcDbEntity
  8
Defpoints
 62
     0
440
 16777216
100
AcDbPoint
 10
1254.295199760344
 20
839.0668495300984
 30
0.0
  0
POINT
  5
43C9
330
3EEA
100
AcDbEntity
  8
Defpoints
 62
     0
440
 16777216
100
AcDbPoint
 10
1181.210819358815
 20
763.6767086539574
 30
0.0
  0
ENDBLK
  5
3EF1
330
3EEA
100
AcDbEntity
  8
0
100
AcDbBlockEnd
  0
BLOCK
  5
4292
330
4288
100
AcDbEntity
  8
0
100
AcDbBlockBegin
  2
*D26
 70
     1
 10
0.0
 20
0.0
 30
0.0
  3
*D26
  1

  0
ARC
  5
4295
330
4288
100
AcDbEntity
  8
图层3
 62
     0
440
 16777216
370
    -2
100
AcDbCircle
 10
1871.916945472745
 20
854.6767086539567
 30
0.0
 40
91.26901282216328
100
AcDbArc
 50
191.167900534892
 51
261.8320994651081
  0
SOLID
  5
4296
330
4288
100
AcDbEntity
  8
图层3
 62
     0
440
 16777216
100
AcDbTrace
 10
1780.226091685301
 20
836.7320918879665
 30
0.0
 11
1784.526346615187
 21
837.2664937178347
 31
0.0
 12
1780.773013660639
 22
849.9000575925593
 32
0.0
 13
1780.773013660639
 23
849.9000575925593
 33
0.0
  0
SOLID
  5
4297
330
4288
100
AcDbEntity
  8
图层3
 62
     0
440
 16777216
100
AcDbTrace
 10
1859.104261188963
 20
766.4946953278329
 30
0.0
 11
1858.795649692073
 21
762.1723653170906
 31
0.0
 12
1871.916945472746
 22
763.4076958317934
 32
0.0
 13
1871.916945472746
 23
763.4076958317934
 33
0.0
  0
MTEXT
  5
4298
102
{ACAD_XDICTIONARY
360
44C4
102
}
330
4288
100
AcDbEntity
  8
图层3
 62
     0
440
 16777216
100
AcDbMText
 10
1817.695935073729
 20
797.5396855228212
 30
0.0
 40
13.0
 41
0.0
 71
     5
 72
     1
  1
87\M+5A1E3
 11
0.7253743710122884
 21
-0.6883545756937533
 31
0.0
 73
     1
 44
1.0
  0
POINT
  5
4299
330
4288
100
AcDbEntity
  8
Defpoints
 62
     0
440
 16777216
100
AcDbPoint
 10
1794.516432910833
 20
806.3115005319451
 30
0.0
  0
POINT
  5
429A
330
4288
100
AcDbEntity
  8
Defpoints
 62
     0
440
 16777216
100
AcDbPoint
 10
1871.916945472746
 20
854.6767086539569
 30
0.0
  0
POINT
  5
429B
330
4288
100
AcDbEntity
  8
Defpoints
 62
     0
440
 16777216
100
AcDbPoint
 10
1871.916945472745
 20
870.6767086539569
 30
0.0
  0
POINT
  5
429C
330
4288
100
AcDbEntity
  8
Defpoints
 62
     0
440
 16777216
100
AcDbPoint
 10
1871.916945472746
 20
670.7729753126702
 30
0.0
  0
POINT
  5
429D
330
4288
100
AcDbEntity
  8
Defpoints
 62
     0
440
 16777216
100
AcDbPoint
 10
1708.19730045973
 20
846.0965256338168
 30
0.0
  0
ENDBLK
  5
4293
330
4288
100
AcDbEntity
  8
0
100
AcDbBlockEnd
  0
BLOCK
  5
42B2
330
42A8
100
AcDbEntity
  8
0
100
AcDbBlockBegin
  2
*D27
 70
     1
 10
0.0
 20
0.0
 30
0.0
  3
*D27
  1

  0
LINE
  5
4302
330
42A8
100
AcDbEntity
  8
图层3
 62
     0
440
 16777216
370
    -2
100
AcDbLine
 10
1668.916945472745
 20
738.6767086539568
 30
0.0
 11
1668.916945472745
 21
735.9277777757078
 31
0.0
  0
LINE
  5
4303
330
42A8
100
AcDbEntity
  8
图层3
 62
     0
440
 16777216
370
    -2
100
AcDbLine
 10
1871.916945472745
 20
738.6767086539568
 30
0.0
 11
1871.916945472745
 21
735.9277777757078
 31
0.0
  0
LINE
  5
4304
330
42A8
100
AcDbEntity
  8
图层3
 62
     0
440
 16777216
370
    -2
100
AcDbLine
 10
1681.916945472745
 20
734.6777777757079
 30
0.0
 11
1858.916945472745
 21
734.6777777757079
 31
0.0
  0
SOLID
  5
4305
330
42A8
100
AcDbEntity
  8
图层3
 62
     0
440
 16777216
100
AcDbTrace
 10
1681.916945472745
 20
736.8444444423745
 30
0.0
 11
1681.916945472745
 21
732.5111111090413
 31
0.0
 12
1668.916945472745
 22
734.6777777757079
 32
0.0
 13
1668.916945472745
 23
734.6777777757079
 33
0.0
  0
SOLID
  5
4306
330
42A8
100
AcDbEntity
  8
图层3
 62
     0
440
 16777216
100
AcDbTrace
 10
1858.916945472745
 20
736.8444444423745
 30
0.0
 11
1858.916945472745
 21
732.5111111090413
 31
0.0
 12
1871.916945472745
 22
734.6777777757079
 32
0.0
 13
1871.916945472745
 23
734.6777777757079
 33
0.0
  0
MTEXT
  5
4307
330
42A8
100
AcDbEntity
  8
图层3
 62
     0
440
 16777216
100
AcDbMText
 10
1801.556116037192
 20
747.1777777757079
 30
0.0
 40
13.0
 41
0.0
 71
     5
 72
     1
  1
203 [8]
 73
     1
 44
1.0
  0
POINT
  5
4308
330
42A8
100
AcDbEntity
  8
Defpoints
 62
     0
440
 16777216
100
AcDbPoint
 10
1668.916945472745
 20
734.6767086539568
 30
0.0
  0
POINT
  5
4309
330
42A8
100
AcDbEntity
  8
Defpoints
 62
     0
440
 16777216
100
AcDbPoint
 10
1871.916945472745
 20
734.6767086539568
 30
0.0
  0
POINT
  5
430A
330
42A8
100
AcDbEntity
  8
Defpoints
 62
     0
440
 16777216
100
AcDbPoint
 10
1871.916945472745
 20
734.6777777757079
 30
0.0
  0
ENDBLK
  5
42B3
330
42A8
100
AcDbEntity
  8
0
100
AcDbBlockEnd
  0
BLOCK
  5
4333
330
4327
100
AcDbEntity
  8
0
100
AcDbBlockBegin
  2
*D29
 70
     1
 10
0.0
 20
0.0
 30
0.0
  3
*D29
  1

  0
LINE
  5
4365
330
4327
100
AcDbEntity
  8
图层3
 62
     0
440
 16777216
370
    -2
100
AcDbLine
 10
945.7108193588146
 20
906.1767086539566
 30
0.0
 11
977.3170284791724
 21
906.1767086539566
 31
0.0
  0
LINE
  5
4366
330
4327
100
AcDbEntity
  8
图层3
 62
     0
440
 16777216
370
    -2
100
AcDbLine
 10
945.7108193588146
 20
960.6767086539571
 30
0.0
 11
977.3170284791724
 21
960.6767086539571
 31
0.0
  0
LINE
  5
4367
330
4327
100
AcDbEntity
  8
图层3
 62
     0
440
 16777216
370
    -2
100
AcDbLine
 10
976.0670284791725
 20
919.1767086539567
 30
0.0
 11
976.0670284791725
 21
947.676708653957
 31
0.0
  0
LINE
  5
4368
330
4327
100
AcDbEntity
  8
图层3
 62
     0
440
 16777216
370
    -2
100
AcDbLine
 10
976.0670284791725
 20
960.6767086539571
 30
0.0
 11
976.0670284791725
 21
988.2255007805232
 31
0.0
  0
LINE
  5
4369
330
4327
100
AcDbEntity
  8
图层3
 62
     0
440
 16777216
370
    -2
100
AcDbLine
 10
976.0670284791725
 20
988.2255007805232
 30
0.0
 11
1112.067028479172
 21
988.2255007805232
 31
0.0
  0
SOLID
  5
436A
330
4327
100
AcDbEntity
  8
图层3
 62
     0
440
 16777216
100
AcDbTrace
 10
973.9003618125058
 20
919.1767086539567
 30
0.0
 11
978.233695145839
 21
919.1767086539567
 31
0.0
 12
976.0670284791725
 22
906.1767086539566
 32
0.0
 13
976.0670284791725
 23
906.1767086539566
 33
0.0
  0
SOLID
  5
436B
330
4327
100
AcDbEntity
  8
图层3
 62
     0
440
 16777216
100
AcDbTrace
 10
973.9003618125058
 20
947.676708653957
 30
0.0
 11
978.233695145839
 21
947.676708653957
 31
0.0
 12
976.0670284791725
 22
960.6767086539571
 32
0.0
 13
976.0670284791725
 23
960.6767086539571
 33
0.0
  0
MTEXT
  5
436C
330
4327
100
AcDbEntity
  8
图层3
 62
     0
440
 16777216
100
AcDbMText
 10
1047.067028479172
 20
1000.725500780523
 30
0.0
 40
13.0
 41
0.0
 71
     5
 72
     1
  1
54.5 [2 1/8]
 73
     1
 44
1.0
  0
POINT
  5
436D
330
4327
100
AcDbEntity
  8
Defpoints
 62
     0
440
 16777216
100
AcDbPoint
 10
941.7108193588147
 20
906.1767086539566
 30
0.0
  0
POINT
  5
436E
330
4327
100
AcDbEntity
  8
Defpoints
 62
     0
440
 16777216
100
AcDbPoint
 10
941.7108193588147
 20
960.6767086539571
 30
0.0
  0
POINT
  5
436F
330
4327
100
AcDbEntity
  8
Defpoints
 62
     0
440
 16777216
100
AcDbPoint
 10
976.0670284791725
 20
960.6767086539571
 30
0.0
  0
ENDBLK
  5
4334
330
4327
100
AcDbEntity
  8
0
100
AcDbBlockEnd
  0
BLOCK
  5
434D
330
4343
100
AcDbEntity
  8
0
100
AcDbBlockBegin
  2
*D30
 70
     1
 10
0.0
 20
0.0
 30
0.0
  3
*D30
  1

  0
LINE
  5
4350
330
4343
100
AcDbEntity
  8
图层3
 62
     0
440
 16777216
370
    -2
100
AcDbLine
 10
685.3346984113686
 20
993.682585710049
 30
0.0
 11
847.3346984113689
 21
993.682585710049
 31
0.0
  0
LINE
  5
4351
330
4343
100
AcDbEntity
  8
图层3
 62
     0
440
 16777216
370
    -2
100
AcDbLine
 10
847.3346984113689
 20
993.682585710049
 30
0.0
 11
900.1124490416634
 21
929.8719904820295
 31
0.0
  0
LINE
  5
4352
330
4343
100
AcDbEntity
  8
图层3
 62
     0
440
 16777216
370
    -2
100
AcDbLine
 10
939.309189675966
 20
882.4814268258839
 30
0.0
 11
947.5946795661439
 21
872.4639093050726
 31
0.0
  0
MTEXT
  5
4353
102
{ACAD_XDICTIONARY
360
44C8
102
}
330
4343
100
AcDbEntity
  8
图层3
 62
     0
440
 16777216
100
AcDbMText
 10
763.3346984113687
 20
1006.182585710049
 30
0.0
 40
13.0
 41
0.0
 71
     5
 72
     1
  1
\U+220535.5 [\U+22051 3/8]
 73
     1
 44
1.0
  0
LINE
  5
4354
330
4343
100
AcDbEntity
  8
图层3
 62
     0
440
 16777216
370
    -2
100
AcDbLine
 10
931.0236997857883
 20
892.4989443466952
 30
0.0
 11
908.3979389318413
 21
919.854472961218
 31
0.0
  0
SOLID
  5
4355
330
4343
100
AcDbEntity
  8
图层3
 62
     0
440
 16777216
100
AcDbTrace
 10
940.9787759294346
 20
883.8623418075803
 30
0.0
 11
937.6396034224974
 21
881.1005118441876
 31
0.0
 12
931.0236997857883
 22
892.4989443466952
 32
0.0
 13
931.0236997857883
 23
892.4989443466952
 33
0.0
  0
SOLID
  5
4356
330
4343
100
AcDbEntity
  8
图层3
 62
     0
440
 16777216
100
AcDbTrace
 10
901.782035295132
 20
931.2529054637257
 30
0.0
 11
898.4428627881948
 21
928.4910755003332
 31
0.0
 12
908.3979389318413
 22
919.854472961218
 32
0.0
 13
908.3979389318413
 23
919.854472961218
 33
0.0
  0
POINT
  5
4357
330
4343
100
AcDbEntity
  8
Defpoints
 62
     0
440
 16777216
100
AcDbPoint
 10
908.3979389318413
 20
919.854472961218
 30
0.0
  0
POINT
  5
4358
330
4343
100
AcDbEntity
  8
Defpoints
 62
     0
440
 16777216
100
AcDbPoint
 10
931.0236997857883
 20
892.4989443466952
 30
0.0
  0
ENDBLK
  5
434E
330
4343
100
AcDbEntity
  8
0
100
AcDbBlockEnd
  0
BLOCK
  5
43D9
330
43D8
100
AcDbEntity
  8
0
100
AcDbBlockBegin
  2
*D32
 70
     1
 10
0.0
 20
0.0
 30
0.0
  3
*D32
  1

  0
LINE
  5
43E5
330
43D8
100
AcDbEntity
  8
图层3
 62
     0
440
 16777216
370
    -2
100
AcDbLine
 10
780.4259129840638
 20
756.3544739670071
 30
0.0
 11
780.4259129840638
 21
522.0585645419815
 31
0.0
  0
LINE
  5
43E6
330
43D8
100
AcDbEntity
  8
图层3
 62
     0
440
 16777216
370
    -2
100
AcDbLine
 10
1475.425912984064
 20
756.3544739669902
 30
0.0
 11
1475.425912984064
 21
522.0585645419815
 31
0.0
  0
LINE
  5
43E7
330
43D8
100
AcDbEntity
  8
图层3
 62
     0
440
 16777216
370
    -2
100
AcDbLine
 10
793.4259129840638
 20
523.3085645419814
 30
0.0
 11
1462.425912984063
 21
523.3085645419814
 31
0.0
  0
SOLID
  5
43E8
330
43D8
100
AcDbEntity
  8
图层3
 62
     0
440
 16777216
100
AcDbTrace
 10
793.4259129840638
 20
525.475231208648
 30
0.0
 11
793.4259129840638
 21
521.1418978753148
 31
0.0
 12
780.4259129840638
 22
523.3085645419814
 32
0.0
 13
780.4259129840638
 23
523.3085645419814
 33
0.0
  0
SOLID
  5
43E9
330
43D8
100
AcDbEntity
  8
图层3
 62
     0
440
 16777216
100
AcDbTrace
 10
1462.425912984063
 20
525.475231208648
 30
0.0
 11
1462.425912984063
 21
521.1418978753148
 31
0.0
 12
1475.425912984064
 22
523.3085645419814
 32
0.0
 13
1475.425912984064
 23
523.3085645419814
 33
0.0
  0
MTEXT
  5
43EA
330
43D8
100
AcDbEntity
  8
图层3
 62
     0
440
 16777216
100
AcDbMText
 10
1127.925912984064
 20
535.8085645419814
 30
0.0
 40
13.0
 41
0.0
 71
     5
 72
     1
  1
695 [27 3/8]
 73
     1
 44
1.0
  0
POINT
  5
43EB
330
43D8
100
AcDbEntity
  8
Defpoints
 62
     0
440
 16777216
100
AcDbPoint
 10
780.4259129840638
 20
760.3544739670071
 30
0.0
  0
POINT
  5
43EC
330
43D8
100
AcDbEntity
  8
Defpoints
 62
     0
440
 16777216
100
AcDbPoint
 10
1475.425912984064
 20
760.3544739669902
 30
0.0
  0
POINT
  5
43ED
330
43D8
100
AcDbEntity
  8
Defpoints
 62
     0
440
 16777216
100
AcDbPoint
 10
1475.425912984064
 20
523.3085645419814
 30
0.0
  0
ENDBLK
  5
43DA
330
43D8
100
AcDbEntity
  8
0
100
AcDbBlockEnd
  0
BLOCK
  5
43F1
330
43F0
100
AcDbEntity
  8
0
100
AcDbBlockBegin
  2
*D33
 70
     1
 10
0.0
 20
0.0
 30
0.0
  3
*D33
  1

  0
LINE
  5
43FD
330
43F0
100
AcDbEntity
  8
图层3
 62
     0
440
 16777216
370
    -2
100
AcDbLine
 10
775.4259129840638
 20
756.3544739670407
 30
0.0
 11
775.4259129840638
 21
485.1088216496473
 31
0.0
  0
LINE
  5
43FE
330
43F0
100
AcDbEntity
  8
图层3
 62
     0
440
 16777216
370
    -2
100
AcDbLine
 10
1480.425912984063
 20
756.3544739670042
 30
0.0
 11
1480.425912984063
 21
485.1088216496473
 31
0.0
  0
LINE
  5
43FF
330
43F0
100
AcDbEntity
  8
图层3
 62
     0
440
 16777216
370
    -2
100
AcDbLine
 10
788.4259129840638
 20
486.3588216496473
 30
0.0
 11
1467.425912984063
 21
486.3588216496473
 31
0.0
  0
SOLID
  5
4400
330
43F0
100
AcDbEntity
  8
图层3
 62
     0
440
 16777216
100
AcDbTrace
 10
788.4259129840638
 20
488.525488316314
 30
0.0
 11
788.4259129840638
 21
484.1921549829806
 31
0.0
 12
775.4259129840638
 22
486.3588216496473
 32
0.0
 13
775.4259129840638
 23
486.3588216496473
 33
0.0
  0
SOLID
  5
4401
330
43F0
100
AcDbEntity
  8
图层3
 62
     0
440
 16777216
100
AcDbTrace
 10
1467.425912984063
 20
488.525488316314
 30
0.0
 11
1467.425912984063
 21
484.1921549829806
 31
0.0
 12
1480.425912984063
 22
486.3588216496473
 32
0.0
 13
1480.425912984063
 23
486.3588216496473
 33
0.0
  0
MTEXT
  5
4402
330
43F0
100
AcDbEntity
  8
图层3
 62
     0
440
 16777216
100
AcDbMText
 10
1127.925912984063
 20
498.8588216496473
 30
0.0
 40
13.0
 41
0.0
 71
     5
 72
     1
  1
705 [27 3/4]
 73
     1
 44
1.0
  0
POINT
  5
4403
330
43F0
100
AcDbEntity
  8
Defpoints
 62
     0
440
 16777216
100
AcDbPoint
 10
775.4259129840638
 20
760.3544739670407
 30
0.0
  0
POINT
  5
4404
330
43F0
100
AcDbEntity
  8
Defpoints
 62
     0
440
 16777216
100
AcDbPoint
 10
1480.425912984063
 20
760.3544739670042
 30
0.0
  0
POINT
  5
4405
330
43F0
100
AcDbEntity
  8
Defpoints
 62
     0
440
 16777216
100
AcDbPoint
 10
1480.425912984063
 20
486.3588216496473
 30
0.0
  0
ENDBLK
  5
43F2
330
43F0
100
AcDbEntity
  8
0
100
AcDbBlockEnd
  0
BLOCK
  5
4409
330
4408
100
AcDbEntity
  8
0
100
AcDbBlockBegin
  2
*D34
 70
     1
 10
0.0
 20
0.0
 30
0.0
  3
*D34
  1

  0
LINE
  5
4415
330
4408
100
AcDbEntity
  8
图层3
 62
     0
440
 16777216
370
    -2
100
AcDbLine
 10
770.4259129840639
 20
756.3544739670415
 30
0.0
 11
770.4259129840639
 21
447.8962419118752
 31
0.0
  0
LINE
  5
4416
330
4408
100
AcDbEntity
  8
图层3
 62
     0
440
 16777216
370
    -2
100
AcDbLine
 10
1485.425912984063
 20
756.3544739670037
 30
0.0
 11
1485.425912984063
 21
447.8962419118752
 31
0.0
  0
LINE
  5
4417
330
4408
100
AcDbEntity
  8
图层3
 62
     0
440
 16777216
370
    -2
100
AcDbLine
 10
783.4259129840638
 20
449.1462419118752
 30
0.0
 11
1472.425912984063
 21
449.1462419118752
 31
0.0
  0
SOLID
  5
4418
330
4408
100
AcDbEntity
  8
图层3
 62
     0
440
 16777216
100
AcDbTrace
 10
783.4259129840638
 20
451.3129085785418
 30
0.0
 11
783.4259129840638
 21
446.9795752452085
 31
0.0
 12
770.4259129840639
 22
449.1462419118752
 32
0.0
 13
770.4259129840639
 23
449.1462419118752
 33
0.0
  0
SOLID
  5
4419
330
4408
100
AcDbEntity
  8
图层3
 62
     0
440
 16777216
100
AcDbTrace
 10
1472.425912984063
 20
451.3129085785418
 30
0.0
 11
1472.425912984063
 21
446.9795752452085
 31
0.0
 12
1485.425912984063
 22
449.1462419118752
 32
0.0
 13
1485.425912984063
 23
449.1462419118752
 33
0.0
  0
MTEXT
  5
441A
330
4408
100
AcDbEntity
  8
图层3
 62
     0
440
 16777216
100
AcDbMText
 10
1127.925912984063
 20
461.6462419118752
 30
0.0
 40
13.0
 41
0.0
 71
     5
 72
     1
  1
715 [28 1/8]
 73
     1
 44
1.0
  0
POINT
  5
441B
330
4408
100
AcDbEntity
  8
Defpoints
 62
     0
440
 16777216
100
AcDbPoint
 10
770.4259129840639
 20
760.3544739670415
 30
0.0
  0
POINT
  5
441C
330
4408
100
AcDbEntity
  8
Defpoints
 62
     0
440
 16777216
100
AcDbPoint
 10
1485.425912984063
 20
760.3544739670037
 30
0.0
  0
POINT
  5
441D
330
4408
100
AcDbEntity
  8
Defpoints
 62
     0
440
 16777216
100
AcDbPoint
 10
1485.425912984063
 20
449.1462419118752
 30
0.0
  0
ENDBLK
  5
440A
330
4408
100
AcDbEntity
  8
0
100
AcDbBlockEnd
  0
BLOCK
  5
4421
330
4420
100
AcDbEntity
  8
0
100
AcDbBlockBegin
  2
*D35
 70
     1
 10
0.0
 20
0.0
 30
0.0
  3
*D35
  1

  0
LINE
  5
442D
330
4420
100
AcDbEntity
  8
图层3
 62
     0
440
 16777216
370
    -2
100
AcDbLine
 10
1123.92591298406
 20
576.8206431430906
 30
0.0
 11
740.894949433387
 21
576.8206431430904
 31
0.0
  0
LINE
  5
442E
330
4420
100
AcDbEntity
  8
图层3
 62
     0
440
 16777216
370
    -2
100
AcDbLine
 10
1123.92591298406
 20
943.8883047909461
 30
0.0
 11
740.8949494333869
 21
943.8883047909461
 31
0.0
  0
LINE
  5
442F
330
4420
100
AcDbEntity
  8
图层3
 62
     0
440
 16777216
370
    -2
100
AcDbLine
 10
742.144949433387
 20
589.8206431430905
 30
0.0
 11
742.1449494333869
 21
930.8883047909461
 31
0.0
  0
SOLID
  5
4430
330
4420
100
AcDbEntity
  8
图层3
 62
     0
440
 16777216
100
AcDbTrace
 10
739.9782827667204
 20
589.8206431430905
 30
0.0
 11
744.3116161000537
 21
589.8206431430905
 31
0.0
 12
742.144949433387
 22
576.8206431430904
 32
0.0
 13
742.144949433387
 23
576.8206431430904
 33
0.0
  0
SOLID
  5
4431
330
4420
100
AcDbEntity
  8
图层3
 62
     0
440
 16777216
100
AcDbTrace
 10
739.9782827667203
 20
930.8883047909461
 30
0.0
 11
744.3116161000536
 21
930.8883047909461
 31
0.0
 12
742.1449494333869
 22
943.8883047909461
 32
0.0
 13
742.1449494333869
 23
943.8883047909461
 33
0.0
  0
MTEXT
  5
4432
330
4420
100
AcDbEntity
  8
图层3
 62
     0
440
 16777216
100
AcDbMText
 10
729.644949433387
 20
760.354473967018
 30
0.0
 40
13.0
 41
0.0
 71
     5
 72
     1
  1
367.07 [14 1/2]
 11
0.0000000000000001
 21
1.0
 31
0.0
 73
     1
 44
1.0
  0
POINT
  5
4433
330
4420
100
AcDbEntity
  8
Defpoints
 62
     0
440
 16777216
100
AcDbPoint
 10
1127.925912984061
 20
576.8206431430906
 30
0.0
  0
POINT
  5
4434
330
4420
100
AcDbEntity
  8
Defpoints
 62
     0
440
 16777216
100
AcDbPoint
 10
1127.925912984061
 20
943.8883047909461
 30
0.0
  0
POINT
  5
4435
330
4420
100
AcDbEntity
  8
Defpoints
 62
     0
440
 16777216
100
AcDbPoint
 10
742.1449494333869
 20
943.8883047909461
 30
0.0
  0
ENDBLK
  5
4422
330
4420
100
AcDbEntity
  8
0
100
AcDbBlockEnd
  0
BLOCK
  5
4439
330
4438
100
AcDbEntity
  8
0
100
AcDbBlockBegin
  2
*D36
 70
     1
 10
0.0
 20
0.0
 30
0.0
  3
*D36
  1

  0
LINE
  5
4445
330
4438
100
AcDbEntity
  8
图层3
 62
     0
440
 16777216
370
    -2
100
AcDbLine
 10
1123.925912984063
 20
948.8883047909462
 30
0.0
 11
699.2302911366045
 21
948.888304790946
 31
0.0
  0
LINE
  5
4446
330
4438
100
AcDbEntity
  8
图层3
 62
     0
440
 16777216
370
    -2
100
AcDbLine
 10
1123.925912984061
 20
571.8206431430906
 30
0.0
 11
699.2302911366046
 21
571.8206431430904
 31
0.0
  0
LINE
  5
4447
330
4438
100
AcDbEntity
  8
图层3
 62
     0
440
 16777216
370
    -2
100
AcDbLine
 10
700.4802911366044
 20
935.8883047909461
 30
0.0
 11
700.4802911366046
 21
584.8206431430904
 31
0.0
  0
SOLID
  5
4448
330
4438
100
AcDbEntity
  8
图层3
 62
     0
440
 16777216
100
AcDbTrace
 10
698.3136244699378
 20
935.8883047909461
 30
0.0
 11
702.6469578032711
 21
935.8883047909461
 31
0.0
 12
700.4802911366044
 22
948.888304790946
 32
0.0
 13
700.4802911366044
 23
948.888304790946
 33
0.0
  0
SOLID
  5
4449
330
4438
100
AcDbEntity
  8
图层3
 62
     0
440
 16777216
100
AcDbTrace
 10
698.3136244699379
 20
584.8206431430904
 30
0.0
 11
702.6469578032711
 21
584.8206431430904
 31
0.0
 12
700.4802911366046
 22
571.8206431430904
 32
0.0
 13
700.4802911366046
 23
571.8206431430904
 33
0.0
  0
MTEXT
  5
444A
330
4438
100
AcDbEntity
  8
图层3
 62
     0
440
 16777216
100
AcDbMText
 10
687.9802911366046
 20
760.354473967018
 30
0.0
 40
13.0
 41
0.0
 71
     5
 72
     1
  1
377.07 [14 7/8]
 11
0.0000000000000001
 21
1.0
 31
0.0
 73
     1
 44
1.0
  0
POINT
  5
444B
330
4438
100
AcDbEntity
  8
Defpoints
 62
     0
440
 16777216
100
AcDbPoint
 10
1127.925912984063
 20
948.8883047909462
 30
0.0
  0
POINT
  5
444C
330
4438
100
AcDbEntity
  8
Defpoints
 62
     0
440
 16777216
100
AcDbPoint
 10
1127.925912984061
 20
571.8206431430906
 30
0.0
  0
POINT
  5
444D
330
4438
100
AcDbEntity
  8
Defpoints
 62
     0
440
 16777216
100
AcDbPoint
 10
700.4802911366046
 20
571.8206431430904
 30
0.0
  0
ENDBLK
  5
443A
330
4438
100
AcDbEntity
  8
0
100
AcDbBlockEnd
  0
BLOCK
  5
4451
330
4450
100
AcDbEntity
  8
0
100
AcDbBlockBegin
  2
*D37
 70
     1
 10
0.0
 20
0.0
 30
0.0
  3
*D37
  1

  0
LINE
  5
445D
330
4450
100
AcDbEntity
  8
图层3
 62
     0
440
 16777216
370
    -2
100
AcDbLine
 10
1123.925912984062
 20
566.8206431430905
 30
0.0
 11
654.5530798611113
 21
566.8206431430904
 31
0.0
  0
LINE
  5
445E
330
4450
100
AcDbEntity
  8
图层3
 62
     0
440
 16777216
370
    -2
100
AcDbLine
 10
1123.925912984061
 20
953.8883047909463
 30
0.0
 11
654.5530798611111
 21
953.8883047909461
 31
0.0
  0
LINE
  5
445F
330
4450
100
AcDbEntity
  8
图层3
 62
     0
440
 16777216
370
    -2
100
AcDbLine
 10
655.8030798611113
 20
579.8206431430904
 30
0.0
 11
655.8030798611111
 21
940.888304790946
 31
0.0
  0
SOLID
  5
4460
330
4450
100
AcDbEntity
  8
图层3
 62
     0
440
 16777216
100
AcDbTrace
 10
653.6364131944447
 20
579.8206431430904
 30
0.0
 11
657.9697465277779
 21
579.8206431430904
 31
0.0
 12
655.8030798611113
 22
566.8206431430904
 32
0.0
 13
655.8030798611113
 23
566.8206431430904
 33
0.0
  0
SOLID
  5
4461
330
4450
100
AcDbEntity
  8
图层3
 62
     0
440
 16777216
100
AcDbTrace
 10
653.6364131944445
 20
940.888304790946
 30
0.0
 11
657.9697465277778
 21
940.888304790946
 31
0.0
 12
655.8030798611111
 22
953.8883047909461
 32
0.0
 13
655.8030798611111
 23
953.8883047909461
 33
0.0
  0
MTEXT
  5
4462
330
4450
100
AcDbEntity
  8
图层3
 62
     0
440
 16777216
100
AcDbMText
 10
643.3030798611113
 20
760.354473967018
 30
0.0
 40
13.0
 41
0.0
 71
     5
 72
     1
  1
387.07 [15 1/4]
 11
0.0000000000000001
 21
1.0
 31
0.0
 73
     1
 44
1.0
  0
POINT
  5
4463
330
4450
100
AcDbEntity
  8
Defpoints
 62
     0
440
 16777216
100
AcDbPoint
 10
1127.925912984062
 20
566.8206431430905
 30
0.0
  0
POINT
  5
4464
330
4450
100
AcDbEntity
  8
Defpoints
 62
     0
440
 16777216
100
AcDbPoint
 10
1127.925912984061
 20
953.8883047909463
 30
0.0
  0
POINT
  5
4465
330
4450
100
AcDbEntity
  8
Defpoints
 62
     0
440
 16777216
100
AcDbPoint
 10
655.8030798611111
 20
953.8883047909461
 30
0.0
  0
ENDBLK
  5
4452
330
4450
100
AcDbEntity
  8
0
100
AcDbBlockEnd
  0
BLOCK
  5
446A
330
4469
100
AcDbEntity
  8
0
100
AcDbBlockBegin
  2
*D38
 70
     1
 10
0.0
 20
0.0
 30
0.0
  3
*D38
  1

  0
LINE
  5
4472
330
4469
100
AcDbEntity
  8
图层3
 62
     0
440
 16777216
370
    -2
100
AcDbLine
 10
1216.830335052413
 20
681.1553529836767
 30
0.0
 11
1370.163668385746
 21
681.1553529836767
 31
0.0
  0
LINE
  5
4473
330
4469
100
AcDbEntity
  8
图层3
 62
     0
440
 16777216
370
    -2
100
AcDbLine
 10
1370.163668385746
 20
681.1553529836767
 30
0.0
 11
1428.942212276226
 21
609.516020984934
 31
0.0
  0
MTEXT
  5
4474
330
4469
100
AcDbEntity
  8
图层3
 62
     0
440
 16777216
100
AcDbMText
 10
1290.49700171908
 20
693.6553529836767
 30
0.0
 40
13.0
 41
0.0
 71
     5
 72
     1
  1
R100 [R3 7/8]
 73
     1
 44
1.0
  0
SOLID
  5
4475
330
4469
100
AcDbEntity
  8
图层3
 62
     0
440
 16777216
100
AcDbTrace
 10
1430.617232628714
 20
610.8903394571934
 30
0.0
 11
1427.267191923737
 21
608.1417025126746
 31
0.0
 12
1437.188123109782
 22
599.4658988700025
 32
0.0
 13
1437.188123109782
 23
599.4658988700025
 33
0.0
  0
POINT
  5
4476
330
4469
100
AcDbEntity
  8
Defpoints
 62
     0
440
 16777216
100
AcDbPoint
 10
1437.188123109782
 20
599.4658988700025
 30
0.0
  0
POINT
  5
4477
330
4469
100
AcDbEntity
  8
Defpoints
 62
     0
440
 16777216
100
AcDbPoint
 10
1373.758039774733
 20
676.7745305233209
 30
0.0
  0
ENDBLK
  5
446B
330
4469
100
AcDbEntity
  8
0
100
AcDbBlockEnd
  0
BLOCK
  5
447B
330
447A
100
AcDbEntity
  8
0
100
AcDbBlockBegin
  2
*D39
 70
     1
 10
0.0
 20
0.0
 30
0.0
  3
*D39
  1

  0
LINE
  5
4483
330
447A
100
AcDbEntity
  8
图层3
 62
     0
440
 16777216
370
    -2
100
AcDbLine
 10
1333.381668849257
 20
782.917126566231
 30
0.0
 11
1427.286622641754
 21
924.827500033689
 31
0.0
  0
MTEXT
  5
4484
330
447A
100
AcDbEntity
  8
图层3
 62
     0
440
 16777216
100
AcDbMText
 10
1366.32281253496
 20
855.3496560709753
 30
0.0
 40
13.0
 41
0.0
 71
     5
 72
     1
  1
R110 [R4 3/8]
 11
0.5518410604848011
 21
0.8339493053915269
 31
0.0
 73
     1
 44
1.0
  0
SOLID
  5
4485
330
447A
100
AcDbEntity
  8
图层3
 62
     0
440
 16777216
100
AcDbTrace
 10
1425.479732480072
 20
926.0231556647395
 30
0.0
 11
1429.093512803436
 21
923.6318444026387
 31
0.0
 12
1434.460556428056
 22
935.6688410037788
 32
0.0
 13
1434.460556428056
 23
935.6688410037788
 33
0.0
  0
POINT
  5
4486
330
447A
100
AcDbEntity
  8
Defpoints
 62
     0
440
 16777216
100
AcDbPoint
 10
1434.460556428056
 20
935.6688410037788
 30
0.0
  0
POINT
  5
4487
330
447A
100
AcDbEntity
  8
Defpoints
 62
     0
440
 16777216
100
AcDbPoint
 10
1373.758039774721
 20
843.9344174107
 30
0.0
  0
ENDBLK
  5
447C
330
447A
100
AcDbEntity
  8
0
100
AcDbBlockEnd
  0
BLOCK
  5
448B
330
448A
100
AcDbEntity
  8
0
100
AcDbBlockBegin
  2
*D40
 70
     1
 10
0.0
 20
0.0
 30
0.0
  3
*D40
  1

  0
LINE
  5
4493
330
448A
100
AcDbEntity
  8
图层3
 62
     0
440
 16777216
370
    -2
100
AcDbLine
 10
1259.756153284279
 20
756.8552915574534
 30
0.0
 11
1462.422503251024
 21
756.497005450173
 31
0.0
  0
MTEXT
  5
4494
330
448A
100
AcDbEntity
  8
图层3
 62
     0
440
 16777216
100
AcDbMText
 10
1354.611436663493
 20
769.1876200545451
 30
0.0
 40
13.0
 41
0.0
 71
     5
 72
     1
  1
R2195 [R86 3/8]
 11
0.9999984373359122
 21
-0.0017678590819754
 31
0.0
 73
     1
 44
1.0
  0
SOLID
  5
4495
330
448A
100
AcDbEntity
  8
图层3
 62
     0
440
 16777216
100
AcDbTrace
 10
1462.426333612368
 20
758.6636687310675
 30
0.0
 11
1462.41867288968
 21
754.3303421692788
 31
0.0
 12
1475.422482936391
 22
756.4740232821073
 32
0.0
 13
1475.422482936391
 23
756.4740232821073
 33
0.0
  0
POINT
  5
4496
330
448A
100
AcDbEntity
  8
Defpoints
 62
     0
440
 16777216
100
AcDbPoint
 10
1475.422482936391
 20
756.4740232821073
 30
0.0
  0
POINT
  5
4497
330
448A
100
AcDbEntity
  8
Defpoints
 62
     0
440
 16777216
100
AcDbPoint
 10
-719.5740870159544
 20
760.3544739670435
 30
0.0
  0
ENDBLK
  5
448C
330
448A
100
AcDbEntity
  8
0
100
AcDbBlockEnd
  0
BLOCK
  5
449B
330
449A
100
AcDbEntity
  8
0
100
AcDbBlockBegin
  2
*D41
 70
     1
 10
0.0
 20
0.0
 30
0.0
  3
*D41
  1

  0
LINE
  5
44A3
330
449A
100
AcDbEntity
  8
图层3
 62
     0
440
 16777216
370
    -2
100
AcDbLine
 10
988.2948842148268
 20
748.453397812998
 30
0.0
 11
783.4652243676917
 21
747.2266576810413
 31
0.0
  0
MTEXT
  5
44A4
330
449A
100
AcDbEntity
  8
图层3
 62
     0
440
 16777216
100
AcDbMText
 10
892.3050756290473
 20
760.3787318590469
 30
0.0
 40
13.0
 41
0.0
 71
     5
 72
     1
  1
R2205 [R86 3/4]
 11
0.9999820659746225
 21
0.0059889672837588
 31
0.0
 73
     1
 44
1.0
  0
SOLID
  5
44A5
330
449A
100
AcDbEntity
  8
图层3
 62
     0
440
 16777216
100
AcDbTrace
 10
783.4522482719102
 20
749.393285490653
 30
0.0
 11
783.4782004634732
 21
745.0600298714297
 31
0.0
 12
770.4654575100216
 22
747.1488011063525
 32
0.0
 13
770.4654575100216
 23
747.1488011063525
 33
0.0
  0
POINT
  5
44A6
330
449A
100
AcDbEntity
  8
Defpoints
 62
     0
440
 16777216
100
AcDbPoint
 10
770.4654575100216
 20
747.1488011063525
 30
0.0
  0
POINT
  5
44A7
330
449A
100
AcDbEntity
  8
Defpoints
 62
     0
440
 16777216
100
AcDbPoint
 10
2975.425912984065
 20
760.3544739670417
 30
0.0
  0
ENDBLK
  5
449C
330
449A
100
AcDbEntity
  8
0
100
AcDbBlockEnd
  0
ENDSEC
  0
SECTION
  2
ENTITIES
  0
MTEXT
  5
3AF6
102
{ACAD_REACTORS
330
3AF5
102
}
330
1F
100
AcDbEntity
  8
图层3
100
AcDbMText
 10
1389.822342746116
 20
607.5568488972931
 30
0.0
 40
16.0
 41
0.0
 71
     9
 72
     1
  1

 73
     1
 44
1.0
  0
LWPOLYLINE
  5
3EBA
330
1F
100
AcDbEntity
  8
图层3
100
AcDbPolyline
 90
        4
 70
     1
 43
0.0
 10
1968.043075857336
 20
159.2532801614079
 10
349.6877160053718
 20
159.2532801614079
 10
349.6877160053718
 20
1267.802006703661
 10
1968.043075857336
 20
1267.802006703661
  0
LWPOLYLINE
  5
43D3
102
{ACAD_REACTORS
330
4406
330
444E
102
}
330
1F
100
AcDbEntity
  8
图层3
 62
     0
100
AcDbPolyline
 90
        8
 70
     1
 43
0.0
 10
777.1773788840746
 20
848.1233883231418
 42
0.01995542400018
 10
777.1773788840773
 20
672.585559610871
 42
0.3939883954362406
 10
878.982271485507
 20
571.8206431430916
 10
1376.869554482617
 20
571.8206431430891
 42
0.3939883954362575
 10
1478.67444708405
 20
672.5855596108686
 42
0.0199554240001798
 10
1478.674447084052
 20
848.1233883231398
 42
0.3939883954362654
 10
1376.869554482617
 20
948.8883047909457
 10
878.9822714855077
 20
948.8883047909457
 42
0.3939883954362653
  0
LWPOLYLINE
  5
43D5
102
{ACAD_REACTORS
330
441E
330
4466
330
4488
330
44A8
102
}
330
1F
100
AcDbEntity
  8
图层3
  6
DASHED
 62
     1
100
AcDbPolyline
 90
        8
 70
     1
 43
0.0
 10
772.1813594883928
 20
848.3228631284967
 42
0.0199554240001799
 10
772.1813594883956
 20
672.3860848055173
 42
0.3941852212641448
 10
878.9090334596535
 20
566.8206431430916
 10
1376.94279250847
 20
566.8206431430891
 42
0.3941852212641603
 10
1483.670466479731
 20
672.3860848055136
 42
0.0199554240001798
 10
1483.670466479734
 20
848.3228631284937
 42
0.3941852212641792
 10
1376.942792508467
 20
953.8883047909457
 10
878.9090334596536
 20
953.8883047909457
 42
0.3941852212641693
  0
LWPOLYLINE
  5
43D6
102
{ACAD_REACTORS
330
43EE
330
4436
330
4478
330
4498
102
}
330
1F
100
AcDbEntity
  8
图层3
  6
DASHED
 62
     1
100
AcDbPolyline
 90
        8
 70
     1
 43
0.0
 10
782.1733982797564
 20
847.9239135177872
 42
0.0199554240001799
 10
782.173398279759
 20
672.7850344162272
 42
0.3937770146646891
 10
879.0572754360074
 20
576.8206431430916
 10
1376.794550532116
 20
576.8206431430891
 42
0.3937770146647044
 10
1473.678427688368
 20
672.7850344162234
 42
0.0199554240001798
 10
1473.678427688371
 20
847.9239135177842
 42
0.3937770146647244
 10
1376.794550532113
 20
943.8883047909458
 10
879.0572754360077
 20
943.8883047909458
 42
0.3937770146647124
  0
DIMENSION
  5
43D7
102
{ACAD_XDICTIONARY
360
43E4
102
}
102
{ACAD_REACTORS
330
43EE
102
}
330
1F
100
AcDbEntity
  8
图层3
100
AcDbDimension
  2
*D32
 10
1475.425912984064
 20
523.3085645419814
 30
0.0
 11
1127.925912984064
 21
535.8085645419814
 31
0.0
 70
    32
 71
     5
 42
694.9999999999997
  3
ISO-25
100
AcDbAlignedDimension
 13
780.4259129840638
 23
760.3544739670071
 33
0.0
 14
1475.425912984064
 24
760.3544739669902
 34
0.0
100
AcDbRotatedDimension
  0
DIMENSION
  5
43EF
102
{ACAD_XDICTIONARY
360
43FC
102
}
102
{ACAD_REACTORS
330
4406
102
}
330
1F
100
AcDbEntity
  8
图层3
100
AcDbDimension
  2
*D33
 10
1480.425912984063
 20
486.3588216496473
 30
0.0
 11
1127.925912984063
 21
498.8588216496473
 31
0.0
 70
    32
 71
     5
 42
704.9999999999993
  3
ISO-25
100
AcDbAlignedDimension
 13
775.4259129840638
 23
760.3544739670407
 33
0.0
 14
1480.425912984063
 24
760.3544739670042
 34
0.0
100
AcDbRotatedDimension
  0
DIMENSION
  5
4407
102
{ACAD_XDICTIONARY
360
4414
102
}
102
{ACAD_REACTORS
330
441E
102
}
330
1F
100
AcDbEntity
  8
图层3
100
AcDbDimension
  2
*D34
 10
1485.425912984063
 20
449.1462419118752
 30
0.0
 11
1127.925912984063
 21
461.6462419118752
 31
0.0
 70
    32
 71
     5
 42
714.9999999999991
  3
ISO-25
100
AcDbAlignedDimension
 13
770.4259129840639
 23
760.3544739670415
 33
0.0
 14
1485.425912984063
 24
760.3544739670037
 34
0.0
100
AcDbRotatedDimension
  0
DIMENSION
  5
441F
102
{ACAD_XDICTIONARY
360
442C
102
}
102
{ACAD_REACTORS
330
4436
102
}
330
1F
100
AcDbEntity
  8
图层3
100
AcDbDimension
  2
*D35
 10
742.1449494333869
 20
943.8883047909461
 30
0.0
 11
729.644949433387
 21
760.354473967018
 31
0.0
 70
    32
 71
     5
 42
367.0676616478555
  3
ISO-25
100
AcDbAlignedDimension
 13
1127.92591298406
 23
576.8206431430903
 33
0.0
 14
1127.92591298406
 24
943.8883047909458
 34
0.0
 50
90.0
100
AcDbRotatedDimension
  0
DIMENSION
  5
4437
102
{ACAD_XDICTIONARY
360
4444
102
}
102
{ACAD_REACTORS
330
444E
102
}
330
1F
100
AcDbEntity
  8
图层3
100
AcDbDimension
  2
*D36
 10
700.4802911366046
 20
571.8206431430904
 30
0.0
 11
687.9802911366046
 21
760.354473967018
 31
0.0
 70
    32
 71
     5
 42
377.0676616478555
  3
ISO-25
100
AcDbAlignedDimension
 13
1127.925912984062
 23
948.8883047909457
 33
0.0
 14
1127.925912984061
 24
571.8206431430903
 34
0.0
 50
90.0
100
AcDbRotatedDimension
  0
DIMENSION
  5
444F
102
{ACAD_XDICTIONARY
360
445C
102
}
102
{ACAD_REACTORS
330
4466
102
}
330
1F
100
AcDbEntity
  8
图层3
100
AcDbDimension
  2
*D37
 10
655.8030798611111
 20
953.8883047909461
 30
0.0
 11
643.3030798611113
 21
760.354473967018
 31
0.0
 70
    32
 71
     5
 42
387.0676616478555
  3
ISO-25
100
AcDbAlignedDimension
 13
1127.925912984061
 23
566.8206431430903
 33
0.0
 14
1127.92591298406
 24
953.8883047909457
 34
0.0
 50
90.0
100
AcDbRotatedDimension
  0
DIMENSION
  5
4468
102
{ACAD_XDICTIONARY
360
4471
102
}
102
{ACAD_REACTORS
330
4478
102
}
330
1F
100
AcDbEntity
  8
图层3
100
AcDbDimension
  2
*D38
 10
1373.758039774733
 20
676.7745305233209
 30
0.0
 11
1290.49700171908
 21
681.1553529836767
 31
0.0
 70
   164
 71
     5
 42
99.99999999999864
  3
ISO-25
100
AcDbRadialDimension
 15
1437.188123109782
 25
599.4658988700025
 35
0.0
 40
0.0
1001
ACAD
1000
DSTYLE
1002
{
1070
   288
1070
     1
1002
}
1001
ACAD_DSTYLE_DIMRADIAL_EXTENSION
1070
   387
1070
     1
1070
   388
1040
4.742758756201799
1070
   390
1040
6.243279755665734
  0
DIMENSION
  5
4479
102
{ACAD_XDICTIONARY
360
4482
102
}
102
{ACAD_REACTORS
330
4488
102
}
330
1F
100
AcDbEntity
  8
图层3
100
AcDbDimension
  2
*D39
 10
1373.758039774721
 20
843.9344174107
 30
0.0
 11
1376.747178852354
 21
848.4516428149152
 31
0.0
 70
   164
 71
     5
 42
110.0000000000132
  3
ISO-25
100
AcDbRadialDimension
 15
1434.460556428056
 25
935.6688410037788
 35
0.0
 40
0.0
1001
ACAD
1000
DSTYLE
1002
{
1070
   288
1070
     1
1002
}
1001
ACAD_DSTYLE_DIMRADIAL_EXTENSION
1070
   387
1070
     1
1070
   388
1040
0.0399055515137167
1070
   390
1040
1.541839982881466
  0
DIMENSION
  5
4489
102
{ACAD_XDICTIONARY
360
4492
102
}
102
{ACAD_REACTORS
330
4498
102
}
330
1F
100
AcDbEntity
  8
图层3
100
AcDbDimension
  2
*D40
 10
-719.5740870159544
 20
760.3544739670435
 30
0.0
 11
1354.589338424968
 21
756.6876395878461
 31
0.0
 70
   164
 71
     5
 42
2195.000000000018
  3
ISO-25
100
AcDbRadialDimension
 15
1475.422482936391
 25
756.4740232821073
 35
0.0
 40
0.0
1001
ACAD
1000
DSTYLE
1002
{
1070
   288
1070
     1
1002
}
1001
ACAD_DSTYLE_DIMRADIAL_EXTENSION
1070
   387
1070
     1
1070
   388
1040
6.243279755665724
1070
   390
1040
0.0399055515138254
  0
DIMENSION
  5
4499
102
{ACAD_XDICTIONARY
360
44A2
102
}
102
{ACAD_REACTORS
330
44A8
102
}
330
1F
100
AcDbEntity
  8
图层3
100
AcDbDimension
  2
*D41
 10
2975.425912984065
 20
760.3544739670417
 30
0.0
 11
892.3799377200943
 21
747.8789560343641
 31
0.0
 70
   164
 71
     5
 42
2205.000000000001
  3
ISO-25
100
AcDbRadialDimension
 15
770.4654575100216
 25
747.1488011063525
 35
0.0
 40
0.0
1001
ACAD
1000
DSTYLE
1002
{
1070
   288
1070
     1
1002
}
1001
ACAD_DSTYLE_DIMRADIAL_EXTENSION
1070
   387
1070
     1
1070
   388
1040
3.101687102075965
1070
   390
1040
3.181498205103652
  0
ENDSEC
  0
SECTION
  2
OBJECTS
  0
DICTIONARY
  5
C
330
0
100
AcDbDictionary
281
     1
  3
ACAD_CIP_PREVIOUS_PRODUCT_INFO
350
43C3
  3
ACAD_COLOR
350
26FE
  3
ACAD_DETAILVIEWSTYLE
350
43BA
  3
ACAD_GROUP
350
D
  3
ACAD_LAYOUT
350
1A
  3
ACAD_MATERIAL
350
26FD
  3
ACAD_MLEADERSTYLE
350
43B6
  3
ACAD_MLINESTYLE
350
17
  3
ACAD_PLOTSETTINGS
350
19
  3
ACAD_PLOTSTYLENAME
350
E
  3
ACAD_SCALELIST
350
43A4
  3
ACAD_SECTIONVIEWSTYLE
350
43B8
  3
ACAD_TABLESTYLE
350
26FF
  3
ACAD_VISUALSTYLE
350
438B
  3
AcadDim
350
3AE7
  3
ACDB_RECOMPOSE_DATA
350
44BA
  3
AcDbVariableDictionary
350
5E
  0
DICTIONARY
  5
285F
330
2
100
AcDbDictionary
280
     1
281
     1
  3
ACAD_LAYERFILTERS
360
4240
  3
ACLYDICTIONARY
360
423F
  0
DICTIONARY
  5
44A9
330
10
100
AcDbDictionary
280
     1
281
     1
  3
ADSK_XREC_LAYER_RECONCILED
360
44AA
  0
DICTIONARY
  5
44AB
330
70
100
AcDbDictionary
280
     1
281
     1
  3
ADSK_XREC_LAYER_RECONCILED
360
44AC
  0
DICTIONARY
  5
44AD
330
71
100
AcDbDictionary
280
     1
281
     1
  3
ADSK_XREC_LAYER_RECONCILED
360
44AE
  0
DICTIONARY
  5
44AF
330
72
100
AcDbDictionary
280
     1
281
     1
  3
ADSK_XREC_LAYER_RECONCILED
360
44B0
  0
DICTIONARY
  5
44B1
330
134
100
AcDbDictionary
280
     1
281
     1
  3
ADSK_XREC_LAYER_RECONCILED
360
44B2
  0
DICTIONARY
  5
270E
330
1F
100
AcDbDictionary
280
     1
281
     1
  3
ACAD_SORTENTS
360
270F
  0
DICTIONARY
  5
44BC
330
4004
100
AcDbDictionary
280
     1
281
     1
  3
ACAD_MTEXT_2008_RT
360
44BD
  0
DICTIONARY
  5
44BE
330
401C
100
AcDbDictionary
280
     1
281
     1
  3
ACAD_MTEXT_2008_RT
360
44BF
  0
DICTIONARY
  5
44C2
330
40B8
100
AcDbDictionary
280
     1
281
     1
  3
ACAD_MTEXT_2008_RT
360
44C3
  0
DICTIONARY
  5
44C4
330
4298
100
AcDbDictionary
280
     1
281
     1
  3
ACAD_MTEXT_2008_RT
360
44C5
  0
DICTIONARY
  5
44C8
330
4353
100
AcDbDictionary
280
     1
281
     1
  3
ACAD_MTEXT_2008_RT
360
44C9
  0
DICTIONARY
  5
43E4
330
43D7
100
AcDbDictionary
280
     1
281
     1
  3
ACAD_DIMASSOC
360
43EE
  0
DICTIONARY
  5
43FC
330
43EF
100
AcDbDictionary
280
     1
281
     1
  3
ACAD_DIMASSOC
360
4406
  0
DICTIONARY
  5
4414
330
4407
100
AcDbDictionary
280
     1
281
     1
  3
ACAD_DIMASSOC
360
441E
  0
DICTIONARY
  5
442C
330
441F
100
AcDbDictionary
280
     1
281
     1
  3
ACAD_DIMASSOC
360
4436
  0
DICTIONARY
  5
4444
330
4437
100
AcDbDictionary
280
     1
281
     1
  3
ACAD_DIMASSOC
360
444E
  0
DICTIONARY
  5
445C
330
444F
100
AcDbDictionary
280
     1
281
     1
  3
ACAD_DIMASSOC
360
4466
  0
DICTIONARY
  5
4471
330
4468
100
AcDbDictionary
280
     1
281
     1
  3
ACAD_DIMASSOC
360
4478
  0
DICTIONARY
  5
4482
330
4479
100
AcDbDictionary
280
     1
281
     1
  3
ACAD_DIMASSOC
360
4488
  0
DICTIONARY
  5
4492
330
4489
100
AcDbDictionary
280
     1
281
     1
  3
ACAD_DIMASSOC
360
4498
  0
DICTIONARY
  5
44A2
330
4499
100
AcDbDictionary
280
     1
281
     1
  3
ACAD_DIMASSOC
360
44A8
  0
XRECORD
  5
43C3
102
{ACAD_REACTORS
330
C
102
}
330
C
100
AcDbXrecord
280
     1
300
ACD
300
2018
300
ACD_F_S
  0
DICTIONARY
  5
26FE
102
{ACAD_REACTORS
330
C
102
}
330
C
100
AcDbDictionary
281
     1
  0
DICTIONARY
  5
43BA
102
{ACAD_REACTORS
330
C
102
}
330
C
100
AcDbDictionary
281
     1
  3
Metric50
350
43BB
  0
DICTIONARY
  5
D
102
{ACAD_REACTORS
330
C
102
}
330
C
100
AcDbDictionary
281
     1
  0
DICTIONARY
  5
1A
102
{ACAD_REACTORS
330
C
102
}
330
C
100
AcDbDictionary
281
     1
  3
Model
350
22
  3
布局1
350
51
  3
布局2
350
56
  0
DICTIONARY
  5
26FD
102
{ACAD_REACTORS
330
C
102
}
330
C
100
AcDbDictionary
281
     1
  3
ByBlock
350
437B
  3
ByLayer
350
4373
  3
Global
350
4383
  0
DICTIONARY
  5
43B6
102
{ACAD_REACTORS
330
C
102
}
330
C
100
AcDbDictionary
281
     1
  3
Standard
350
43B7
  0
DICTIONARY
  5
17
102
{ACAD_REACTORS
330
C
102
}
330
C
100
AcDbDictionary
281
     1
  3
Standard
350
18
  0
DICTIONARY
  5
19
102
{ACAD_REACTORS
330
C
102
}
330
C
100
AcDbDictionary
281
     1
  0
ACDBDICTIONARYWDFLT
  5
E
102
{ACAD_REACTORS
330
C
102
}
330
C
100
AcDbDictionary
281
     1
  3
Normal
350
F
100
AcDbDictionaryWithDefault
340
F
  0
DICTIONARY
  5
43A4
102
{ACAD_REACTORS
330
C
102
}
330
C
100
AcDbDictionary
281
     1
  3
A0
350
43A5
  3
A1
350
43A6
  3
A2
350
43A7
  3
A3
350
43A8
  3
A4
350
43A9
  3
A5
350
43AA
  3
A6
350
43AB
  3
A7
350
43AC
  3
A8
350
43AD
  3
A9
350
43AE
  3
B0
350
43AF
  3
B1
350
43B0
  3
B2
350
43B1
  3
B3
350
43B2
  3
B4
350
43B3
  3
B5
350
43B4
  3
B6
350
43B5
  0
DICTIONARY
  5
43B8
102
{ACAD_REACTORS
330
C
102
}
330
C
100
AcDbDictionary
281
     1
  3
Metric50
350
43B9
  0
DICTIONARY
  5
26FF
102
{ACAD_REACTORS
330
C
102
}
330
C
100
AcDbDictionary
281
     1
  3
Standard
350
2700
  0
DICTIONARY
  5
438B
102
{ACAD_REACTORS
330
C
102
}
330
C
100
AcDbDictionary
281
     1
  3
2dWireframe
350
4391
  3
Basic
350
4390
  3
Brighten
350
4397
  3
ColorChange
350
439B
  3
Conceptual
350
4394
  3
Dim
350
4396
  3
EdgeColorOff
350
43A3
  3
Facepattern
350
439A
  3
Flat
350
438C
  3
FlatWithEdges
350
438D
  3
Gouraud
350
438E
  3
GouraudWithEdges
350
438F
  3
Hidden
350
4393
  3
JitterOff
350
43A1
  3
Linepattern
350
4399
  3
OverhangOff
350
43A2
  3
Realistic
350
4395
  3
Shaded
350
43A0
  3
Shaded with edges
350
439F
  3
Shades of Gray
350
439C
  3
Sketchy
350
439D
  3
Thicken
350
4398
  3
Wireframe
350
4392
  3
X-Ray
350
439E
  0
XRECORD
  5
3AE7
102
{ACAD_REACTORS
330
C
102
}
330
C
100
AcDbXrecord
280
     1
 90
   990106
  3

 60
     0
 61
     0
 62
     1
 63
     3
 64
     0
 65
     0
 66
     0
 67
     3
 68
     1
 69
     0
 70
     0
 71
     0
 72
     0
 40
0.0
170
     0
340
3EE6
  0
XRECORD
  5
44BA
102
{ACAD_REACTORS
330
C
102
}
330
C
100
AcDbXrecord
280
     1
 90
        1
330
2700
  0
DICTIONARY
  5
5E
102
{ACAD_REACTORS
330
C
102
}
330
C
100
AcDbDictionary
281
     1
  3
CANNOSCALE
350
44B6
  3
CMLEADERSTYLE
350
44B3
  3
CTABLESTYLE
350
2708
  3
CVIEWDETAILSTYLE
350
44B4
  3
CVIEWSECTIONSTYLE
350
44B5
  3
DIMASSOC
350
5F
  3
HIDETEXT
350
63
  0
DICTIONARY
  5
4240
102
{ACAD_REACTORS
330
285F
102
}
330
285F
100
AcDbDictionary
281
     1
  0
DICTIONARY
  5
423F
102
{ACAD_REACTORS
330
285F
102
}
330
285F
100
AcDbDictionary
281
     1
1001
ACAD
1000
<All
  0
XRECORD
  5
44AA
102
{ACAD_REACTORS
330
44A9
102
}
330
44A9
100
AcDbXrecord
280
     1
290
     1
  0
XRECORD
  5
44AC
102
{ACAD_REACTORS
330
44AB
102
}
330
44AB
100
AcDbXrecord
280
     1
290
     1
  0
XRECORD
  5
44AE
102
{ACAD_REACTORS
330
44AD
102
}
330
44AD
100
AcDbXrecord
280
     1
290
     1
  0
XRECORD
  5
44B0
102
{ACAD_REACTORS
330
44AF
102
}
330
44AF
100
AcDbXrecord
280
     1
290
     1
  0
XRECORD
  5
44B2
102
{ACAD_REACTORS
330
44B1
102
}
330
44B1
100
AcDbXrecord
280
     1
290
     1
  0
SORTENTSTABLE
  5
270F
102
{ACAD_REACTORS
330
270E
102
}
330
270E
100
AcDbSortentsTable
330
1F
331
43D3
  5
43D3
331
3AF6
  5
3AF7
331
43D6
  5
43D4
331
3EBA
  5
3EE5
  0
XRECORD
  5
44BD
102
{ACAD_REACTORS
330
44BC
102
}
330
44BC
100
AcDbXrecord
280
     1
 40
3261.0
  1
87°
  0
XRECORD
  5
44BF
102
{ACAD_REACTORS
330
44BE
102
}
330
44BE
100
AcDbXrecord
280
     1
 40
3253.0
  1
45°
  0
XRECORD
  5
44C3
102
{ACAD_REACTORS
330
44C2
102
}
330
44C2
100
AcDbXrecord
280
     1
 40
19636.0
  1
\U+220590.2 [\U+22053 1/2]
  0
XRECORD
  5
44C5
102
{ACAD_REACTORS
330
44C4
102
}
330
44C4
100
AcDbXrecord
280
     1
 40
3261.0
  1
87°
  0
XRECORD
  5
44C9
102
{ACAD_REACTORS
330
44C8
102
}
330
44C8
100
AcDbXrecord
280
     1
 40
19820.0
  1
\U+220535.5 [\U+22051 3/8]
  0
DIMASSOC
  5
43EE
102
{ACAD_REACTORS
330
43E4
102
}
330
43E4
100
AcDbDimAssoc
330
43D7
 90
        3
 70
     0
 71
     0
  1
AcDbOsnapPointRef
 72
     2
331
43D6
 73
     2
 91
        1
 40
3.141592653589808
 10
0.0
 20
0.0
 30
0.0
 75
     0
  1
AcDbOsnapPointRef
 72
     8
331
43D6
 73
     2
 91
        5
 40
6.283185307179562
 10
0.0
 20
0.0
 30
0.0
 75
     1
  1
AcDbOsnapPointRef
 72
     2
331
43D6
 73
     2
 91
        1
 40
3.141592653589808
 10
0.0
 20
0.0
 30
0.0
 75
     0
  0
DIMASSOC
  5
4406
102
{ACAD_REACTORS
330
43FC
102
}
330
43FC
100
AcDbDimAssoc
330
43EF
 90
        3
 70
     0
 71
     0
  1
AcDbOsnapPointRef
 72
     5
331
43D3
 73
     2
 91
        1
 40
3.141592653589793
 10
0.0
 20
0.0
 30
0.0
 75
     0
  1
AcDbOsnapPointRef
 72
     2
331
43D3
 73
     2
 91
        5
 40
6.283185307179571
 10
0.0
 20
0.0
 30
0.0
 75
     0
  0
DIMASSOC
  5
441E
102
{ACAD_REACTORS
330
4414
102
}
330
4414
100
AcDbDimAssoc
330
4407
 90
        3
 70
     0
 71
     0
  1
AcDbOsnapPointRef
 72
     5
331
43D5
 73
     2
 91
        1
 40
3.141592653589793
 10
0.0
 20
0.0
 30
0.0
 75
     0
  1
AcDbOsnapPointRef
 72
     2
331
43D5
 73
     2
 91
        5
 40
6.283185307179569
 10
0.0
 20
0.0
 30
0.0
 75
     0
  0
DIMASSOC
  5
4436
102
{ACAD_REACTORS
330
442C
102
}
330
442C
100
AcDbDimAssoc
330
441F
 90
        3
 70
     0
 71
     0
  1
AcDbOsnapPointRef
 72
     8
331
43D6
 73
     2
 91
        3
 40
0.4999999999999965
 10
0.0
 20
0.0
 30
0.0
 75
     1
  1
AcDbOsnapPointRef
 72
     0
 40
0.0
 10
1127.925912984062
 20
943.8883047909458
 30
0.0
 75
     0
  1
AcDbOsnapPointRef
 72
     2
331
43D6
 73
     2
 91
        7
 40
0.5000000000000002
 10
0.0
 20
0.0
 30
0.0
 75
     0
  0
DIMASSOC
  5
444E
102
{ACAD_REACTORS
330
4444
102
}
330
4444
100
AcDbDimAssoc
330
4437
 90
        3
 70
     0
 71
     0
  1
AcDbOsnapPointRef
 72
     2
331
43D3
 73
     2
 91
        7
 40
0.5
 10
0.0
 20
0.0
 30
0.0
 75
     0
  1
AcDbOsnapPointRef
 72
     8
331
43D3
 73
     2
 91
        3
 40
0.4999999999999977
 10
0.0
 20
0.0
 30
0.0
 75
     1
  1
AcDbOsnapPointRef
 72
     2
331
43D3
 73
     2
 91
        7
 40
0.5
 10
0.0
 20
0.0
 30
0.0
 75
     0
  0
DIMASSOC
  5
4466
102
{ACAD_REACTORS
330
445C
102
}
330
445C
100
AcDbDimAssoc
330
444F
 90
        3
 70
     0
 71
     0
  1
AcDbOsnapPointRef
 72
     2
331
43D5
 73
     2
 91
        3
 40
0.5
 10
0.0
 20
0.0
 30
0.0
 75
     0
  1
AcDbOsnapPointRef
 72
     2
331
43D5
 73
     2
 91
        7
 40
0.5000000000000001
 10
0.0
 20
0.0
 30
0.0
 75
     0
  0
DIMASSOC
  5
4478
102
{ACAD_REACTORS
330
4471
102
}
330
4471
100
AcDbDimAssoc
330
4468
 90
        2
 70
     0
 71
     0
  1
AcDbOsnapPointRef
 72
     3
331
43D6
 73
     2
 91
        4
 40
0.0
 10
0.0
 20
0.0
 30
0.0
 75
     0
  0
DIMASSOC
  5
4488
102
{ACAD_REACTORS
330
4482
102
}
330
4482
100
AcDbDimAssoc
330
4479
 90
        2
 70
     0
 71
     0
  1
AcDbOsnapPointRef
 72
     3
331
43D5
 73
     2
 91
        6
 40
0.0
 10
0.0
 20
0.0
 30
0.0
 75
     0
  0
DIMASSOC
  5
4498
102
{ACAD_REACTORS
330
4492
102
}
330
4492
100
AcDbDimAssoc
330
4489
 90
        2
 70
     0
 71
     0
  1
AcDbOsnapPointRef
 72
     3
331
43D6
 73
     2
 91
        5
 40
0.0
 10
0.0
 20
0.0
 30
0.0
 75
     0
  0
DIMASSOC
  5
44A8
102
{ACAD_REACTORS
330
44A2
102
}
330
44A2
100
AcDbDimAssoc
330
4499
 90
        2
 70
     0
 71
     0
  1
AcDbOsnapPointRef
 72
     3
331
43D5
 73
     2
 91
        1
 40
0.0
 10
0.0
 20
0.0
 30
0.0
 75
     0
  0
ACDBDETAILVIEWSTYLE
  5
43BB
102
{ACAD_XDICTIONARY
360
4502
102
}
102
{ACAD_REACTORS
330
43BA
102
}
330
43BA
100
AcDbModelDocViewStyle
 70
     0
  3
Metric50
290
     0
100
AcDbDetailViewStyle
 70
     0
 71
     0
 90
        3
 71
     1
340
11
 62
   256
 40
5.0
340
0
 62
   256
 40
5.0
300

 40
0.0
280
     1
 71
     2
340
16
 90
       25
 62
   256
 71
     3
340
11
 62
   256
 40
5.0
 90
        0
 40
15.0
 90
        1
300
%<\AcVar ViewDetailId>% (%<\AcVar ViewScale \f "%sn">%)
 71
     4
340
16
 90
       25
 62
   256
340
16
 90
       25
 62
   256
280
     0
  0
LAYOUT
  5
22
102
{ACAD_REACTORS
330
1A
102
}
330
1A
100
AcDbPlotSettings
  1

  2
SHARP AR-158
  4
A4
  6

 40
5.111750125885009
 41
5.11176061630249
 42
5.111740112304687
 43
5.11175537109375
 44
210.0579986572266
 45
296.9259948730469
 46
3.649999999999999
 47
-22.22
 48
0.0
 49
0.0
140
0.0
141
0.0
142
1.0
143
6.5
 70
 11940
 72
     1
 73
     1
 74
     0
  7

 75
     0
147
0.1538461538461539
 76
     0
 77
     2
 78
   300
148
-122.274558545133
149
53.94138032977662
100
AcDbLayout
  1
Model
 70
     1
 71
     0
 10
0.0
 20
0.0
 11
12.0
 21
9.0
 12
0.0
 22
0.0
 32
0.0
 14
0.0
 24
0.0
 34
0.0
 15
0.0
 25
0.0
 35
0.0
146
0.0
 13
0.0
 23
0.0
 33
0.0
 16
1.0
 26
0.0
 36
0.0
 17
0.0
 27
1.0
 37
0.0
 76
     0
330
1F
331
4371
  0
LAYOUT
  5
51
102
{ACAD_REACTORS
330
1A
102
}
330
1A
100
AcDbPlotSettings
  1

  2
None
  4

  6

 40
0.0
 41
0.0
 42
0.0
 43
0.0
 44
0.0
 45
0.0
 46
0.0
 47
0.0
 48
0.0
 49
0.0
140
0.0
141
0.0
142
1.0
143
1.0
 70
   688
 72
     0
 73
     0
 74
     5
  7

 75
    16
147
1.0
 76
     0
 77
     2
 78
   300
148
0.0
149
0.0
100
AcDbLayout
  1
布局1
 70
     1
 71
     1
 10
0.0
 20
0.0
 11
12.0
 21
9.0
 12
0.0
 22
0.0
 32
0.0
 14
0.0
 24
0.0
 34
0.0
 15
0.0
 25
0.0
 35
0.0
146
0.0
 13
0.0
 23
0.0
 33
0.0
 16
1.0
 26
0.0
 36
0.0
 17
0.0
 27
1.0
 37
0.0
 76
     0
330
50
  0
LAYOUT
  5
56
102
{ACAD_REACTORS
330
1A
102
}
330
1A
100
AcDbPlotSettings
  1

  2
None
  4

  6

 40
0.0
 41
0.0
 42
0.0
 43
0.0
 44
0.0
 45
0.0
 46
0.0
 47
0.0
 48
0.0
 49
0.0
140
0.0
141
0.0
142
1.0
143
1.0
 70
   688
 72
     0
 73
     0
 74
     5
  7

 75
    16
147
1.0
 76
     0
 77
     2
 78
   300
148
0.0
149
0.0
100
AcDbLayout
  1
布局2
 70
     1
 71
     2
 10
0.0
 20
0.0
 11
12.0
 21
9.0
 12
0.0
 22
0.0
 32
0.0
 14
0.0
 24
0.0
 34
0.0
 15
0.0
 25
0.0
 35
0.0
146
0.0
 13
0.0
 23
0.0
 33
0.0
 16
1.0
 26
0.0
 36
0.0
 17
0.0
 27
1.0
 37
0.0
 76
     0
330
55
  0
MATERIAL
  5
437B
102
{ACAD_XDICTIONARY
360
437C
102
}
102
{ACAD_REACTORS
330
26FD
102
}
330
26FD
100
AcDbMaterial
  1
ByBlock
 72
     0
 43
0.0008202099737533
 43
0.0
 43
0.0
 43
0.0
 43
0.0
 43
0.0008202099737533
 43
0.0
 43
0.0
 43
0.0
 43
0.0
 43
1.0
 43
0.0
 43
0.0
 43
0.0
 43
0.0
 43
1.0
 77
     0
 47
0.0008202099737533
 47
0.0
 47
0.0
 47
0.0
 47
0.0
 47
0.0008202099737533
 47
0.0
 47
0.0
 47
0.0
 47
0.0
 47
1.0
 47
0.0
 47
0.0
 47
0.0
 47
0.0
 47
1.0
171
     0
 49
0.0008202099737533
 49
0.0
 49
0.0
 49
0.0
 49
0.0
 49
0.0008202099737533
 49
0.0
 49
0.0
 49
0.0
 49
0.0
 49
1.0
 49
0.0
 49
0.0
 49
0.0
 49
0.0
 49
1.0
175
     0
142
0.0008202099737533
142
0.0
142
0.0
142
0.0
142
0.0
142
0.0008202099737533
142
0.0
142
0.0
142
0.0
142
0.0
142
1.0
142
0.0
142
0.0
142
0.0
142
0.0
142
1.0
179
     0
144
0.0008202099737533
144
0.0
144
0.0
144
0.0
144
0.0
144
0.0008202099737533
144
0.0
144
0.0
144
0.0
144
0.0
144
1.0
144
0.0
144
0.0
144
0.0
144
0.0
144
1.0
147
0.0008202099737533
147
0.0
147
0.0
147
0.0
147
0.0
147
0.0008202099737533
147
0.0
147
0.0
147
0.0
147
0.0
147
1.0
147
0.0
147
0.0
147
0.0
147
0.0
147
1.0
  0
MATERIAL
  5
4373
102
{ACAD_XDICTIONARY
360
4374
102
}
102
{ACAD_REACTORS
330
26FD
102
}
330
26FD
100
AcDbMaterial
  1
ByLayer
 72
     0
 43
0.0008202099737533
 43
0.0
 43
0.0
 43
0.0
 43
0.0
 43
0.0008202099737533
 43
0.0
 43
0.0
 43
0.0
 43
0.0
 43
1.0
 43
0.0
 43
0.0
 43
0.0
 43
0.0
 43
1.0
 77
     0
 47
0.0008202099737533
 47
0.0
 47
0.0
 47
0.0
 47
0.0
 47
0.0008202099737533
 47
0.0
 47
0.0
 47
0.0
 47
0.0
 47
1.0
 47
0.0
 47
0.0
 47
0.0
 47
0.0
 47
1.0
171
     0
 49
0.0008202099737533
 49
0.0
 49
0.0
 49
0.0
 49
0.0
 49
0.0008202099737533
 49
0.0
 49
0.0
 49
0.0
 49
0.0
 49
1.0
 49
0.0
 49
0.0
 49
0.0
 49
0.0
 49
1.0
175
     0
142
0.0008202099737533
142
0.0
142
0.0
142
0.0
142
0.0
142
0.0008202099737533
142
0.0
142
0.0
142
0.0
142
0.0
142
1.0
142
0.0
142
0.0
142
0.0
142
0.0
142
1.0
179
     0
144
0.0008202099737533
144
0.0
144
0.0
144
0.0
144
0.0
144
0.0008202099737533
144
0.0
144
0.0
144
0.0
144
0.0
144
1.0
144
0.0
144
0.0
144
0.0
144
0.0
144
1.0
147
0.0008202099737533
147
0.0
147
0.0
147
0.0
147
0.0
147
0.0008202099737533
147
0.0
147
0.0
147
0.0
147
0.0
147
1.0
147
0.0
147
0.0
147
0.0
147
0.0
147
1.0
  0
MATERIAL
  5
4383
102
{ACAD_XDICTIONARY
360
4384
102
}
102
{ACAD_REACTORS
330
26FD
102
}
330
26FD
100
AcDbMaterial
  1
Global
 72
     0
 43
0.0008202099737533
 43
0.0
 43
0.0
 43
0.0
 43
0.0
 43
0.0008202099737533
 43
0.0
 43
0.0
 43
0.0
 43
0.0
 43
1.0
 43
0.0
 43
0.0
 43
0.0
 43
0.0
 43
1.0
 77
     0
 47
0.0008202099737533
 47
0.0
 47
0.0
 47
0.0
 47
0.0
 47
0.0008202099737533
 47
0.0
 47
0.0
 47
0.0
 47
0.0
 47
1.0
 47
0.0
 47
0.0
 47
0.0
 47
0.0
 47
1.0
171
     0
 49
0.0008202099737533
 49
0.0
 49
0.0
 49
0.0
 49
0.0
 49
0.0008202099737533
 49
0.0
 49
0.0
 49
0.0
 49
0.0
 49
1.0
 49
0.0
 49
0.0
 49
0.0
 49
0.0
 49
1.0
175
     0
142
0.0008202099737533
142
0.0
142
0.0
142
0.0
142
0.0
142
0.0008202099737533
142
0.0
142
0.0
142
0.0
142
0.0
142
1.0
142
0.0
142
0.0
142
0.0
142
0.0
142
1.0
179
     0
144
0.0008202099737533
144
0.0
144
0.0
144
0.0
144
0.0
144
0.0008202099737533
144
0.0
144
0.0
144
0.0
144
0.0
144
1.0
144
0.0
144
0.0
144
0.0
144
0.0
144
1.0
147
0.0008202099737533
147
0.0
147
0.0
147
0.0
147
0.0
147
0.0008202099737533
147
0.0
147
0.0
147
0.0
147
0.0
147
1.0
147
0.0
147
0.0
147
0.0
147
0.0
147
1.0
  0
MLEADERSTYLE
  5
43B7
102
{ACAD_XDICTIONARY
360
44FE
102
}
102
{ACAD_REACTORS
330
43B6
102
}
330
43B6
100
AcDbMLeaderStyle
170
     2
171
     1
172
     0
 90
        2
 40
0.0
 41
0.0
173
     1
 91
-1056964608
340
14
 92
       -2
290
     1
 42
2.0
291
     1
 43
0.36
  3
Standard
 44
4.0
300

342
11
174
     1
178
     6
175
     1
176
     0
 93
-1056964608
 45
4.0
292
     0
297
     0
 46
4.0
 94
-1056964608
 47
1.0
 49
1.0
140
1.0
293
     1
141
0.0
294
     1
177
     0
142
1.0
295
     0
296
     0
143
0.125
1001
ACAD_MLEADERVER
1070
     2
  0
MLINESTYLE
  5
18
102
{ACAD_REACTORS
330
17
102
}
330
17
100
AcDbMlineStyle
  2
STANDARD
 70
     0
  3

 62
   256
 51
90.0
 52
90.0
 71
     2
 49
0.5
 62
   256
  6
BYLAYER
 49
-0.5
 62
   256
  6
BYLAYER
  0
ACDBPLACEHOLDER
  5
F
102
{ACAD_REACTORS
330
E
102
}
330
E
  0
SCALE
  5
43A5
102
{ACAD_REACTORS
330
43A4
102
}
330
43A4
100
AcDbScale
 70
     0
300
1:1
140
1.0
141
1.0
290
     1
  0
SCALE
  5
43A6
102
{ACAD_REACTORS
330
43A4
102
}
330
43A4
100
AcDbScale
 70
     0
300
1:2
140
1.0
141
2.0
290
     0
  0
SCALE
  5
43A7
102
{ACAD_REACTORS
330
43A4
102
}
330
43A4
100
AcDbScale
 70
     0
300
1:4
140
1.0
141
4.0
290
     0
  0
SCALE
  5
43A8
102
{ACAD_REACTORS
330
43A4
102
}
330
43A4
100
AcDbScale
 70
     0
300
1:5
140
1.0
141
5.0
290
     0
  0
SCALE
  5
43A9
102
{ACAD_REACTORS
330
43A4
102
}
330
43A4
100
AcDbScale
 70
     0
300
1:8
140
1.0
141
8.0
290
     0
  0
SCALE
  5
43AA
102
{ACAD_REACTORS
330
43A4
102
}
330
43A4
100
AcDbScale
 70
     0
300
1:10
140
1.0
141
10.0
290
     0
  0
SCALE
  5
43AB
102
{ACAD_REACTORS
330
43A4
102
}
330
43A4
100
AcDbScale
 70
     0
300
1:16
140
1.0
141
16.0
290
     0
  0
SCALE
  5
43AC
102
{ACAD_REACTORS
330
43A4
102
}
330
43A4
100
AcDbScale
 70
     0
300
1:20
140
1.0
141
20.0
290
     0
  0
SCALE
  5
43AD
102
{ACAD_REACTORS
330
43A4
102
}
330
43A4
100
AcDbScale
 70
     0
300
1:30
140
1.0
141
30.0
290
     0
  0
SCALE
  5
43AE
102
{ACAD_REACTORS
330
43A4
102
}
330
43A4
100
AcDbScale
 70
     0
300
1:40
140
1.0
141
40.0
290
     0
  0
SCALE
  5
43AF
102
{ACAD_REACTORS
330
43A4
102
}
330
43A4
100
AcDbScale
 70
     0
300
1:50
140
1.0
141
50.0
290
     0
  0
SCALE
  5
43B0
102
{ACAD_REACTORS
330
43A4
102
}
330
43A4
100
AcDbScale
 70
     0
300
1:100
140
1.0
141
100.0
290
     0
  0
SCALE
  5
43B1
102
{ACAD_REACTORS
330
43A4
102
}
330
43A4
100
AcDbScale
 70
     0
300
2:1
140
2.0
141
1.0
290
     0
  0
SCALE
  5
43B2
102
{ACAD_REACTORS
330
43A4
102
}
330
43A4
100
AcDbScale
 70
     0
300
4:1
140
4.0
141
1.0
290
     0
  0
SCALE
  5
43B3
102
{ACAD_REACTORS
330
43A4
102
}
330
43A4
100
AcDbScale
 70
     0
300
8:1
140
8.0
141
1.0
290
     0
  0
SCALE
  5
43B4
102
{ACAD_REACTORS
330
43A4
102
}
330
43A4
100
AcDbScale
 70
     0
300
10:1
140
10.0
141
1.0
290
     0
  0
SCALE
  5
43B5
102
{ACAD_REACTORS
330
43A4
102
}
330
43A4
100
AcDbScale
 70
     0
300
100:1
140
100.0
141
1.0
290
     0
  0
ACDBSECTIONVIEWSTYLE
  5
43B9
102
{ACAD_XDICTIONARY
360
4500
102
}
102
{ACAD_REACTORS
330
43B8
102
}
330
43B8
100
AcDbModelDocViewStyle
 70
     0
  3
Metric50
290
     0
100
AcDbSectionViewStyle
 70
     0
 71
     0
 90
      102
 71
     1
340
11
 62
   256
 40
5.0
340
0
340
0
 62
   256
 40
5.0
300
I, O, Q, S, X, Z
 40
10.0
 90
        0
 40
2.5
 90
        0
 71
     2
340
16
 90
       25
 62
   256
340
16
 90
       50
 62
   256
 40
5.0
 40
2.5
 40
5.0
 71
     3
340
11
 62
   256
 40
5.0
 90
        0
 40
15.0
 90
        1
300
%<\AcVar ViewSectionStartId>%-%<\AcVar ViewSectionEndId>% (%<\AcVar ViewScale \f "%sn">%)
 71
     4
 62
   256
 62
   257
300
ANSI31
 40
1.0
 90
        0
290
     0
290
     0
 90
        6
 40
0.0
 40
1.570796326794896
 40
0.2617993877991494
 40
1.308996938995747
 40
-0.2617993877991494
 40
1.832595714594046
  0
TABLESTYLE
  5
2700
102
{ACAD_XDICTIONARY
360
44B8
102
}
102
{ACAD_REACTORS
330
26FF
102
}
330
26FF
100
AcDbTableStyle
  3
Standard
 70
     0
 71
     0
 40
1.5
 41
1.5
280
     0
281
     0
  7
Standard
140
4.5
170
     2
 62
     0
 63
     7
283
     0
274
    -2
284
     1
 64
     0
275
    -2
285
     1
 65
     0
276
    -2
286
     1
 66
     0
277
    -2
287
     1
 67
     0
278
    -2
288
     1
 68
     0
279
    -2
289
     1
 69
     0
  7
Standard
140
6.0
170
     5
 62
     0
 63
     7
283
     0
274
    -2
284
     1
 64
     0
275
    -2
285
     1
 65
     0
276
    -2
286
     1
 66
     0
277
    -2
287
     1
 67
     0
278
    -2
288
     1
 68
     0
279
    -2
289
     1
 69
     0
  7
Standard
140
4.5
170
     5
 62
     0
 63
     7
283
     0
274
    -2
284
     1
 64
     0
275
    -2
285
     1
 65
     0
276
    -2
286
     1
 66
     0
277
    -2
287
     1
 67
     0
278
    -2
288
     1
 68
     0
279
    -2
289
     1
 69
     0
  0
VISUALSTYLE
  5
4391
102
{ACAD_XDICTIONARY
360
44D7
102
}
102
{ACAD_REACTORS
330
438B
102
}
330
438B
100
AcDbVisualStyle
  2
2dWireframe
 70
     4
 71
     0
 72
     2
 73
     0
 90
        0
 40
-0.6
 41
-30.0
 62
     5
 63
     7
421
 16777215
 74
     1
 91
        4
 64
     7
 65
   257
 75
     1
175
     1
 42
1.0
 92
        0
 66
   257
 43
1.0
 76
     1
 77
     6
 78
     2
 67
     7
 79
     5
170
     0
171
     0
290
     0
174
     0
 93
        1
 44
0.0
173
     0
291
     0
 45
0.0
1001
ACAD
1000
AcDbSavedByObjectVersion
1070
     0
  0
VISUALSTYLE
  5
4390
102
{ACAD_XDICTIONARY
360
44D5
102
}
102
{ACAD_REACTORS
330
438B
102
}
330
438B
100
AcDbVisualStyle
  2
Basic
 70
     7
 71
     1
 72
     0
 73
     1
 90
        0
 40
-0.6
 41
-30.0
 62
     5
 63
     7
421
 16777215
 74
     0
 91
        4
 64
     7
 65
   257
 75
     1
175
     1
 42
1.0
 92
        8
 66
     7
 43
1.0
 76
     1
 77
     6
 78
     2
 67
     7
 79
     5
170
     0
171
     0
290
     0
174
     0
 93
        1
 44
0.0
173
     0
291
     1
 45
0.0
1001
ACAD
1000
AcDbSavedByObjectVersion
1070
     0
  0
VISUALSTYLE
  5
4397
102
{ACAD_XDICTIONARY
360
44E3
102
}
102
{ACAD_REACTORS
330
438B
102
}
330
438B
100
AcDbVisualStyle
  2
Brighten
 70
    12
 71
     2
 72
     2
 73
     0
 90
        0
 40
-0.6
 41
-30.0
 62
     5
 63
     7
421
 16777215
 74
     1
 91
        4
 64
     7
 65
   257
 75
     1
175
     1
 42
1.0
 92
        8
 66
     7
 43
1.0
 76
     1
 77
     6
 78
     2
 67
     7
 79
     5
170
     0
171
     0
290
     0
174
     0
 93
        1
 44
50.0
173
     0
291
     1
 45
0.0
1001
ACAD
1000
AcDbSavedByObjectVersion
1070
     0
  0
VISUALSTYLE
  5
439B
102
{ACAD_XDICTIONARY
360
44EB
102
}
102
{ACAD_REACTORS
330
438B
102
}
330
438B
100
AcDbVisualStyle
  2
ColorChange
 70
    16
 71
     2
 72
     2
 73
     3
 90
        0
 40
-0.6
 41
-30.0
 62
     5
 63
     8
421
  8421504
 74
     1
 91
        4
 64
     7
 65
   257
 75
     1
175
     1
 42
1.0
 92
        8
 66
     8
424
  8421504
 43
1.0
 76
     1
 77
     6
 78
     2
 67
     7
 79
     5
170
     0
171
     0
290
     0
174
     0
 93
        1
 44
0.0
173
     0
291
     1
 45
0.0
1001
ACAD
1000
AcDbSavedByObjectVersion
1070
     0
  0
VISUALSTYLE
  5
4394
102
{ACAD_XDICTIONARY
360
44DD
102
}
102
{ACAD_REACTORS
330
438B
102
}
330
438B
100
AcDbVisualStyle
  2
Conceptual
 70
     9
 71
     3
 72
     2
 73
     0
 90
        0
 40
-0.6
 41
-30.0
 62
     5
 63
     7
421
 16777215
 74
     2
 91
        2
 64
     7
 65
   257
 75
     1
175
     1
 42
179.0
 92
        8
 66
     7
 43
1.0
 76
     1
 77
     6
 78
     2
 67
     7
 79
     3
170
     0
171
     0
290
     0
174
     0
 93
        1
 44
0.0
173
     0
291
     0
 45
0.0
1001
ACAD
1000
AcDbSavedByObjectVersion
1070
     0
  0
VISUALSTYLE
  5
4396
102
{ACAD_XDICTIONARY
360
44E1
102
}
102
{ACAD_REACTORS
330
438B
102
}
330
438B
100
AcDbVisualStyle
  2
Dim
 70
    11
 71
     2
 72
     2
 73
     0
 90
        0
 40
-0.6
 41
-30.0
 62
     5
 63
     7
421
 16777215
 74
     1
 91
        4
 64
     7
 65
   257
 75
     1
175
     1
 42
1.0
 92
        8
 66
     7
 43
1.0
 76
     1
 77
     6
 78
     2
 67
     7
 79
     5
170
     0
171
     0
290
     0
174
     0
 93
        1
 44
-50.0
173
     0
291
     1
 45
0.0
1001
ACAD
1000
AcDbSavedByObjectVersion
1070
     0
  0
VISUALSTYLE
  5
43A3
102
{ACAD_XDICTIONARY
360
44FB
102
}
102
{ACAD_REACTORS
330
438B
102
}
330
438B
100
AcDbVisualStyle
  2
EdgeColorOff
 70
    22
 71
     2
 72
     2
 73
     0
 90
        0
 40
-0.6
 41
-30.0
 62
     5
 63
     7
421
 16777215
 74
     1
 91
        4
 64
     7
 65
   257
 75
     1
175
     1
 42
1.0
 92
        8
 66
     7
 43
1.0
 76
     1
 77
     6
 78
     2
 67
     7
 79
     5
170
     0
171
     0
290
     0
174
     0
 93
        1
 44
0.0
173
     0
291
     1
 45
0.0
1001
ACAD
1000
AcDbSavedByObjectVersion
1070
     0
  0
VISUALSTYLE
  5
439A
102
{ACAD_XDICTIONARY
360
44E9
102
}
102
{ACAD_REACTORS
330
438B
102
}
330
438B
100
AcDbVisualStyle
  2
Facepattern
 70
    15
 71
     2
 72
     2
 73
     0
 90
        0
 40
-0.6
 41
-30.0
 62
     5
 63
     7
421
 16777215
 74
     1
 91
        4
 64
     7
 65
   257
 75
     1
175
     1
 42
1.0
 92
        8
 66
     7
 43
1.0
 76
     1
 77
     6
 78
     2
 67
     7
 79
     5
170
     0
171
     0
290
     0
174
     0
 93
        1
 44
0.0
173
     0
291
     1
 45
0.0
1001
ACAD
1000
AcDbSavedByObjectVersion
1070
     0
  0
VISUALSTYLE
  5
438C
102
{ACAD_XDICTIONARY
360
44CD
102
}
102
{ACAD_REACTORS
330
438B
102
}
330
438B
100
AcDbVisualStyle
  2
Flat
 70
     0
 71
     2
 72
     1
 73
     1
 90
        2
 40
-0.6
 41
30.0
 62
     5
 63
     7
421
 16777215
 74
     0
 91
        0
 64
     7
 65
   257
 75
     1
175
     1
 42
1.0
 92
        8
 66
     7
 43
1.0
 76
     1
 77
     6
 78
     2
 67
     7
 79
     5
170
     0
171
     0
290
     0
174
     0
 93
       13
 44
0.0
173
     0
291
     1
 45
0.0
1001
ACAD
1000
AcDbSavedByObjectVersion
1070
     0
  0
VISUALSTYLE
  5
438D
102
{ACAD_XDICTIONARY
360
44CF
102
}
102
{ACAD_REACTORS
330
438B
102
}
330
438B
100
AcDbVisualStyle
  2
FlatWithEdges
 70
     1
 71
     2
 72
     1
 73
     1
 90
        2
 40
-0.6
 41
30.0
 62
     5
 63
     7
421
 16777215
 74
     1
 91
        0
 64
     7
 65
   257
 75
     1
175
     1
 42
1.0
 92
        0
 66
   257
 43
1.0
 76
     1
 77
     6
 78
     2
 67
     7
 79
     5
170
     0
171
     0
290
     0
174
     0
 93
       13
 44
0.0
173
     0
291
     1
 45
0.0
1001
ACAD
1000
AcDbSavedByObjectVersion
1070
     0
  0
VISUALSTYLE
  5
438E
102
{ACAD_XDICTIONARY
360
44D1
102
}
102
{ACAD_REACTORS
330
438B
102
}
330
438B
100
AcDbVisualStyle
  2
Gouraud
 70
     2
 71
     2
 72
     2
 73
     1
 90
        2
 40
-0.6
 41
30.0
 62
     5
 63
     7
421
 16777215
 74
     0
 91
        0
 64
     7
 65
   257
 75
     1
175
     1
 42
1.0
 92
        0
 66
     7
 43
1.0
 76
     1
 77
     6
 78
     2
 67
     7
 79
     5
170
     0
171
     0
290
     0
174
     0
 93
       13
 44
0.0
173
     0
291
     1
 45
0.0
1001
ACAD
1000
AcDbSavedByObjectVersion
1070
     0
  0
VISUALSTYLE
  5
438F
102
{ACAD_XDICTIONARY
360
44D3
102
}
102
{ACAD_REACTORS
330
438B
102
}
330
438B
100
AcDbVisualStyle
  2
GouraudWithEdges
 70
     3
 71
     2
 72
     2
 73
     1
 90
        2
 40
-0.6
 41
30.0
 62
     5
 63
     7
421
 16777215
 74
     1
 91
        0
 64
     7
 65
   257
 75
     1
175
     1
 42
1.0
 92
        0
 66
   257
 43
1.0
 76
     1
 77
     6
 78
     2
 67
     7
 79
     5
170
     0
171
     0
290
     0
174
     0
 93
       13
 44
0.0
173
     0
291
     1
 45
0.0
1001
ACAD
1000
AcDbSavedByObjectVersion
1070
     0
  0
VISUALSTYLE
  5
4393
102
{ACAD_XDICTIONARY
360
44DB
102
}
102
{ACAD_REACTORS
330
438B
102
}
330
438B
100
AcDbVisualStyle
  2
Hidden
 70
     6
 71
     1
 72
     2
 73
     2
 90
        0
 40
-0.6
 41
-30.0
 62
     5
 63
     7
421
 16777215
 74
     2
 91
        2
 64
     7
 65
   257
 75
     2
175
     1
 42
40.0
 92
        0
 66
   257
 43
1.0
 76
     1
 77
     6
 78
     2
 67
     7
 79
     3
170
     0
171
     0
290
     0
174
     0
 93
        1
 44
0.0
173
     0
291
     0
 45
0.0
1001
ACAD
1000
AcDbSavedByObjectVersion
1070
     0
  0
VISUALSTYLE
  5
43A1
102
{ACAD_XDICTIONARY
360
44F7
102
}
102
{ACAD_REACTORS
330
438B
102
}
330
438B
100
AcDbVisualStyle
  2
JitterOff
 70
    20
 71
     2
 72
     2
 73
     0
 90
        0
 40
-0.6
 41
-30.0
 62
     5
 63
     7
421
 16777215
 74
     1
 91
        4
 64
     7
 65
   257
 75
     1
175
     1
 42
1.0
 92
       10
 66
     7
 43
1.0
 76
     1
 77
     6
 78
     2
 67
     7
 79
     5
170
     0
171
     0
290
     0
174
     0
 93
        1
 44
0.0
173
     0
291
     1
 45
0.0
1001
ACAD
1000
AcDbSavedByObjectVersion
1070
     0
  0
VISUALSTYLE
  5
4399
102
{ACAD_XDICTIONARY
360
44E7
102
}
102
{ACAD_REACTORS
330
438B
102
}
330
438B
100
AcDbVisualStyle
  2
Linepattern
 70
    14
 71
     2
 72
     2
 73
     0
 90
        0
 40
-0.6
 41
-30.0
 62
     5
 63
     7
421
 16777215
 74
     1
 91
        4
 64
     7
 65
   257
 75
     7
175
     7
 42
1.0
 92
        8
 66
     7
 43
1.0
 76
     1
 77
     6
 78
     2
 67
     7
 79
     5
170
     0
171
     0
290
     0
174
     0
 93
        1
 44
0.0
173
     0
291
     1
 45
0.0
1001
ACAD
1000
AcDbSavedByObjectVersion
1070
     0
  0
VISUALSTYLE
  5
43A2
102
{ACAD_XDICTIONARY
360
44F9
102
}
102
{ACAD_REACTORS
330
438B
102
}
330
438B
100
AcDbVisualStyle
  2
OverhangOff
 70
    21
 71
     2
 72
     2
 73
     0
 90
        0
 40
-0.6
 41
-30.0
 62
     5
 63
     7
421
 16777215
 74
     1
 91
        4
 64
     7
 65
   257
 75
     1
175
     1
 42
1.0
 92
        9
 66
     7
 43
1.0
 76
     1
 77
     6
 78
     2
 67
     7
 79
     5
170
     0
171
     0
290
     0
174
     0
 93
        1
 44
0.0
173
     0
291
     1
 45
0.0
1001
ACAD
1000
AcDbSavedByObjectVersion
1070
     0
  0
VISUALSTYLE
  5
4395
102
{ACAD_XDICTIONARY
360
44DF
102
}
102
{ACAD_REACTORS
330
438B
102
}
330
438B
100
AcDbVisualStyle
  2
Realistic
 70
     8
 71
     2
 72
     3
 73
     0
 90
        2
 40
-0.6
 41
30.0
 62
     5
 63
     7
421
 16777215
 74
     0
 91
        0
 64
     7
 65
   257
 75
     1
175
     1
 42
1.0
 92
        8
 66
   257
 43
1.0
 76
     1
 77
     6
 78
     2
 67
     7
 79
     3
170
     0
171
     0
290
     0
174
     0
 93
       13
 44
0.0
173
     0
291
     0
 45
0.0
1001
ACAD
1000
AcDbSavedByObjectVersion
1070
     0
  0
VISUALSTYLE
  5
43A0
102
{ACAD_XDICTIONARY
360
44F5
102
}
102
{ACAD_REACTORS
330
438B
102
}
330
438B
100
AcDbVisualStyle
  2
Shaded
 70
    27
 71
     2
 72
     2
 73
     1
 90
        2
 40
-0.6
 41
30.0
 62
     5
 63
     7
421
 16777215
 74
     0
 91
        4
 64
     7
 65
   257
 75
     1
175
     1
 42
1.0
 92
        8
 66
   257
 43
1.0
 76
     1
 77
     6
 78
     2
 67
     8
425
  7895160
 79
     3
170
     0
171
     0
290
     0
174
     0
 93
        5
 44
0.0
173
     0
291
     0
 45
0.0
1001
ACAD
1000
AcDbSavedByObjectVersion
1070
     0
  0
VISUALSTYLE
  5
439F
102
{ACAD_XDICTIONARY
360
44F3
102
}
102
{ACAD_REACTORS
330
438B
102
}
330
438B
100
AcDbVisualStyle
  2
Shaded with edges
 70
    26
 71
     2
 72
     2
 73
     1
 90
        2
 40
-0.6
 41
30.0
 62
     5
 63
     7
421
 16777215
 74
     1
 91
        2
 64
     7
 65
   257
 75
     2
175
     1
 42
1.0
 92
        8
 66
   257
 43
1.0
 76
     1
 77
     6
 78
     2
 67
     7
 79
     3
170
     0
171
     0
290
     0
174
     0
 93
        5
 44
0.0
173
     0
291
     0
 45
0.0
1001
ACAD
1000
AcDbSavedByObjectVersion
1070
     0
  0
VISUALSTYLE
  5
439C
102
{ACAD_XDICTIONARY
360
44ED
102
}
102
{ACAD_REACTORS
330
438B
102
}
330
438B
100
AcDbVisualStyle
  2
Shades of Gray
 70
    23
 71
     2
 72
     2
 73
     3
 90
        0
 40
-0.6
 41
-30.0
 62
     5
 63
     7
421
 16777215
 74
     2
 91
        2
 64
     7
 65
     7
 75
     1
175
     1
 42
40.0
 92
        8
 66
     7
 43
1.0
 76
     1
 77
     6
 78
     2
 67
     7
 79
     3
170
     0
171
     0
290
     0
174
     0
 93
        1
 44
0.0
173
     0
291
     0
 45
0.0
1001
ACAD
1000
AcDbSavedByObjectVersion
1070
     0
  0
VISUALSTYLE
  5
439D
102
{ACAD_XDICTIONARY
360
44EF
102
}
102
{ACAD_REACTORS
330
438B
102
}
330
438B
100
AcDbVisualStyle
  2
Sketchy
 70
    24
 71
     1
 72
     2
 73
     2
 90
        0
 40
-0.6
 41
-30.0
 62
     5
 63
     7
421
 16777215
 74
     2
 91
        2
 64
     7
 65
     7
 75
     1
175
     1
 42
40.0
 92
       11
 66
     7
 43
1.0
 76
     1
 77
     6
 78
     2
 67
     7
 79
     6
170
     0
171
     0
290
     0
174
     0
 93
        1
 44
0.0
173
     0
291
     0
 45
0.0
1001
ACAD
1000
AcDbSavedByObjectVersion
1070
     0
  0
VISUALSTYLE
  5
4398
102
{ACAD_XDICTIONARY
360
44E5
102
}
102
{ACAD_REACTORS
330
438B
102
}
330
438B
100
AcDbVisualStyle
  2
Thicken
 70
    13
 71
     2
 72
     2
 73
     0
 90
        0
 40
-0.6
 41
-30.0
 62
     5
 63
     7
421
 16777215
 74
     1
 91
        4
 64
     7
 65
   257
 75
     1
175
     1
 42
1.0
 92
       12
 66
     7
 43
1.0
 76
     1
 77
     6
 78
     2
 67
     7
 79
     5
170
     0
171
     0
290
     0
174
     0
 93
        1
 44
0.0
173
     0
291
     1
 45
0.0
1001
ACAD
1000
AcDbSavedByObjectVersion
1070
     0
  0
VISUALSTYLE
  5
4392
102
{ACAD_XDICTIONARY
360
44D9
102
}
102
{ACAD_REACTORS
330
438B
102
}
330
438B
100
AcDbVisualStyle
  2
Wireframe
 70
     5
 71
     0
 72
     2
 73
     0
 90
        0
 40
-0.6
 41
-30.0
 62
     5
 63
     7
421
 16777215
 74
     1
 91
        4
 64
     7
 65
   257
 75
     1
175
     1
 42
1.0
 92
        0
 66
   257
 43
1.0
 76
     1
 77
     6
 78
     2
 67
     7
 79
     3
170
     0
171
     0
290
     0
174
     0
 93
        1
 44
0.0
173
     0
291
     0
 45
0.0
1001
ACAD
1000
AcDbSavedByObjectVersion
1070
     0
  0
VISUALSTYLE
  5
439E
102
{ACAD_XDICTIONARY
360
44F1
102
}
102
{ACAD_REACTORS
330
438B
102
}
330
438B
100
AcDbVisualStyle
  2
X-Ray
 70
    25
 71
     2
 72
     2
 73
     1
 90
        1
 40
0.5
 41
-30.0
 62
     5
 63
     7
421
 16777215
 74
     1
 91
        0
 64
     7
 65
   257
 75
     1
175
     1
 42
1.0
 92
        8
 66
     7
 43
1.0
 76
     1
 77
     6
 78
     2
 67
     7
 79
     3
170
     0
171
     0
290
     0
174
     0
 93
       13
 44
0.0
173
     0
291
     0
 45
0.0
1001
ACAD
1000
AcDbSavedByObjectVersion
1070
     0
  0
DICTIONARYVAR
  5
44B6
102
{ACAD_REACTORS
330
5E
102
}
330
5E
100
DictionaryVariables
280
     0
  1
1:1
  0
DICTIONARYVAR
  5
44B3
102
{ACAD_REACTORS
330
5E
102
}
330
5E
100
DictionaryVariables
280
     0
  1
STANDARD
  0
DICTIONARYVAR
  5
2708
102
{ACAD_REACTORS
330
5E
102
}
330
5E
100
DictionaryVariables
280
     0
  1
STANDARD
  0
DICTIONARYVAR
  5
44B4
102
{ACAD_REACTORS
330
5E
102
}
330
5E
100
DictionaryVariables
280
     0
  1
Metric50
  0
DICTIONARYVAR
  5
44B5
102
{ACAD_REACTORS
330
5E
102
}
330
5E
100
DictionaryVariables
280
     0
  1
Metric50
  0
DICTIONARYVAR
  5
5F
102
{ACAD_REACTORS
330
5E
102
}
330
5E
100
DictionaryVariables
280
     0
  1
2
  0
DICTIONARYVAR
  5
63
102
{ACAD_REACTORS
330
5E
102
}
330
5E
100
DictionaryVariables
280
     0
  1
1
  0
DICTIONARY
  5
4502
330
43BB
100
AcDbDictionary
280
     1
281
     1
  3
ACAD_XREC_ROUNDTRIP
360
4503
  0
DICTIONARY
  5
437C
330
437B
100
AcDbDictionary
280
     1
281
     1
  3
ACAD_XREC_ROUNDTRIP
360
44CB
  3
BUMPTILE
360
437E
  3
DIFFUSETILE
360
437D
  3
OPACITYTILE
360
4381
  3
REFLECTIONTILE
360
4380
  3
REFRACTIONTILE
360
4382
  3
SPECULARTILE
360
437F
  0
DICTIONARY
  5
4374
330
4373
100
AcDbDictionary
280
     1
281
     1
  3
ACAD_XREC_ROUNDTRIP
360
44CA
  3
BUMPTILE
360
4376
  3
DIFFUSETILE
360
4375
  3
OPACITYTILE
360
4379
  3
REFLECTIONTILE
360
4378
  3
REFRACTIONTILE
360
437A
  3
SPECULARTILE
360
4377
  0
DICTIONARY
  5
4384
330
4383
100
AcDbDictionary
280
     1
281
     1
  3
ACAD_XREC_ROUNDTRIP
360
44CC
  3
BUMPTILE
360
4386
  3
DIFFUSETILE
360
4385
  3
OPACITYTILE
360
4389
  3
REFLECTIONTILE
360
4388
  3
REFRACTIONTILE
360
438A
  3
SPECULARTILE
360
4387
  0
DICTIONARY
  5
44FE
330
43B7
100
AcDbDictionary
280
     1
281
     1
  3
ACAD_XREC_ROUNDTRIP
360
44FF
  0
DICTIONARY
  5
4500
330
43B9
100
AcDbDictionary
280
     1
281
     1
  3
ACAD_XREC_ROUNDTRIP
360
4501
  0
DICTIONARY
  5
44B8
330
2700
100
AcDbDictionary
280
     1
281
     1
  3
ACAD_ROUNDTRIP_2008_TABLESTYLE_CELLSTYLEMAP
360
44B9
  3
ACAD_XREC_ROUNDTRIP
360
44BB
  0
DICTIONARY
  5
44D7
330
4391
100
AcDbDictionary
280
     1
281
     1
  3
ACAD_XREC_ROUNDTRIP
360
44D8
  0
DICTIONARY
  5
44D5
330
4390
100
AcDbDictionary
280
     1
281
     1
  3
ACAD_XREC_ROUNDTRIP
360
44D6
  0
DICTIONARY
  5
44E3
330
4397
100
AcDbDictionary
280
     1
281
     1
  3
ACAD_XREC_ROUNDTRIP
360
44E4
  0
DICTIONARY
  5
44EB
330
439B
100
AcDbDictionary
280
     1
281
     1
  3
ACAD_XREC_ROUNDTRIP
360
44EC
  0
DICTIONARY
  5
44DD
330
4394
100
AcDbDictionary
280
     1
281
     1
  3
ACAD_XREC_ROUNDTRIP
360
44DE
  0
DICTIONARY
  5
44E1
330
4396
100
AcDbDictionary
280
     1
281
     1
  3
ACAD_XREC_ROUNDTRIP
360
44E2
  0
DICTIONARY
  5
44FB
330
43A3
100
AcDbDictionary
280
     1
281
     1
  3
ACAD_XREC_ROUNDTRIP
360
44FC
  0
DICTIONARY
  5
44E9
330
439A
100
AcDbDictionary
280
     1
281
     1
  3
ACAD_XREC_ROUNDTRIP
360
44EA
  0
DICTIONARY
  5
44CD
330
438C
100
AcDbDictionary
280
     1
281
     1
  3
ACAD_XREC_ROUNDTRIP
360
44CE
  0
DICTIONARY
  5
44CF
330
438D
100
AcDbDictionary
280
     1
281
     1
  3
ACAD_XREC_ROUNDTRIP
360
44D0
  0
DICTIONARY
  5
44D1
330
438E
100
AcDbDictionary
280
     1
281
     1
  3
ACAD_XREC_ROUNDTRIP
360
44D2
  0
DICTIONARY
  5
44D3
330
438F
100
AcDbDictionary
280
     1
281
     1
  3
ACAD_XREC_ROUNDTRIP
360
44D4
  0
DICTIONARY
  5
44DB
330
4393
100
AcDbDictionary
280
     1
281
     1
  3
ACAD_XREC_ROUNDTRIP
360
44DC
  0
DICTIONARY
  5
44F7
330
43A1
100
AcDbDictionary
280
     1
281
     1
  3
ACAD_XREC_ROUNDTRIP
360
44F8
  0
DICTIONARY
  5
44E7
330
4399
100
AcDbDictionary
280
     1
281
     1
  3
ACAD_XREC_ROUNDTRIP
360
44E8
  0
DICTIONARY
  5
44F9
330
43A2
100
AcDbDictionary
280
     1
281
     1
  3
ACAD_XREC_ROUNDTRIP
360
44FA
  0
DICTIONARY
  5
44DF
330
4395
100
AcDbDictionary
280
     1
281
     1
  3
ACAD_XREC_ROUNDTRIP
360
44E0
  0
DICTIONARY
  5
44F5
330
43A0
100
AcDbDictionary
280
     1
281
     1
  3
ACAD_XREC_ROUNDTRIP
360
44F6
  0
DICTIONARY
  5
44F3
330
439F
100
AcDbDictionary
280
     1
281
     1
  3
ACAD_XREC_ROUNDTRIP
360
44F4
  0
DICTIONARY
  5
44ED
330
439C
100
AcDbDictionary
280
     1
281
     1
  3
ACAD_XREC_ROUNDTRIP
360
44EE
  0
DICTIONARY
  5
44EF
330
439D
100
AcDbDictionary
280
     1
281
     1
  3
ACAD_XREC_ROUNDTRIP
360
44F0
  0
DICTIONARY
  5
44E5
330
4398
100
AcDbDictionary
280
     1
281
     1
  3
ACAD_XREC_ROUNDTRIP
360
44E6
  0
DICTIONARY
  5
44D9
330
4392
100
AcDbDictionary
280
     1
281
     1
  3
ACAD_XREC_ROUNDTRIP
360
44DA
  0
DICTIONARY
  5
44F1
330
439E
100
AcDbDictionary
280
     1
281
     1
  3
ACAD_XREC_ROUNDTRIP
360
44F2
  0
XRECORD
  5
4503
102
{ACAD_REACTORS
330
4502
102
}
330
4502
100
AcDbXrecord
280
     1
102
DISPLAYNAME
  1
Metric50
102
FLAGS
 90
        0
  0
XRECORD
  5
44CB
102
{ACAD_REACTORS
330
437C
102
}
330
437C
100
AcDbXrecord
280
     1
102
MATERIAL
148
0.0
149
0.0
149
0.0
 93
        0
 94
      127
282
     0
 72
     0
 77
     0
171
     0
175
     0
179
     0
273
     0
  0
XRECORD
  5
437E
102
{ACAD_REACTORS
330
437C
102
}
330
437C
100
AcDbXrecord
280
     1
270
     1
271
     1
  0
XRECORD
  5
437D
102
{ACAD_REACTORS
330
437C
102
}
330
437C
100
AcDbXrecord
280
     1
270
     1
271
     1
  0
XRECORD
  5
4381
102
{ACAD_REACTORS
330
437C
102
}
330
437C
100
AcDbXrecord
280
     1
270
     1
271
     1
  0
XRECORD
  5
4380
102
{ACAD_REACTORS
330
437C
102
}
330
437C
100
AcDbXrecord
280
     1
270
     1
271
     1
  0
XRECORD
  5
4382
102
{ACAD_REACTORS
330
437C
102
}
330
437C
100
AcDbXrecord
280
     1
270
     1
271
     1
  0
XRECORD
  5
437F
102
{ACAD_REACTORS
330
437C
102
}
330
437C
100
AcDbXrecord
280
     1
270
     1
271
     1
  0
XRECORD
  5
44CA
102
{ACAD_REACTORS
330
4374
102
}
330
4374
100
AcDbXrecord
280
     1
102
MATERIAL
148
0.0
149
0.0
149
0.0
 93
        0
 94
      127
282
     0
 72
     0
 77
     0
171
     0
175
     0
179
     0
273
     0
  0
XRECORD
  5
4376
102
{ACAD_REACTORS
330
4374
102
}
330
4374
100
AcDbXrecord
280
     1
270
     1
271
     1
  0
XRECORD
  5
4375
102
{ACAD_REACTORS
330
4374
102
}
330
4374
100
AcDbXrecord
280
     1
270
     1
271
     1
  0
XRECORD
  5
4379
102
{ACAD_REACTORS
330
4374
102
}
330
4374
100
AcDbXrecord
280
     1
270
     1
271
     1
  0
XRECORD
  5
4378
102
{ACAD_REACTORS
330
4374
102
}
330
4374
100
AcDbXrecord
280
     1
270
     1
271
     1
  0
XRECORD
  5
437A
102
{ACAD_REACTORS
330
4374
102
}
330
4374
100
AcDbXrecord
280
     1
270
     1
271
     1
  0
XRECORD
  5
4377
102
{ACAD_REACTORS
330
4374
102
}
330
4374
100
AcDbXrecord
280
     1
270
     1
271
     1
  0
XRECORD
  5
44CC
102
{ACAD_REACTORS
330
4384
102
}
330
4384
100
AcDbXrecord
280
     1
102
MATERIAL
148
0.0
149
0.0
149
0.0
 93
        0
 94
      127
282
     0
 72
     0
 77
     0
171
     0
175
     0
179
     0
273
     0
  0
XRECORD
  5
4386
102
{ACAD_REACTORS
330
4384
102
}
330
4384
100
AcDbXrecord
280
     1
270
     1
271
     1
  0
XRECORD
  5
4385
102
{ACAD_REACTORS
330
4384
102
}
330
4384
100
AcDbXrecord
280
     1
270
     1
271
     1
  0
XRECORD
  5
4389
102
{ACAD_REACTORS
330
4384
102
}
330
4384
100
AcDbXrecord
280
     1
270
     1
271
     1
  0
XRECORD
  5
4388
102
{ACAD_REACTORS
330
4384
102
}
330
4384
100
AcDbXrecord
280
     1
270
     1
271
     1
  0
XRECORD
  5
438A
102
{ACAD_REACTORS
330
4384
102
}
330
4384
100
AcDbXrecord
280
     1
270
     1
271
     1
  0
XRECORD
  5
4387
102
{ACAD_REACTORS
330
4384
102
}
330
4384
100
AcDbXrecord
280
     1
270
     1
271
     1
  0
XRECORD
  5
44FF
102
{ACAD_REACTORS
330
44FE
102
}
330
44FE
100
AcDbXrecord
280
     1
102
ACAD_ROUNDTRIP_2012_MLEADER_STYLE
298
     1
  0
XRECORD
  5
4501
102
{ACAD_REACTORS
330
4500
102
}
330
4500
100
AcDbXrecord
280
     1
102
DISPLAYNAME
  1
Metric50
102
FLAGS
 90
        0
  0
CELLSTYLEMAP
  5
44B9
102
{ACAD_REACTORS
330
44B8
102
}
330
44B8
100
AcDbCellStyleMap
 90
        3
300
CELLSTYLE
  1
TABLEFORMAT_BEGIN
 90
        5
170
     1
 91
        0
 92
    32768
 62
   257
 93
        1
300
CONTENTFORMAT
  1
CONTENTFORMAT_BEGIN
 90
        0
 91
        0
 92
        4
 93
        0
300

 40
0.0
140
1.0
 94
        5
 62
     0
340
11
144
6.0
309
CONTENTFORMAT_END
171
     1
301
MARGIN
  1
CELLMARGIN_BEGIN
 40
1.5
 40
1.5
 40
1.5
 40
1.5
 40
0.18
 40
0.18
309
CELLMARGIN_END
 94
        6
 95
        1
302
GRIDFORMAT
  1
GRIDFORMAT_BEGIN
 90
        0
 91
        1
 62
     0
 92
       -2
340
0
 93
        0
 40
0.045
309
GRIDFORMAT_END
 95
        2
302
GRIDFORMAT
  1
GRIDFORMAT_BEGIN
 90
        0
 91
        1
 62
     0
 92
       -2
340
0
 93
        0
 40
0.045
309
GRIDFORMAT_END
 95
        4
302
GRIDFORMAT
  1
GRIDFORMAT_BEGIN
 90
        0
 91
        1
 62
     0
 92
       -2
340
0
 93
        0
 40
0.045
309
GRIDFORMAT_END
 95
        8
302
GRIDFORMAT
  1
GRIDFORMAT_BEGIN
 90
        0
 91
        1
 62
     0
 92
       -2
340
0
 93
        0
 40
0.045
309
GRIDFORMAT_END
 95
       16
302
GRIDFORMAT
  1
GRIDFORMAT_BEGIN
 90
        0
 91
        1
 62
     0
 92
       -2
340
0
 93
        0
 40
0.045
309
GRIDFORMAT_END
 95
       32
302
GRIDFORMAT
  1
GRIDFORMAT_BEGIN
 90
        0
 91
        1
 62
     0
 92
       -2
340
0
 93
        0
 40
0.045
309
GRIDFORMAT_END
309
TABLEFORMAT_END
  1
CELLSTYLE_BEGIN
 90
        1
 91
        1
300
_TITLE
309
CELLSTYLE_END
300
CELLSTYLE
  1
TABLEFORMAT_BEGIN
 90
        5
170
     1
 91
        0
 92
        0
 62
   257
 93
        1
300
CONTENTFORMAT
  1
CONTENTFORMAT_BEGIN
 90
        0
 91
        0
 92
        4
 93
        0
300

 40
0.0
140
1.0
 94
        5
 62
     0
340
11
144
4.5
309
CONTENTFORMAT_END
171
     1
301
MARGIN
  1
CELLMARGIN_BEGIN
 40
1.5
 40
1.5
 40
1.5
 40
1.5
 40
0.18
 40
0.18
309
CELLMARGIN_END
 94
        6
 95
        1
302
GRIDFORMAT
  1
GRIDFORMAT_BEGIN
 90
        0
 91
        1
 62
     0
 92
       -2
340
0
 93
        0
 40
0.045
309
GRIDFORMAT_END
 95
        2
302
GRIDFORMAT
  1
GRIDFORMAT_BEGIN
 90
        0
 91
        1
 62
     0
 92
       -2
340
0
 93
        0
 40
0.045
309
GRIDFORMAT_END
 95
        4
302
GRIDFORMAT
  1
GRIDFORMAT_BEGIN
 90
        0
 91
        1
 62
     0
 92
       -2
340
0
 93
        0
 40
0.045
309
GRIDFORMAT_END
 95
        8
302
GRIDFORMAT
  1
GRIDFORMAT_BEGIN
 90
        0
 91
        1
 62
     0
 92
       -2
340
0
 93
        0
 40
0.045
309
GRIDFORMAT_END
 95
       16
302
GRIDFORMAT
  1
GRIDFORMAT_BEGIN
 90
        0
 91
        1
 62
     0
 92
       -2
340
0
 93
        0
 40
0.045
309
GRIDFORMAT_END
 95
       32
302
GRIDFORMAT
  1
GRIDFORMAT_BEGIN
 90
        0
 91
        1
 62
     0
 92
       -2
340
0
 93
        0
 40
0.045
309
GRIDFORMAT_END
309
TABLEFORMAT_END
  1
CELLSTYLE_BEGIN
 90
        2
 91
        1
300
_HEADER
309
CELLSTYLE_END
300
CELLSTYLE
  1
TABLEFORMAT_BEGIN
 90
        5
170
     1
 91
        0
 92
        0
 62
   257
 93
        1
300
CONTENTFORMAT
  1
CONTENTFORMAT_BEGIN
 90
        0
 91
        0
 92
        4
 93
        0
300

 40
0.0
140
1.0
 94
        2
 62
     0
340
11
144
4.5
309
CONTENTFORMAT_END
171
     1
301
MARGIN
  1
CELLMARGIN_BEGIN
 40
1.5
 40
1.5
 40
1.5
 40
1.5
 40
0.18
 40
0.18
309
CELLMARGIN_END
 94
        6
 95
        1
302
GRIDFORMAT
  1
GRIDFORMAT_BEGIN
 90
        0
 91
        1
 62
     0
 92
       -2
340
0
 93
        0
 40
0.045
309
GRIDFORMAT_END
 95
        2
302
GRIDFORMAT
  1
GRIDFORMAT_BEGIN
 90
        0
 91
        1
 62
     0
 92
       -2
340
0
 93
        0
 40
0.045
309
GRIDFORMAT_END
 95
        4
302
GRIDFORMAT
  1
GRIDFORMAT_BEGIN
 90
        0
 91
        1
 62
     0
 92
       -2
340
0
 93
        0
 40
0.045
309
GRIDFORMAT_END
 95
        8
302
GRIDFORMAT
  1
GRIDFORMAT_BEGIN
 90
        0
 91
        1
 62
     0
 92
       -2
340
0
 93
        0
 40
0.045
309
GRIDFORMAT_END
 95
       16
302
GRIDFORMAT
  1
GRIDFORMAT_BEGIN
 90
        0
 91
        1
 62
     0
 92
       -2
340
0
 93
        0
 40
0.045
309
GRIDFORMAT_END
 95
       32
302
GRIDFORMAT
  1
GRIDFORMAT_BEGIN
 90
        0
 91
        1
 62
     0
 92
       -2
340
0
 93
        0
 40
0.045
309
GRIDFORMAT_END
309
TABLEFORMAT_END
  1
CELLSTYLE_BEGIN
 90
        3
 91
        2
300
_DATA
309
CELLSTYLE_END
  0
XRECORD
  5
44BB
102
{ACAD_REACTORS
330
44B8
102
}
330
44B8
100
AcDbXrecord
280
     1
102
ACAD_ROUNDTRIP_PRE2007_TABLESTYLE
 90
        4
 91
        0
  1

 92
        4
 93
        0
  2

 94
        4
 95
        0
  3

  0
XRECORD
  5
44D8
102
{ACAD_REACTORS
330
44D7
102
}
330
44D7
100
AcDbXrecord
280
     1
102
RTVSPost2010Prop28
280
     1
102
RTVSPost2010PropOp28
 70
     1
102
RTVSPost2010Prop29
280
     1
102
RTVSPost2010PropOp29
 70
     1
102
RTVSPost2010Prop30
280
     0
102
RTVSPost2010PropOp30
 70
     1
102
RTVSPost2010Prop31
280
     0
102
RTVSPost2010PropOp31
 70
     1
102
RTVSPost2010Prop32
280
     0
102
RTVSPost2010PropOp32
 70
     1
102
RTVSPost2010Prop33
280
     0
102
RTVSPost2010PropOp33
 70
     1
102
RTVSPost2010Prop34
280
     0
102
RTVSPost2010PropOp34
 70
     1
102
RTVSPost2010Prop35
280
     0
102
RTVSPost2010PropOp35
 70
     1
102
RTVSPost2010Prop36
280
     0
102
RTVSPost2010PropOp36
 70
     1
102
RTVSPost2010Prop37
 90
       50
102
RTVSPost2010PropOp37
 70
     1
102
RTVSPost2010Prop38
140
0.0
102
RTVSPost2010PropOp38
 70
     1
102
RTVSPost2010Prop39
140
1.0
102
RTVSPost2010PropOp39
 70
     1
102
RTVSPost2010Prop40
 90
        0
102
RTVSPost2010PropOp40
 70
     1
102
RTVSPost2010Prop41ColorIndex
 90
       18
102
RTVSPost2010Prop41ColorRGB
 90
        0
102
RTVSPost2010PropOp41
 70
     1
102
RTVSPost2010Prop42
 90
       50
102
RTVSPost2010PropOp42
 70
     1
102
RTVSPost2010Prop43
 90
        3
102
RTVSPost2010PropOp43
 70
     1
102
RTVSPost2010Prop44ColorIndex
 90
        5
102
RTVSPost2010Prop44ColorRGB
 90
      255
102
RTVSPost2010PropOp44
 70
     1
102
RTVSPost2010Prop45
280
     0
102
RTVSPost2010PropOp45
 70
     1
102
RTVSPost2010Prop46
 90
       50
102
RTVSPost2010PropOp46
 70
     1
102
RTVSPost2010Prop47
 90
       50
102
RTVSPost2010PropOp47
 70
     1
102
RTVSPost2010Prop48
 90
       50
102
RTVSPost2010PropOp48
 70
     1
102
RTVSPost2010Prop49
280
     0
102
RTVSPost2010PropOp49
 70
     1
102
RTVSPost2010Prop50
 90
       50
102
RTVSPost2010PropOp50
 70
     1
102
RTVSPost2010Prop51ColorIndex
 90
      256
102
RTVSPost2010Prop51ColorRGB
 90
-16777216
102
RTVSPost2010PropOp51
 70
     0
102
RTVSPost2010Prop52
140
1.0
102
RTVSPost2010PropOp52
 70
     0
102
RTVSPost2010Prop53
 90
        2
102
RTVSPost2010PropOp53
 70
     1
102
RTVSPost2010Prop54
  1
strokes_ogs.tif
102
RTVSPost2010PropOp54
 70
     1
102
RTVSPost2010Prop55
280
     0
102
RTVSPost2010PropOp55
 70
     1
102
RTVSPost2010Prop56
140
1.0
102
RTVSPost2010PropOp56
 70
     1
102
RTVSPost2010Prop57
140
1.0
102
RTVSPost2010PropOp57
 70
     1
102
RTVSPropertyOp0
 70
     1
102
RTVSPropertyOp1
 70
     1
102
RTVSPropertyOp2
 70
     1
102
RTVSPropertyOp3
 70
     1
102
RTVSPropertyOp4
 70
     1
102
RTVSPropertyOp5
 70
     1
102
RTVSPropertyOp6
 70
     1
102
RTVSPropertyOp7
 70
     1
102
RTVSPropertyOp8
 70
     1
102
RTVSPropertyOp9
 70
     1
102
RTVSPropertyOp10
 70
     1
102
RTVSPropertyOp11
 70
     1
102
RTVSPropertyOp12
 70
     1
102
RTVSPropertyOp13
 70
     1
102
RTVSPropertyOp14
 70
     1
102
RTVSPropertyOp15
 70
     1
102
RTVSPropertyOp16
 70
     1
102
RTVSPropertyOp17
 70
     1
102
RTVSPropertyOp18
 70
     1
102
RTVSPropertyOp19
 70
     1
102
RTVSPropertyOp20
 70
     1
102
RTVSPropertyOp21
 70
     1
102
RTVSPropertyOp22
 70
     1
102
RTVSPropertyOp23
 70
     1
102
RTVSPropertyOp24
 70
     1
102
RTVSPropertyOp25
 70
     1
102
RTVSPropertyOp26
 70
     1
102
RTVSPropertyOp27
 70
     1
102
RTVSPropertyOp28
 70
     1
102
RTVSPropertyOp29
 70
     1
102
RTVSPropertyOp30
 70
     1
102
RTVSPropertyOp31
 70
     1
102
RTVSPropertyOp32
 70
     1
102
RTVSPropertyOp33
 70
     1
102
RTVSPropertyOp34
 70
     1
102
RTVSPropertyOp35
 70
     1
102
RTVSPropertyOp36
 70
     1
102
RTVSPropertyOp37
 70
     1
102
RTVSPropertyOp38
 70
     1
102
RTVSPropertyOp39
 70
     1
102
RTVSPropertyOp40
 70
     1
102
RTVSPropertyOp41
 70
     1
102
RTVSPropertyOp42
 70
     1
102
RTVSPropertyOp43
 70
     1
102
RTVSPropertyOp44
 70
     1
102
RTVSPropertyOp45
 70
     1
102
RTVSPropertyOp46
 70
     1
102
RTVSPropertyOp47
 70
     1
102
RTVSPropertyOp48
 70
     1
102
RTVSPropertyOp49
 70
     1
102
RTVSPropertyOp50
 70
     1
102
RTVSPropertyOp51
 70
     0
102
RTVSPropertyOp52
 70
     0
102
RTVSPropertyOp53
 70
     1
102
RTVSPropertyOp54
 70
     1
102
RTVSPropertyOp55
 70
     1
102
RTVSPropertyOp56
 70
     1
102
RTVSPropertyOp57
 70
     1
102
RTVSPropertyOp58
 70
     1
102
RTVSPropertyOp59
 70
     1
102
RTVSPropertyOp60
 70
     1
102
RTVSPropertyOp61
 70
     1
102
RTVSPropertyOp62
 70
     1
  0
XRECORD
  5
44D6
102
{ACAD_REACTORS
330
44D5
102
}
330
44D5
100
AcDbXrecord
280
     1
102
RTVSPost2010Prop28
280
     0
102
RTVSPost2010PropOp28
 70
     1
102
RTVSPost2010Prop29
280
     1
102
RTVSPost2010PropOp29
 70
     1
102
RTVSPost2010Prop30
280
     1
102
RTVSPost2010PropOp30
 70
     1
102
RTVSPost2010Prop31
280
     0
102
RTVSPost2010PropOp31
 70
     1
102
RTVSPost2010Prop32
280
     0
102
RTVSPost2010PropOp32
 70
     1
102
RTVSPost2010Prop33
280
     0
102
RTVSPost2010PropOp33
 70
     1
102
RTVSPost2010Prop34
280
     0
102
RTVSPost2010PropOp34
 70
     1
102
RTVSPost2010Prop35
280
     0
102
RTVSPost2010PropOp35
 70
     1
102
RTVSPost2010Prop36
280
     0
102
RTVSPost2010PropOp36
 70
     1
102
RTVSPost2010Prop37
 90
       50
102
RTVSPost2010PropOp37
 70
     1
102
RTVSPost2010Prop38
140
0.0
102
RTVSPost2010PropOp38
 70
     1
102
RTVSPost2010Prop39
140
1.0
102
RTVSPost2010PropOp39
 70
     1
102
RTVSPost2010Prop40
 90
        0
102
RTVSPost2010PropOp40
 70
     1
102
RTVSPost2010Prop41ColorIndex
 90
       18
102
RTVSPost2010Prop41ColorRGB
 90
        0
102
RTVSPost2010PropOp41
 70
     1
102
RTVSPost2010Prop42
 90
       50
102
RTVSPost2010PropOp42
 70
     1
102
RTVSPost2010Prop43
 90
        3
102
RTVSPost2010PropOp43
 70
     1
102
RTVSPost2010Prop44ColorIndex
 90
        5
102
RTVSPost2010Prop44ColorRGB
 90
      255
102
RTVSPost2010PropOp44
 70
     1
102
RTVSPost2010Prop45
280
     0
102
RTVSPost2010PropOp45
 70
     1
102
RTVSPost2010Prop46
 90
       50
102
RTVSPost2010PropOp46
 70
     1
102
RTVSPost2010Prop47
 90
       50
102
RTVSPost2010PropOp47
 70
     1
102
RTVSPost2010Prop48
 90
       50
102
RTVSPost2010PropOp48
 70
     1
102
RTVSPost2010Prop49
280
     0
102
RTVSPost2010PropOp49
 70
     1
102
RTVSPost2010Prop50
 90
       50
102
RTVSPost2010PropOp50
 70
     1
102
RTVSPost2010Prop51ColorIndex
 90
      256
102
RTVSPost2010Prop51ColorRGB
 90
-16777216
102
RTVSPost2010PropOp51
 70
     0
102
RTVSPost2010Prop52
140
1.0
102
RTVSPost2010PropOp52
 70
     0
102
RTVSPost2010Prop53
 90
        2
102
RTVSPost2010PropOp53
 70
     1
102
RTVSPost2010Prop54
  1
strokes_ogs.tif
102
RTVSPost2010PropOp54
 70
     1
102
RTVSPost2010Prop55
280
     0
102
RTVSPost2010PropOp55
 70
     1
102
RTVSPost2010Prop56
140
1.0
102
RTVSPost2010PropOp56
 70
     1
102
RTVSPost2010Prop57
140
1.0
102
RTVSPost2010PropOp57
 70
     1
102
RTVSPropertyOp0
 70
     1
102
RTVSPropertyOp1
 70
     1
102
RTVSPropertyOp2
 70
     1
102
RTVSPropertyOp3
 70
     1
102
RTVSPropertyOp4
 70
     1
102
RTVSPropertyOp5
 70
     1
102
RTVSPropertyOp6
 70
     1
102
RTVSPropertyOp7
 70
     1
102
RTVSPropertyOp8
 70
     1
102
RTVSPropertyOp9
 70
     1
102
RTVSPropertyOp10
 70
     1
102
RTVSPropertyOp11
 70
     1
102
RTVSPropertyOp12
 70
     1
102
RTVSPropertyOp13
 70
     1
102
RTVSPropertyOp14
 70
     1
102
RTVSPropertyOp15
 70
     1
102
RTVSPropertyOp16
 70
     1
102
RTVSPropertyOp17
 70
     1
102
RTVSPropertyOp18
 70
     1
102
RTVSPropertyOp19
 70
     1
102
RTVSPropertyOp20
 70
     1
102
RTVSPropertyOp21
 70
     1
102
RTVSPropertyOp22
 70
     1
102
RTVSPropertyOp23
 70
     1
102
RTVSPropertyOp24
 70
     1
102
RTVSPropertyOp25
 70
     1
102
RTVSPropertyOp26
 70
     1
102
RTVSPropertyOp27
 70
     1
102
RTVSPropertyOp28
 70
     1
102
RTVSPropertyOp29
 70
     1
102
RTVSPropertyOp30
 70
     1
102
RTVSPropertyOp31
 70
     1
102
RTVSPropertyOp32
 70
     1
102
RTVSPropertyOp33
 70
     1
102
RTVSPropertyOp34
 70
     1
102
RTVSPropertyOp35
 70
     1
102
RTVSPropertyOp36
 70
     1
102
RTVSPropertyOp37
 70
     1
102
RTVSPropertyOp38
 70
     1
102
RTVSPropertyOp39
 70
     1
102
RTVSPropertyOp40
 70
     1
102
RTVSPropertyOp41
 70
     1
102
RTVSPropertyOp42
 70
     1
102
RTVSPropertyOp43
 70
     1
102
RTVSPropertyOp44
 70
     1
102
RTVSPropertyOp45
 70
     1
102
RTVSPropertyOp46
 70
     1
102
RTVSPropertyOp47
 70
     1
102
RTVSPropertyOp48
 70
     1
102
RTVSPropertyOp49
 70
     1
102
RTVSPropertyOp50
 70
     1
102
RTVSPropertyOp51
 70
     0
102
RTVSPropertyOp52
 70
     0
102
RTVSPropertyOp53
 70
     1
102
RTVSPropertyOp54
 70
     1
102
RTVSPropertyOp55
 70
     1
102
RTVSPropertyOp56
 70
     1
102
RTVSPropertyOp57
 70
     1
102
RTVSPropertyOp58
 70
     1
102
RTVSPropertyOp59
 70
     1
102
RTVSPropertyOp60
 70
     1
102
RTVSPropertyOp61
 70
     1
102
RTVSPropertyOp62
 70
     1
  0
XRECORD
  5
44E4
102
{ACAD_REACTORS
330
44E3
102
}
330
44E3
100
AcDbXrecord
280
     1
102
RTVSPost2010Prop28
280
     0
102
RTVSPost2010PropOp28
 70
     1
102
RTVSPost2010Prop29
280
     1
102
RTVSPost2010PropOp29
 70
     1
102
RTVSPost2010Prop30
280
     1
102
RTVSPost2010PropOp30
 70
     1
102
RTVSPost2010Prop31
280
     0
102
RTVSPost2010PropOp31
 70
     1
102
RTVSPost2010Prop32
280
     0
102
RTVSPost2010PropOp32
 70
     1
102
RTVSPost2010Prop33
280
     0
102
RTVSPost2010PropOp33
 70
     1
102
RTVSPost2010Prop34
280
     0
102
RTVSPost2010PropOp34
 70
     1
102
RTVSPost2010Prop35
280
     0
102
RTVSPost2010PropOp35
 70
     1
102
RTVSPost2010Prop36
280
     0
102
RTVSPost2010PropOp36
 70
     1
102
RTVSPost2010Prop37
 90
       50
102
RTVSPost2010PropOp37
 70
     1
102
RTVSPost2010Prop38
140
0.0
102
RTVSPost2010PropOp38
 70
     1
102
RTVSPost2010Prop39
140
1.0
102
RTVSPost2010PropOp39
 70
     1
102
RTVSPost2010Prop40
 90
        0
102
RTVSPost2010PropOp40
 70
     1
102
RTVSPost2010Prop41ColorIndex
 90
       18
102
RTVSPost2010Prop41ColorRGB
 90
        0
102
RTVSPost2010PropOp41
 70
     1
102
RTVSPost2010Prop42
 90
       50
102
RTVSPost2010PropOp42
 70
     1
102
RTVSPost2010Prop43
 90
        3
102
RTVSPost2010PropOp43
 70
     1
102
RTVSPost2010Prop44ColorIndex
 90
        5
102
RTVSPost2010Prop44ColorRGB
 90
      255
102
RTVSPost2010PropOp44
 70
     1
102
RTVSPost2010Prop45
280
     0
102
RTVSPost2010PropOp45
 70
     1
102
RTVSPost2010Prop46
 90
       50
102
RTVSPost2010PropOp46
 70
     1
102
RTVSPost2010Prop47
 90
       50
102
RTVSPost2010PropOp47
 70
     1
102
RTVSPost2010Prop48
 90
       50
102
RTVSPost2010PropOp48
 70
     1
102
RTVSPost2010Prop49
280
     0
102
RTVSPost2010PropOp49
 70
     1
102
RTVSPost2010Prop50
 90
       50
102
RTVSPost2010PropOp50
 70
     1
102
RTVSPost2010Prop51ColorIndex
 90
      256
102
RTVSPost2010Prop51ColorRGB
 90
-16777216
102
RTVSPost2010PropOp51
 70
     0
102
RTVSPost2010Prop52
140
1.0
102
RTVSPost2010PropOp52
 70
     0
102
RTVSPost2010Prop53
 90
        2
102
RTVSPost2010PropOp53
 70
     1
102
RTVSPost2010Prop54
  1
strokes_ogs.tif
102
RTVSPost2010PropOp54
 70
     1
102
RTVSPost2010Prop55
280
     0
102
RTVSPost2010PropOp55
 70
     1
102
RTVSPost2010Prop56
140
1.0
102
RTVSPost2010PropOp56
 70
     1
102
RTVSPost2010Prop57
140
1.0
102
RTVSPost2010PropOp57
 70
     1
102
RTVSPropertyOp0
 70
     1
102
RTVSPropertyOp1
 70
     1
102
RTVSPropertyOp2
 70
     1
102
RTVSPropertyOp3
 70
     1
102
RTVSPropertyOp4
 70
     1
102
RTVSPropertyOp5
 70
     1
102
RTVSPropertyOp6
 70
     1
102
RTVSPropertyOp7
 70
     1
102
RTVSPropertyOp8
 70
     1
102
RTVSPropertyOp9
 70
     1
102
RTVSPropertyOp10
 70
     1
102
RTVSPropertyOp11
 70
     1
102
RTVSPropertyOp12
 70
     1
102
RTVSPropertyOp13
 70
     1
102
RTVSPropertyOp14
 70
     1
102
RTVSPropertyOp15
 70
     1
102
RTVSPropertyOp16
 70
     1
102
RTVSPropertyOp17
 70
     1
102
RTVSPropertyOp18
 70
     1
102
RTVSPropertyOp19
 70
     1
102
RTVSPropertyOp20
 70
     1
102
RTVSPropertyOp21
 70
     1
102
RTVSPropertyOp22
 70
     1
102
RTVSPropertyOp23
 70
     1
102
RTVSPropertyOp24
 70
     1
102
RTVSPropertyOp25
 70
     1
102
RTVSPropertyOp26
 70
     1
102
RTVSPropertyOp27
 70
     1
102
RTVSPropertyOp28
 70
     1
102
RTVSPropertyOp29
 70
     1
102
RTVSPropertyOp30
 70
     1
102
RTVSPropertyOp31
 70
     1
102
RTVSPropertyOp32
 70
     1
102
RTVSPropertyOp33
 70
     1
102
RTVSPropertyOp34
 70
     1
102
RTVSPropertyOp35
 70
     1
102
RTVSPropertyOp36
 70
     1
102
RTVSPropertyOp37
 70
     1
102
RTVSPropertyOp38
 70
     1
102
RTVSPropertyOp39
 70
     1
102
RTVSPropertyOp40
 70
     1
102
RTVSPropertyOp41
 70
     1
102
RTVSPropertyOp42
 70
     1
102
RTVSPropertyOp43
 70
     1
102
RTVSPropertyOp44
 70
     1
102
RTVSPropertyOp45
 70
     1
102
RTVSPropertyOp46
 70
     1
102
RTVSPropertyOp47
 70
     1
102
RTVSPropertyOp48
 70
     1
102
RTVSPropertyOp49
 70
     1
102
RTVSPropertyOp50
 70
     1
102
RTVSPropertyOp51
 70
     0
102
RTVSPropertyOp52
 70
     0
102
RTVSPropertyOp53
 70
     1
102
RTVSPropertyOp54
 70
     1
102
RTVSPropertyOp55
 70
     1
102
RTVSPropertyOp56
 70
     1
102
RTVSPropertyOp57
 70
     1
102
RTVSPropertyOp58
 70
     1
102
RTVSPropertyOp59
 70
     1
102
RTVSPropertyOp60
 70
     1
102
RTVSPropertyOp61
 70
     1
102
RTVSPropertyOp62
 70
     1
  0
XRECORD
  5
44EC
102
{ACAD_REACTORS
330
44EB
102
}
330
44EB
100
AcDbXrecord
280
     1
102
RTVSPost2010Prop28
280
     0
102
RTVSPost2010PropOp28
 70
     1
102
RTVSPost2010Prop29
280
     1
102
RTVSPost2010PropOp29
 70
     1
102
RTVSPost2010Prop30
280
     1
102
RTVSPost2010PropOp30
 70
     1
102
RTVSPost2010Prop31
280
     0
102
RTVSPost2010PropOp31
 70
     1
102
RTVSPost2010Prop32
280
     0
102
RTVSPost2010PropOp32
 70
     1
102
RTVSPost2010Prop33
280
     0
102
RTVSPost2010PropOp33
 70
     1
102
RTVSPost2010Prop34
280
     0
102
RTVSPost2010PropOp34
 70
     1
102
RTVSPost2010Prop35
280
     0
102
RTVSPost2010PropOp35
 70
     1
102
RTVSPost2010Prop36
280
     0
102
RTVSPost2010PropOp36
 70
     1
102
RTVSPost2010Prop37
 90
       50
102
RTVSPost2010PropOp37
 70
     1
102
RTVSPost2010Prop38
140
0.0
102
RTVSPost2010PropOp38
 70
     1
102
RTVSPost2010Prop39
140
1.0
102
RTVSPost2010PropOp39
 70
     1
102
RTVSPost2010Prop40
 90
        0
102
RTVSPost2010PropOp40
 70
     1
102
RTVSPost2010Prop41ColorIndex
 90
       18
102
RTVSPost2010Prop41ColorRGB
 90
        0
102
RTVSPost2010PropOp41
 70
     1
102
RTVSPost2010Prop42
 90
       50
102
RTVSPost2010PropOp42
 70
     1
102
RTVSPost2010Prop43
 90
        3
102
RTVSPost2010PropOp43
 70
     1
102
RTVSPost2010Prop44ColorIndex
 90
        5
102
RTVSPost2010Prop44ColorRGB
 90
      255
102
RTVSPost2010PropOp44
 70
     1
102
RTVSPost2010Prop45
280
     0
102
RTVSPost2010PropOp45
 70
     1
102
RTVSPost2010Prop46
 90
       50
102
RTVSPost2010PropOp46
 70
     1
102
RTVSPost2010Prop47
 90
       50
102
RTVSPost2010PropOp47
 70
     1
102
RTVSPost2010Prop48
 90
       50
102
RTVSPost2010PropOp48
 70
     1
102
RTVSPost2010Prop49
280
     0
102
RTVSPost2010PropOp49
 70
     1
102
RTVSPost2010Prop50
 90
       50
102
RTVSPost2010PropOp50
 70
     1
102
RTVSPost2010Prop51ColorIndex
 90
      256
102
RTVSPost2010Prop51ColorRGB
 90
-16777216
102
RTVSPost2010PropOp51
 70
     0
102
RTVSPost2010Prop52
140
1.0
102
RTVSPost2010PropOp52
 70
     0
102
RTVSPost2010Prop53
 90
        2
102
RTVSPost2010PropOp53
 70
     1
102
RTVSPost2010Prop54
  1
strokes_ogs.tif
102
RTVSPost2010PropOp54
 70
     1
102
RTVSPost2010Prop55
280
     0
102
RTVSPost2010PropOp55
 70
     1
102
RTVSPost2010Prop56
140
1.0
102
RTVSPost2010PropOp56
 70
     1
102
RTVSPost2010Prop57
140
1.0
102
RTVSPost2010PropOp57
 70
     1
102
RTVSPropertyOp0
 70
     1
102
RTVSPropertyOp1
 70
     1
102
RTVSPropertyOp2
 70
     1
102
RTVSPropertyOp3
 70
     1
102
RTVSPropertyOp4
 70
     1
102
RTVSPropertyOp5
 70
     1
102
RTVSPropertyOp6
 70
     1
102
RTVSPropertyOp7
 70
     1
102
RTVSPropertyOp8
 70
     1
102
RTVSPropertyOp9
 70
     1
102
RTVSPropertyOp10
 70
     1
102
RTVSPropertyOp11
 70
     1
102
RTVSPropertyOp12
 70
     1
102
RTVSPropertyOp13
 70
     1
102
RTVSPropertyOp14
 70
     1
102
RTVSPropertyOp15
 70
     1
102
RTVSPropertyOp16
 70
     1
102
RTVSPropertyOp17
 70
     1
102
RTVSPropertyOp18
 70
     1
102
RTVSPropertyOp19
 70
     1
102
RTVSPropertyOp20
 70
     1
102
RTVSPropertyOp21
 70
     1
102
RTVSPropertyOp22
 70
     1
102
RTVSPropertyOp23
 70
     1
102
RTVSPropertyOp24
 70
     1
102
RTVSPropertyOp25
 70
     1
102
RTVSPropertyOp26
 70
     1
102
RTVSPropertyOp27
 70
     1
102
RTVSPropertyOp28
 70
     1
102
RTVSPropertyOp29
 70
     1
102
RTVSPropertyOp30
 70
     1
102
RTVSPropertyOp31
 70
     1
102
RTVSPropertyOp32
 70
     1
102
RTVSPropertyOp33
 70
     1
102
RTVSPropertyOp34
 70
     1
102
RTVSPropertyOp35
 70
     1
102
RTVSPropertyOp36
 70
     1
102
RTVSPropertyOp37
 70
     1
102
RTVSPropertyOp38
 70
     1
102
RTVSPropertyOp39
 70
     1
102
RTVSPropertyOp40
 70
     1
102
RTVSPropertyOp41
 70
     1
102
RTVSPropertyOp42
 70
     1
102
RTVSPropertyOp43
 70
     1
102
RTVSPropertyOp44
 70
     1
102
RTVSPropertyOp45
 70
     1
102
RTVSPropertyOp46
 70
     1
102
RTVSPropertyOp47
 70
     1
102
RTVSPropertyOp48
 70
     1
102
RTVSPropertyOp49
 70
     1
102
RTVSPropertyOp50
 70
     1
102
RTVSPropertyOp51
 70
     0
102
RTVSPropertyOp52
 70
     0
102
RTVSPropertyOp53
 70
     1
102
RTVSPropertyOp54
 70
     1
102
RTVSPropertyOp55
 70
     1
102
RTVSPropertyOp56
 70
     1
102
RTVSPropertyOp57
 70
     1
102
RTVSPropertyOp58
 70
     1
102
RTVSPropertyOp59
 70
     1
102
RTVSPropertyOp60
 70
     1
102
RTVSPropertyOp61
 70
     1
102
RTVSPropertyOp62
 70
     1
  0
XRECORD
  5
44DE
102
{ACAD_REACTORS
330
44DD
102
}
330
44DD
100
AcDbXrecord
280
     1
102
RTVSPost2010Prop28
280
     0
102
RTVSPost2010PropOp28
 70
     1
102
RTVSPost2010Prop29
280
     1
102
RTVSPost2010PropOp29
 70
     1
102
RTVSPost2010Prop30
280
     1
102
RTVSPost2010PropOp30
 70
     1
102
RTVSPost2010Prop31
280
     0
102
RTVSPost2010PropOp31
 70
     1
102
RTVSPost2010Prop32
280
     0
102
RTVSPost2010PropOp32
 70
     1
102
RTVSPost2010Prop33
280
     0
102
RTVSPost2010PropOp33
 70
     1
102
RTVSPost2010Prop34
280
     0
102
RTVSPost2010PropOp34
 70
     1
102
RTVSPost2010Prop35
280
     0
102
RTVSPost2010PropOp35
 70
     1
102
RTVSPost2010Prop36
280
     0
102
RTVSPost2010PropOp36
 70
     1
102
RTVSPost2010Prop37
 90
       50
102
RTVSPost2010PropOp37
 70
     1
102
RTVSPost2010Prop38
140
0.0
102
RTVSPost2010PropOp38
 70
     1
102
RTVSPost2010Prop39
140
1.0
102
RTVSPost2010PropOp39
 70
     1
102
RTVSPost2010Prop40
 90
        0
102
RTVSPost2010PropOp40
 70
     1
102
RTVSPost2010Prop41ColorIndex
 90
       18
102
RTVSPost2010Prop41ColorRGB
 90
        0
102
RTVSPost2010PropOp41
 70
     1
102
RTVSPost2010Prop42
 90
       50
102
RTVSPost2010PropOp42
 70
     1
102
RTVSPost2010Prop43
 90
        3
102
RTVSPost2010PropOp43
 70
     1
102
RTVSPost2010Prop44ColorIndex
 90
        5
102
RTVSPost2010Prop44ColorRGB
 90
      255
102
RTVSPost2010PropOp44
 70
     1
102
RTVSPost2010Prop45
280
     0
102
RTVSPost2010PropOp45
 70
     1
102
RTVSPost2010Prop46
 90
       50
102
RTVSPost2010PropOp46
 70
     1
102
RTVSPost2010Prop47
 90
       50
102
RTVSPost2010PropOp47
 70
     1
102
RTVSPost2010Prop48
 90
       50
102
RTVSPost2010PropOp48
 70
     1
102
RTVSPost2010Prop49
280
     0
102
RTVSPost2010PropOp49
 70
     1
102
RTVSPost2010Prop50
 90
       50
102
RTVSPost2010PropOp50
 70
     1
102
RTVSPost2010Prop51ColorIndex
 90
      256
102
RTVSPost2010Prop51ColorRGB
 90
-16777216
102
RTVSPost2010PropOp51
 70
     0
102
RTVSPost2010Prop52
140
1.0
102
RTVSPost2010PropOp52
 70
     0
102
RTVSPost2010Prop53
 90
        2
102
RTVSPost2010PropOp53
 70
     1
102
RTVSPost2010Prop54
  1
strokes_ogs.tif
102
RTVSPost2010PropOp54
 70
     1
102
RTVSPost2010Prop55
280
     0
102
RTVSPost2010PropOp55
 70
     1
102
RTVSPost2010Prop56
140
1.0
102
RTVSPost2010PropOp56
 70
     1
102
RTVSPost2010Prop57
140
1.0
102
RTVSPost2010PropOp57
 70
     1
102
RTVSPropertyOp0
 70
     1
102
RTVSPropertyOp1
 70
     1
102
RTVSPropertyOp2
 70
     1
102
RTVSPropertyOp3
 70
     1
102
RTVSPropertyOp4
 70
     1
102
RTVSPropertyOp5
 70
     1
102
RTVSPropertyOp6
 70
     1
102
RTVSPropertyOp7
 70
     1
102
RTVSPropertyOp8
 70
     1
102
RTVSPropertyOp9
 70
     1
102
RTVSPropertyOp10
 70
     1
102
RTVSPropertyOp11
 70
     1
102
RTVSPropertyOp12
 70
     1
102
RTVSPropertyOp13
 70
     1
102
RTVSPropertyOp14
 70
     1
102
RTVSPropertyOp15
 70
     1
102
RTVSPropertyOp16
 70
     1
102
RTVSPropertyOp17
 70
     1
102
RTVSPropertyOp18
 70
     1
102
RTVSPropertyOp19
 70
     1
102
RTVSPropertyOp20
 70
     1
102
RTVSPropertyOp21
 70
     1
102
RTVSPropertyOp22
 70
     1
102
RTVSPropertyOp23
 70
     1
102
RTVSPropertyOp24
 70
     1
102
RTVSPropertyOp25
 70
     1
102
RTVSPropertyOp26
 70
     1
102
RTVSPropertyOp27
 70
     1
102
RTVSPropertyOp28
 70
     1
102
RTVSPropertyOp29
 70
     1
102
RTVSPropertyOp30
 70
     1
102
RTVSPropertyOp31
 70
     1
102
RTVSPropertyOp32
 70
     1
102
RTVSPropertyOp33
 70
     1
102
RTVSPropertyOp34
 70
     1
102
RTVSPropertyOp35
 70
     1
102
RTVSPropertyOp36
 70
     1
102
RTVSPropertyOp37
 70
     1
102
RTVSPropertyOp38
 70
     1
102
RTVSPropertyOp39
 70
     1
102
RTVSPropertyOp40
 70
     1
102
RTVSPropertyOp41
 70
     1
102
RTVSPropertyOp42
 70
     1
102
RTVSPropertyOp43
 70
     1
102
RTVSPropertyOp44
 70
     1
102
RTVSPropertyOp45
 70
     1
102
RTVSPropertyOp46
 70
     1
102
RTVSPropertyOp47
 70
     1
102
RTVSPropertyOp48
 70
     1
102
RTVSPropertyOp49
 70
     1
102
RTVSPropertyOp50
 70
     1
102
RTVSPropertyOp51
 70
     0
102
RTVSPropertyOp52
 70
     0
102
RTVSPropertyOp53
 70
     1
102
RTVSPropertyOp54
 70
     1
102
RTVSPropertyOp55
 70
     1
102
RTVSPropertyOp56
 70
     1
102
RTVSPropertyOp57
 70
     1
102
RTVSPropertyOp58
 70
     1
102
RTVSPropertyOp59
 70
     1
102
RTVSPropertyOp60
 70
     1
102
RTVSPropertyOp61
 70
     1
102
RTVSPropertyOp62
 70
     1
  0
XRECORD
  5
44E2
102
{ACAD_REACTORS
330
44E1
102
}
330
44E1
100
AcDbXrecord
280
     1
102
RTVSPost2010Prop28
280
     0
102
RTVSPost2010PropOp28
 70
     1
102
RTVSPost2010Prop29
280
     1
102
RTVSPost2010PropOp29
 70
     1
102
RTVSPost2010Prop30
280
     1
102
RTVSPost2010PropOp30
 70
     1
102
RTVSPost2010Prop31
280
     0
102
RTVSPost2010PropOp31
 70
     1
102
RTVSPost2010Prop32
280
     0
102
RTVSPost2010PropOp32
 70
     1
102
RTVSPost2010Prop33
280
     0
102
RTVSPost2010PropOp33
 70
     1
102
RTVSPost2010Prop34
280
     0
102
RTVSPost2010PropOp34
 70
     1
102
RTVSPost2010Prop35
280
     0
102
RTVSPost2010PropOp35
 70
     1
102
RTVSPost2010Prop36
280
     0
102
RTVSPost2010PropOp36
 70
     1
102
RTVSPost2010Prop37
 90
       50
102
RTVSPost2010PropOp37
 70
     1
102
RTVSPost2010Prop38
140
0.0
102
RTVSPost2010PropOp38
 70
     1
102
RTVSPost2010Prop39
140
1.0
102
RTVSPost2010PropOp39
 70
     1
102
RTVSPost2010Prop40
 90
        0
102
RTVSPost2010PropOp40
 70
     1
102
RTVSPost2010Prop41ColorIndex
 90
       18
102
RTVSPost2010Prop41ColorRGB
 90
        0
102
RTVSPost2010PropOp41
 70
     1
102
RTVSPost2010Prop42
 90
       50
102
RTVSPost2010PropOp42
 70
     1
102
RTVSPost2010Prop43
 90
        3
102
RTVSPost2010PropOp43
 70
     1
102
RTVSPost2010Prop44ColorIndex
 90
        5
102
RTVSPost2010Prop44ColorRGB
 90
      255
102
RTVSPost2010PropOp44
 70
     1
102
RTVSPost2010Prop45
280
     0
102
RTVSPost2010PropOp45
 70
     1
102
RTVSPost2010Prop46
 90
       50
102
RTVSPost2010PropOp46
 70
     1
102
RTVSPost2010Prop47
 90
       50
102
RTVSPost2010PropOp47
 70
     1
102
RTVSPost2010Prop48
 90
       50
102
RTVSPost2010PropOp48
 70
     1
102
RTVSPost2010Prop49
280
     0
102
RTVSPost2010PropOp49
 70
     1
102
RTVSPost2010Prop50
 90
       50
102
RTVSPost2010PropOp50
 70
     1
102
RTVSPost2010Prop51ColorIndex
 90
      256
102
RTVSPost2010Prop51ColorRGB
 90
-16777216
102
RTVSPost2010PropOp51
 70
     0
102
RTVSPost2010Prop52
140
1.0
102
RTVSPost2010PropOp52
 70
     0
102
RTVSPost2010Prop53
 90
        2
102
RTVSPost2010PropOp53
 70
     1
102
RTVSPost2010Prop54
  1
strokes_ogs.tif
102
RTVSPost2010PropOp54
 70
     1
102
RTVSPost2010Prop55
280
     0
102
RTVSPost2010PropOp55
 70
     1
102
RTVSPost2010Prop56
140
1.0
102
RTVSPost2010PropOp56
 70
     1
102
RTVSPost2010Prop57
140
1.0
102
RTVSPost2010PropOp57
 70
     1
102
RTVSPropertyOp0
 70
     1
102
RTVSPropertyOp1
 70
     1
102
RTVSPropertyOp2
 70
     1
102
RTVSPropertyOp3
 70
     1
102
RTVSPropertyOp4
 70
     1
102
RTVSPropertyOp5
 70
     1
102
RTVSPropertyOp6
 70
     1
102
RTVSPropertyOp7
 70
     1
102
RTVSPropertyOp8
 70
     1
102
RTVSPropertyOp9
 70
     1
102
RTVSPropertyOp10
 70
     1
102
RTVSPropertyOp11
 70
     1
102
RTVSPropertyOp12
 70
     1
102
RTVSPropertyOp13
 70
     1
102
RTVSPropertyOp14
 70
     1
102
RTVSPropertyOp15
 70
     1
102
RTVSPropertyOp16
 70
     1
102
RTVSPropertyOp17
 70
     1
102
RTVSPropertyOp18
 70
     1
102
RTVSPropertyOp19
 70
     1
102
RTVSPropertyOp20
 70
     1
102
RTVSPropertyOp21
 70
     1
102
RTVSPropertyOp22
 70
     1
102
RTVSPropertyOp23
 70
     1
102
RTVSPropertyOp24
 70
     1
102
RTVSPropertyOp25
 70
     1
102
RTVSPropertyOp26
 70
     1
102
RTVSPropertyOp27
 70
     1
102
RTVSPropertyOp28
 70
     1
102
RTVSPropertyOp29
 70
     1
102
RTVSPropertyOp30
 70
     1
102
RTVSPropertyOp31
 70
     1
102
RTVSPropertyOp32
 70
     1
102
RTVSPropertyOp33
 70
     1
102
RTVSPropertyOp34
 70
     1
102
RTVSPropertyOp35
 70
     1
102
RTVSPropertyOp36
 70
     1
102
RTVSPropertyOp37
 70
     1
102
RTVSPropertyOp38
 70
     1
102
RTVSPropertyOp39
 70
     1
102
RTVSPropertyOp40
 70
     1
102
RTVSPropertyOp41
 70
     1
102
RTVSPropertyOp42
 70
     1
102
RTVSPropertyOp43
 70
     1
102
RTVSPropertyOp44
 70
     1
102
RTVSPropertyOp45
 70
     1
102
RTVSPropertyOp46
 70
     1
102
RTVSPropertyOp47
 70
     1
102
RTVSPropertyOp48
 70
     1
102
RTVSPropertyOp49
 70
     1
102
RTVSPropertyOp50
 70
     1
102
RTVSPropertyOp51
 70
     0
102
RTVSPropertyOp52
 70
     0
102
RTVSPropertyOp53
 70
     1
102
RTVSPropertyOp54
 70
     1
102
RTVSPropertyOp55
 70
     1
102
RTVSPropertyOp56
 70
     1
102
RTVSPropertyOp57
 70
     1
102
RTVSPropertyOp58
 70
     1
102
RTVSPropertyOp59
 70
     1
102
RTVSPropertyOp60
 70
     1
102
RTVSPropertyOp61
 70
     1
102
RTVSPropertyOp62
 70
     1
  0
XRECORD
  5
44FC
102
{ACAD_REACTORS
330
44FB
102
}
330
44FB
100
AcDbXrecord
280
     1
102
RTVSPost2010Prop28
280
     0
102
RTVSPost2010PropOp28
 70
     0
102
RTVSPost2010Prop29
280
     1
102
RTVSPost2010PropOp29
 70
     0
102
RTVSPost2010Prop30
280
     1
102
RTVSPost2010PropOp30
 70
     0
102
RTVSPost2010Prop31
280
     0
102
RTVSPost2010PropOp31
 70
     0
102
RTVSPost2010Prop32
280
     0
102
RTVSPost2010PropOp32
 70
     0
102
RTVSPost2010Prop33
280
     0
102
RTVSPost2010PropOp33
 70
     0
102
RTVSPost2010Prop34
280
     0
102
RTVSPost2010PropOp34
 70
     0
102
RTVSPost2010Prop35
280
     0
102
RTVSPost2010PropOp35
 70
     0
102
RTVSPost2010Prop36
280
     0
102
RTVSPost2010PropOp36
 70
     0
102
RTVSPost2010Prop37
 90
       50
102
RTVSPost2010PropOp37
 70
     0
102
RTVSPost2010Prop38
140
0.0
102
RTVSPost2010PropOp38
 70
     0
102
RTVSPost2010Prop39
140
1.0
102
RTVSPost2010PropOp39
 70
     0
102
RTVSPost2010Prop40
 90
        0
102
RTVSPost2010PropOp40
 70
     0
102
RTVSPost2010Prop41ColorIndex
 90
       18
102
RTVSPost2010Prop41ColorRGB
 90
        0
102
RTVSPost2010PropOp41
 70
     0
102
RTVSPost2010Prop42
 90
       50
102
RTVSPost2010PropOp42
 70
     0
102
RTVSPost2010Prop43
 90
        3
102
RTVSPost2010PropOp43
 70
     0
102
RTVSPost2010Prop44ColorIndex
 90
        5
102
RTVSPost2010Prop44ColorRGB
 90
      255
102
RTVSPost2010PropOp44
 70
     0
102
RTVSPost2010Prop45
280
     0
102
RTVSPost2010PropOp45
 70
     0
102
RTVSPost2010Prop46
 90
       50
102
RTVSPost2010PropOp46
 70
     0
102
RTVSPost2010Prop47
 90
       50
102
RTVSPost2010PropOp47
 70
     0
102
RTVSPost2010Prop48
 90
       50
102
RTVSPost2010PropOp48
 70
     0
102
RTVSPost2010Prop49
280
     0
102
RTVSPost2010PropOp49
 70
     0
102
RTVSPost2010Prop50
 90
       50
102
RTVSPost2010PropOp50
 70
     0
102
RTVSPost2010Prop51ColorIndex
 90
      256
102
RTVSPost2010Prop51ColorRGB
 90
-16777216
102
RTVSPost2010PropOp51
 70
     0
102
RTVSPost2010Prop52
140
1.0
102
RTVSPost2010PropOp52
 70
     0
102
RTVSPost2010Prop53
 90
        2
102
RTVSPost2010PropOp53
 70
     0
102
RTVSPost2010Prop54
  1
strokes_ogs.tif
102
RTVSPost2010PropOp54
 70
     0
102
RTVSPost2010Prop55
280
     0
102
RTVSPost2010PropOp55
 70
     0
102
RTVSPost2010Prop56
140
1.0
102
RTVSPost2010PropOp56
 70
     0
102
RTVSPost2010Prop57
140
1.0
102
RTVSPost2010PropOp57
 70
     0
102
RTVSPropertyOp0
 70
     0
102
RTVSPropertyOp1
 70
     0
102
RTVSPropertyOp2
 70
     0
102
RTVSPropertyOp3
 70
     0
102
RTVSPropertyOp4
 70
     0
102
RTVSPropertyOp5
 70
     0
102
RTVSPropertyOp6
 70
     0
102
RTVSPropertyOp7
 70
     0
102
RTVSPropertyOp8
 70
     0
102
RTVSPropertyOp9
 70
     0
102
RTVSPropertyOp10
 70
     0
102
RTVSPropertyOp11
 70
     0
102
RTVSPropertyOp12
 70
     0
102
RTVSPropertyOp13
 70
     0
102
RTVSPropertyOp14
 70
     2
102
RTVSPropertyOp15
 70
     0
102
RTVSPropertyOp16
 70
     0
102
RTVSPropertyOp17
 70
     0
102
RTVSPropertyOp18
 70
     0
102
RTVSPropertyOp19
 70
     0
102
RTVSPropertyOp20
 70
     0
102
RTVSPropertyOp21
 70
     0
102
RTVSPropertyOp22
 70
     0
102
RTVSPropertyOp23
 70
     0
102
RTVSPropertyOp24
 70
     0
102
RTVSPropertyOp25
 70
     0
102
RTVSPropertyOp26
 70
     0
102
RTVSPropertyOp27
 70
     0
102
RTVSPropertyOp28
 70
     0
102
RTVSPropertyOp29
 70
     0
102
RTVSPropertyOp30
 70
     0
102
RTVSPropertyOp31
 70
     0
102
RTVSPropertyOp32
 70
     0
102
RTVSPropertyOp33
 70
     0
102
RTVSPropertyOp34
 70
     0
102
RTVSPropertyOp35
 70
     0
102
RTVSPropertyOp36
 70
     0
102
RTVSPropertyOp37
 70
     0
102
RTVSPropertyOp38
 70
     0
102
RTVSPropertyOp39
 70
     0
102
RTVSPropertyOp40
 70
     0
102
RTVSPropertyOp41
 70
     0
102
RTVSPropertyOp42
 70
     0
102
RTVSPropertyOp43
 70
     0
102
RTVSPropertyOp44
 70
     0
102
RTVSPropertyOp45
 70
     0
102
RTVSPropertyOp46
 70
     0
102
RTVSPropertyOp47
 70
     0
102
RTVSPropertyOp48
 70
     0
102
RTVSPropertyOp49
 70
     0
102
RTVSPropertyOp50
 70
     0
102
RTVSPropertyOp51
 70
     0
102
RTVSPropertyOp52
 70
     0
102
RTVSPropertyOp53
 70
     0
102
RTVSPropertyOp54
 70
     0
102
RTVSPropertyOp55
 70
     0
102
RTVSPropertyOp56
 70
     0
102
RTVSPropertyOp57
 70
     0
102
RTVSPropertyOp58
 70
     0
102
RTVSPropertyOp59
 70
     0
102
RTVSPropertyOp60
 70
     0
102
RTVSPropertyOp61
 70
     0
102
RTVSPropertyOp62
 70
     0
  0
XRECORD
  5
44EA
102
{ACAD_REACTORS
330
44E9
102
}
330
44E9
100
AcDbXrecord
280
     1
102
RTVSPost2010Prop28
280
     0
102
RTVSPost2010PropOp28
 70
     1
102
RTVSPost2010Prop29
280
     1
102
RTVSPost2010PropOp29
 70
     1
102
RTVSPost2010Prop30
280
     1
102
RTVSPost2010PropOp30
 70
     1
102
RTVSPost2010Prop31
280
     0
102
RTVSPost2010PropOp31
 70
     1
102
RTVSPost2010Prop32
280
     0
102
RTVSPost2010PropOp32
 70
     1
102
RTVSPost2010Prop33
280
     0
102
RTVSPost2010PropOp33
 70
     1
102
RTVSPost2010Prop34
280
     0
102
RTVSPost2010PropOp34
 70
     1
102
RTVSPost2010Prop35
280
     0
102
RTVSPost2010PropOp35
 70
     1
102
RTVSPost2010Prop36
280
     0
102
RTVSPost2010PropOp36
 70
     1
102
RTVSPost2010Prop37
 90
       50
102
RTVSPost2010PropOp37
 70
     1
102
RTVSPost2010Prop38
140
0.0
102
RTVSPost2010PropOp38
 70
     1
102
RTVSPost2010Prop39
140
1.0
102
RTVSPost2010PropOp39
 70
     1
102
RTVSPost2010Prop40
 90
        0
102
RTVSPost2010PropOp40
 70
     1
102
RTVSPost2010Prop41ColorIndex
 90
       18
102
RTVSPost2010Prop41ColorRGB
 90
        0
102
RTVSPost2010PropOp41
 70
     1
102
RTVSPost2010Prop42
 90
       50
102
RTVSPost2010PropOp42
 70
     1
102
RTVSPost2010Prop43
 90
        3
102
RTVSPost2010PropOp43
 70
     1
102
RTVSPost2010Prop44ColorIndex
 90
        5
102
RTVSPost2010Prop44ColorRGB
 90
      255
102
RTVSPost2010PropOp44
 70
     1
102
RTVSPost2010Prop45
280
     0
102
RTVSPost2010PropOp45
 70
     1
102
RTVSPost2010Prop46
 90
       50
102
RTVSPost2010PropOp46
 70
     1
102
RTVSPost2010Prop47
 90
       50
102
RTVSPost2010PropOp47
 70
     1
102
RTVSPost2010Prop48
 90
       50
102
RTVSPost2010PropOp48
 70
     1
102
RTVSPost2010Prop49
280
     0
102
RTVSPost2010PropOp49
 70
     1
102
RTVSPost2010Prop50
 90
       50
102
RTVSPost2010PropOp50
 70
     1
102
RTVSPost2010Prop51ColorIndex
 90
      256
102
RTVSPost2010Prop51ColorRGB
 90
-16777216
102
RTVSPost2010PropOp51
 70
     0
102
RTVSPost2010Prop52
140
1.0
102
RTVSPost2010PropOp52
 70
     0
102
RTVSPost2010Prop53
 90
        2
102
RTVSPost2010PropOp53
 70
     1
102
RTVSPost2010Prop54
  1
strokes_ogs.tif
102
RTVSPost2010PropOp54
 70
     1
102
RTVSPost2010Prop55
280
     0
102
RTVSPost2010PropOp55
 70
     1
102
RTVSPost2010Prop56
140
1.0
102
RTVSPost2010PropOp56
 70
     1
102
RTVSPost2010Prop57
140
1.0
102
RTVSPost2010PropOp57
 70
     1
102
RTVSPropertyOp0
 70
     1
102
RTVSPropertyOp1
 70
     1
102
RTVSPropertyOp2
 70
     1
102
RTVSPropertyOp3
 70
     1
102
RTVSPropertyOp4
 70
     1
102
RTVSPropertyOp5
 70
     1
102
RTVSPropertyOp6
 70
     1
102
RTVSPropertyOp7
 70
     1
102
RTVSPropertyOp8
 70
     1
102
RTVSPropertyOp9
 70
     1
102
RTVSPropertyOp10
 70
     1
102
RTVSPropertyOp11
 70
     1
102
RTVSPropertyOp12
 70
     1
102
RTVSPropertyOp13
 70
     1
102
RTVSPropertyOp14
 70
     1
102
RTVSPropertyOp15
 70
     1
102
RTVSPropertyOp16
 70
     1
102
RTVSPropertyOp17
 70
     1
102
RTVSPropertyOp18
 70
     1
102
RTVSPropertyOp19
 70
     1
102
RTVSPropertyOp20
 70
     1
102
RTVSPropertyOp21
 70
     1
102
RTVSPropertyOp22
 70
     1
102
RTVSPropertyOp23
 70
     1
102
RTVSPropertyOp24
 70
     1
102
RTVSPropertyOp25
 70
     1
102
RTVSPropertyOp26
 70
     1
102
RTVSPropertyOp27
 70
     1
102
RTVSPropertyOp28
 70
     1
102
RTVSPropertyOp29
 70
     1
102
RTVSPropertyOp30
 70
     1
102
RTVSPropertyOp31
 70
     1
102
RTVSPropertyOp32
 70
     1
102
RTVSPropertyOp33
 70
     1
102
RTVSPropertyOp34
 70
     1
102
RTVSPropertyOp35
 70
     1
102
RTVSPropertyOp36
 70
     1
102
RTVSPropertyOp37
 70
     1
102
RTVSPropertyOp38
 70
     1
102
RTVSPropertyOp39
 70
     1
102
RTVSPropertyOp40
 70
     1
102
RTVSPropertyOp41
 70
     1
102
RTVSPropertyOp42
 70
     1
102
RTVSPropertyOp43
 70
     1
102
RTVSPropertyOp44
 70
     1
102
RTVSPropertyOp45
 70
     1
102
RTVSPropertyOp46
 70
     1
102
RTVSPropertyOp47
 70
     1
102
RTVSPropertyOp48
 70
     1
102
RTVSPropertyOp49
 70
     1
102
RTVSPropertyOp50
 70
     1
102
RTVSPropertyOp51
 70
     0
102
RTVSPropertyOp52
 70
     0
102
RTVSPropertyOp53
 70
     1
102
RTVSPropertyOp54
 70
     1
102
RTVSPropertyOp55
 70
     1
102
RTVSPropertyOp56
 70
     1
102
RTVSPropertyOp57
 70
     1
102
RTVSPropertyOp58
 70
     1
102
RTVSPropertyOp59
 70
     1
102
RTVSPropertyOp60
 70
     1
102
RTVSPropertyOp61
 70
     1
102
RTVSPropertyOp62
 70
     1
  0
XRECORD
  5
44CE
102
{ACAD_REACTORS
330
44CD
102
}
330
44CD
100
AcDbXrecord
280
     1
102
RTVSPost2010Prop28
280
     0
102
RTVSPost2010PropOp28
 70
     1
102
RTVSPost2010Prop29
280
     1
102
RTVSPost2010PropOp29
 70
     1
102
RTVSPost2010Prop30
280
     1
102
RTVSPost2010PropOp30
 70
     1
102
RTVSPost2010Prop31
280
     0
102
RTVSPost2010PropOp31
 70
     1
102
RTVSPost2010Prop32
280
     0
102
RTVSPost2010PropOp32
 70
     1
102
RTVSPost2010Prop33
280
     0
102
RTVSPost2010PropOp33
 70
     1
102
RTVSPost2010Prop34
280
     0
102
RTVSPost2010PropOp34
 70
     1
102
RTVSPost2010Prop35
280
     0
102
RTVSPost2010PropOp35
 70
     1
102
RTVSPost2010Prop36
280
     0
102
RTVSPost2010PropOp36
 70
     1
102
RTVSPost2010Prop37
 90
       50
102
RTVSPost2010PropOp37
 70
     1
102
RTVSPost2010Prop38
140
0.0
102
RTVSPost2010PropOp38
 70
     1
102
RTVSPost2010Prop39
140
1.0
102
RTVSPost2010PropOp39
 70
     1
102
RTVSPost2010Prop40
 90
        0
102
RTVSPost2010PropOp40
 70
     1
102
RTVSPost2010Prop41ColorIndex
 90
       18
102
RTVSPost2010Prop41ColorRGB
 90
        0
102
RTVSPost2010PropOp41
 70
     1
102
RTVSPost2010Prop42
 90
       50
102
RTVSPost2010PropOp42
 70
     1
102
RTVSPost2010Prop43
 90
        3
102
RTVSPost2010PropOp43
 70
     1
102
RTVSPost2010Prop44ColorIndex
 90
        5
102
RTVSPost2010Prop44ColorRGB
 90
      255
102
RTVSPost2010PropOp44
 70
     1
102
RTVSPost2010Prop45
280
     0
102
RTVSPost2010PropOp45
 70
     1
102
RTVSPost2010Prop46
 90
       50
102
RTVSPost2010PropOp46
 70
     1
102
RTVSPost2010Prop47
 90
       50
102
RTVSPost2010PropOp47
 70
     1
102
RTVSPost2010Prop48
 90
       50
102
RTVSPost2010PropOp48
 70
     1
102
RTVSPost2010Prop49
280
     0
102
RTVSPost2010PropOp49
 70
     1
102
RTVSPost2010Prop50
 90
       50
102
RTVSPost2010PropOp50
 70
     1
102
RTVSPost2010Prop51ColorIndex
 90
      256
102
RTVSPost2010Prop51ColorRGB
 90
-16777216
102
RTVSPost2010PropOp51
 70
     0
102
RTVSPost2010Prop52
140
1.0
102
RTVSPost2010PropOp52
 70
     0
102
RTVSPost2010Prop53
 90
        2
102
RTVSPost2010PropOp53
 70
     1
102
RTVSPost2010Prop54
  1
strokes_ogs.tif
102
RTVSPost2010PropOp54
 70
     1
102
RTVSPost2010Prop55
280
     0
102
RTVSPost2010PropOp55
 70
     1
102
RTVSPost2010Prop56
140
1.0
102
RTVSPost2010PropOp56
 70
     1
102
RTVSPost2010Prop57
140
1.0
102
RTVSPost2010PropOp57
 70
     1
102
RTVSPropertyOp0
 70
     1
102
RTVSPropertyOp1
 70
     1
102
RTVSPropertyOp2
 70
     1
102
RTVSPropertyOp3
 70
     1
102
RTVSPropertyOp4
 70
     1
102
RTVSPropertyOp5
 70
     1
102
RTVSPropertyOp6
 70
     1
102
RTVSPropertyOp7
 70
     1
102
RTVSPropertyOp8
 70
     1
102
RTVSPropertyOp9
 70
     1
102
RTVSPropertyOp10
 70
     1
102
RTVSPropertyOp11
 70
     1
102
RTVSPropertyOp12
 70
     1
102
RTVSPropertyOp13
 70
     1
102
RTVSPropertyOp14
 70
     1
102
RTVSPropertyOp15
 70
     1
102
RTVSPropertyOp16
 70
     1
102
RTVSPropertyOp17
 70
     1
102
RTVSPropertyOp18
 70
     1
102
RTVSPropertyOp19
 70
     1
102
RTVSPropertyOp20
 70
     1
102
RTVSPropertyOp21
 70
     1
102
RTVSPropertyOp22
 70
     1
102
RTVSPropertyOp23
 70
     1
102
RTVSPropertyOp24
 70
     1
102
RTVSPropertyOp25
 70
     1
102
RTVSPropertyOp26
 70
     1
102
RTVSPropertyOp27
 70
     1
102
RTVSPropertyOp28
 70
     1
102
RTVSPropertyOp29
 70
     1
102
RTVSPropertyOp30
 70
     1
102
RTVSPropertyOp31
 70
     1
102
RTVSPropertyOp32
 70
     1
102
RTVSPropertyOp33
 70
     1
102
RTVSPropertyOp34
 70
     1
102
RTVSPropertyOp35
 70
     1
102
RTVSPropertyOp36
 70
     1
102
RTVSPropertyOp37
 70
     1
102
RTVSPropertyOp38
 70
     1
102
RTVSPropertyOp39
 70
     1
102
RTVSPropertyOp40
 70
     1
102
RTVSPropertyOp41
 70
     1
102
RTVSPropertyOp42
 70
     1
102
RTVSPropertyOp43
 70
     1
102
RTVSPropertyOp44
 70
     1
102
RTVSPropertyOp45
 70
     1
102
RTVSPropertyOp46
 70
     1
102
RTVSPropertyOp47
 70
     1
102
RTVSPropertyOp48
 70
     1
102
RTVSPropertyOp49
 70
     1
102
RTVSPropertyOp50
 70
     1
102
RTVSPropertyOp51
 70
     0
102
RTVSPropertyOp52
 70
     0
102
RTVSPropertyOp53
 70
     1
102
RTVSPropertyOp54
 70
     1
102
RTVSPropertyOp55
 70
     1
102
RTVSPropertyOp56
 70
     1
102
RTVSPropertyOp57
 70
     1
102
RTVSPropertyOp58
 70
     1
102
RTVSPropertyOp59
 70
     1
102
RTVSPropertyOp60
 70
     1
102
RTVSPropertyOp61
 70
     1
102
RTVSPropertyOp62
 70
     1
  0
XRECORD
  5
44D0
102
{ACAD_REACTORS
330
44CF
102
}
330
44CF
100
AcDbXrecord
280
     1
102
RTVSPost2010Prop28
280
     0
102
RTVSPost2010PropOp28
 70
     1
102
RTVSPost2010Prop29
280
     1
102
RTVSPost2010PropOp29
 70
     1
102
RTVSPost2010Prop30
280
     1
102
RTVSPost2010PropOp30
 70
     1
102
RTVSPost2010Prop31
280
     0
102
RTVSPost2010PropOp31
 70
     1
102
RTVSPost2010Prop32
280
     0
102
RTVSPost2010PropOp32
 70
     1
102
RTVSPost2010Prop33
280
     0
102
RTVSPost2010PropOp33
 70
     1
102
RTVSPost2010Prop34
280
     0
102
RTVSPost2010PropOp34
 70
     1
102
RTVSPost2010Prop35
280
     0
102
RTVSPost2010PropOp35
 70
     1
102
RTVSPost2010Prop36
280
     0
102
RTVSPost2010PropOp36
 70
     1
102
RTVSPost2010Prop37
 90
       50
102
RTVSPost2010PropOp37
 70
     1
102
RTVSPost2010Prop38
140
0.0
102
RTVSPost2010PropOp38
 70
     1
102
RTVSPost2010Prop39
140
1.0
102
RTVSPost2010PropOp39
 70
     1
102
RTVSPost2010Prop40
 90
        0
102
RTVSPost2010PropOp40
 70
     1
102
RTVSPost2010Prop41ColorIndex
 90
       18
102
RTVSPost2010Prop41ColorRGB
 90
        0
102
RTVSPost2010PropOp41
 70
     1
102
RTVSPost2010Prop42
 90
       50
102
RTVSPost2010PropOp42
 70
     1
102
RTVSPost2010Prop43
 90
        3
102
RTVSPost2010PropOp43
 70
     1
102
RTVSPost2010Prop44ColorIndex
 90
        5
102
RTVSPost2010Prop44ColorRGB
 90
      255
102
RTVSPost2010PropOp44
 70
     1
102
RTVSPost2010Prop45
280
     0
102
RTVSPost2010PropOp45
 70
     1
102
RTVSPost2010Prop46
 90
       50
102
RTVSPost2010PropOp46
 70
     1
102
RTVSPost2010Prop47
 90
       50
102
RTVSPost2010PropOp47
 70
     1
102
RTVSPost2010Prop48
 90
       50
102
RTVSPost2010PropOp48
 70
     1
102
RTVSPost2010Prop49
280
     0
102
RTVSPost2010PropOp49
 70
     1
102
RTVSPost2010Prop50
 90
       50
102
RTVSPost2010PropOp50
 70
     1
102
RTVSPost2010Prop51ColorIndex
 90
      256
102
RTVSPost2010Prop51ColorRGB
 90
-16777216
102
RTVSPost2010PropOp51
 70
     0
102
RTVSPost2010Prop52
140
1.0
102
RTVSPost2010PropOp52
 70
     0
102
RTVSPost2010Prop53
 90
        2
102
RTVSPost2010PropOp53
 70
     1
102
RTVSPost2010Prop54
  1
strokes_ogs.tif
102
RTVSPost2010PropOp54
 70
     1
102
RTVSPost2010Prop55
280
     0
102
RTVSPost2010PropOp55
 70
     1
102
RTVSPost2010Prop56
140
1.0
102
RTVSPost2010PropOp56
 70
     1
102
RTVSPost2010Prop57
140
1.0
102
RTVSPost2010PropOp57
 70
     1
102
RTVSPropertyOp0
 70
     1
102
RTVSPropertyOp1
 70
     1
102
RTVSPropertyOp2
 70
     1
102
RTVSPropertyOp3
 70
     1
102
RTVSPropertyOp4
 70
     1
102
RTVSPropertyOp5
 70
     1
102
RTVSPropertyOp6
 70
     1
102
RTVSPropertyOp7
 70
     1
102
RTVSPropertyOp8
 70
     1
102
RTVSPropertyOp9
 70
     1
102
RTVSPropertyOp10
 70
     1
102
RTVSPropertyOp11
 70
     1
102
RTVSPropertyOp12
 70
     1
102
RTVSPropertyOp13
 70
     1
102
RTVSPropertyOp14
 70
     1
102
RTVSPropertyOp15
 70
     1
102
RTVSPropertyOp16
 70
     1
102
RTVSPropertyOp17
 70
     1
102
RTVSPropertyOp18
 70
     1
102
RTVSPropertyOp19
 70
     1
102
RTVSPropertyOp20
 70
     1
102
RTVSPropertyOp21
 70
     1
102
RTVSPropertyOp22
 70
     1
102
RTVSPropertyOp23
 70
     1
102
RTVSPropertyOp24
 70
     1
102
RTVSPropertyOp25
 70
     1
102
RTVSPropertyOp26
 70
     1
102
RTVSPropertyOp27
 70
     1
102
RTVSPropertyOp28
 70
     1
102
RTVSPropertyOp29
 70
     1
102
RTVSPropertyOp30
 70
     1
102
RTVSPropertyOp31
 70
     1
102
RTVSPropertyOp32
 70
     1
102
RTVSPropertyOp33
 70
     1
102
RTVSPropertyOp34
 70
     1
102
RTVSPropertyOp35
 70
     1
102
RTVSPropertyOp36
 70
     1
102
RTVSPropertyOp37
 70
     1
102
RTVSPropertyOp38
 70
     1
102
RTVSPropertyOp39
 70
     1
102
RTVSPropertyOp40
 70
     1
102
RTVSPropertyOp41
 70
     1
102
RTVSPropertyOp42
 70
     1
102
RTVSPropertyOp43
 70
     1
102
RTVSPropertyOp44
 70
     1
102
RTVSPropertyOp45
 70
     1
102
RTVSPropertyOp46
 70
     1
102
RTVSPropertyOp47
 70
     1
102
RTVSPropertyOp48
 70
     1
102
RTVSPropertyOp49
 70
     1
102
RTVSPropertyOp50
 70
     1
102
RTVSPropertyOp51
 70
     0
102
RTVSPropertyOp52
 70
     0
102
RTVSPropertyOp53
 70
     1
102
RTVSPropertyOp54
 70
     1
102
RTVSPropertyOp55
 70
     1
102
RTVSPropertyOp56
 70
     1
102
RTVSPropertyOp57
 70
     1
102
RTVSPropertyOp58
 70
     1
102
RTVSPropertyOp59
 70
     1
102
RTVSPropertyOp60
 70
     1
102
RTVSPropertyOp61
 70
     1
102
RTVSPropertyOp62
 70
     1
  0
XRECORD
  5
44D2
102
{ACAD_REACTORS
330
44D1
102
}
330
44D1
100
AcDbXrecord
280
     1
102
RTVSPost2010Prop28
280
     0
102
RTVSPost2010PropOp28
 70
     1
102
RTVSPost2010Prop29
280
     1
102
RTVSPost2010PropOp29
 70
     1
102
RTVSPost2010Prop30
280
     1
102
RTVSPost2010PropOp30
 70
     1
102
RTVSPost2010Prop31
280
     0
102
RTVSPost2010PropOp31
 70
     1
102
RTVSPost2010Prop32
280
     0
102
RTVSPost2010PropOp32
 70
     1
102
RTVSPost2010Prop33
280
     0
102
RTVSPost2010PropOp33
 70
     1
102
RTVSPost2010Prop34
280
     0
102
RTVSPost2010PropOp34
 70
     1
102
RTVSPost2010Prop35
280
     0
102
RTVSPost2010PropOp35
 70
     1
102
RTVSPost2010Prop36
280
     0
102
RTVSPost2010PropOp36
 70
     1
102
RTVSPost2010Prop37
 90
       50
102
RTVSPost2010PropOp37
 70
     1
102
RTVSPost2010Prop38
140
0.0
102
RTVSPost2010PropOp38
 70
     1
102
RTVSPost2010Prop39
140
1.0
102
RTVSPost2010PropOp39
 70
     1
102
RTVSPost2010Prop40
 90
        0
102
RTVSPost2010PropOp40
 70
     1
102
RTVSPost2010Prop41ColorIndex
 90
       18
102
RTVSPost2010Prop41ColorRGB
 90
        0
102
RTVSPost2010PropOp41
 70
     1
102
RTVSPost2010Prop42
 90
       50
102
RTVSPost2010PropOp42
 70
     1
102
RTVSPost2010Prop43
 90
        3
102
RTVSPost2010PropOp43
 70
     1
102
RTVSPost2010Prop44ColorIndex
 90
        5
102
RTVSPost2010Prop44ColorRGB
 90
      255
102
RTVSPost2010PropOp44
 70
     1
102
RTVSPost2010Prop45
280
     0
102
RTVSPost2010PropOp45
 70
     1
102
RTVSPost2010Prop46
 90
       50
102
RTVSPost2010PropOp46
 70
     1
102
RTVSPost2010Prop47
 90
       50
102
RTVSPost2010PropOp47
 70
     1
102
RTVSPost2010Prop48
 90
       50
102
RTVSPost2010PropOp48
 70
     1
102
RTVSPost2010Prop49
280
     0
102
RTVSPost2010PropOp49
 70
     1
102
RTVSPost2010Prop50
 90
       50
102
RTVSPost2010PropOp50
 70
     1
102
RTVSPost2010Prop51ColorIndex
 90
      256
102
RTVSPost2010Prop51ColorRGB
 90
-16777216
102
RTVSPost2010PropOp51
 70
     0
102
RTVSPost2010Prop52
140
1.0
102
RTVSPost2010PropOp52
 70
     0
102
RTVSPost2010Prop53
 90
        2
102
RTVSPost2010PropOp53
 70
     1
102
RTVSPost2010Prop54
  1
strokes_ogs.tif
102
RTVSPost2010PropOp54
 70
     1
102
RTVSPost2010Prop55
280
     0
102
RTVSPost2010PropOp55
 70
     1
102
RTVSPost2010Prop56
140
1.0
102
RTVSPost2010PropOp56
 70
     1
102
RTVSPost2010Prop57
140
1.0
102
RTVSPost2010PropOp57
 70
     1
102
RTVSPropertyOp0
 70
     1
102
RTVSPropertyOp1
 70
     1
102
RTVSPropertyOp2
 70
     1
102
RTVSPropertyOp3
 70
     1
102
RTVSPropertyOp4
 70
     1
102
RTVSPropertyOp5
 70
     1
102
RTVSPropertyOp6
 70
     1
102
RTVSPropertyOp7
 70
     1
102
RTVSPropertyOp8
 70
     1
102
RTVSPropertyOp9
 70
     1
102
RTVSPropertyOp10
 70
     1
102
RTVSPropertyOp11
 70
     1
102
RTVSPropertyOp12
 70
     1
102
RTVSPropertyOp13
 70
     1
102
RTVSPropertyOp14
 70
     1
102
RTVSPropertyOp15
 70
     1
102
RTVSPropertyOp16
 70
     1
102
RTVSPropertyOp17
 70
     1
102
RTVSPropertyOp18
 70
     1
102
RTVSPropertyOp19
 70
     1
102
RTVSPropertyOp20
 70
     1
102
RTVSPropertyOp21
 70
     1
102
RTVSPropertyOp22
 70
     1
102
RTVSPropertyOp23
 70
     1
102
RTVSPropertyOp24
 70
     1
102
RTVSPropertyOp25
 70
     1
102
RTVSPropertyOp26
 70
     1
102
RTVSPropertyOp27
 70
     1
102
RTVSPropertyOp28
 70
     1
102
RTVSPropertyOp29
 70
     1
102
RTVSPropertyOp30
 70
     1
102
RTVSPropertyOp31
 70
     1
102
RTVSPropertyOp32
 70
     1
102
RTVSPropertyOp33
 70
     1
102
RTVSPropertyOp34
 70
     1
102
RTVSPropertyOp35
 70
     1
102
RTVSPropertyOp36
 70
     1
102
RTVSPropertyOp37
 70
     1
102
RTVSPropertyOp38
 70
     1
102
RTVSPropertyOp39
 70
     1
102
RTVSPropertyOp40
 70
     1
102
RTVSPropertyOp41
 70
     1
102
RTVSPropertyOp42
 70
     1
102
RTVSPropertyOp43
 70
     1
102
RTVSPropertyOp44
 70
     1
102
RTVSPropertyOp45
 70
     1
102
RTVSPropertyOp46
 70
     1
102
RTVSPropertyOp47
 70
     1
102
RTVSPropertyOp48
 70
     1
102
RTVSPropertyOp49
 70
     1
102
RTVSPropertyOp50
 70
     1
102
RTVSPropertyOp51
 70
     0
102
RTVSPropertyOp52
 70
     0
102
RTVSPropertyOp53
 70
     1
102
RTVSPropertyOp54
 70
     1
102
RTVSPropertyOp55
 70
     1
102
RTVSPropertyOp56
 70
     1
102
RTVSPropertyOp57
 70
     1
102
RTVSPropertyOp58
 70
     1
102
RTVSPropertyOp59
 70
     1
102
RTVSPropertyOp60
 70
     1
102
RTVSPropertyOp61
 70
     1
102
RTVSPropertyOp62
 70
     1
  0
XRECORD
  5
44D4
102
{ACAD_REACTORS
330
44D3
102
}
330
44D3
100
AcDbXrecord
280
     1
102
RTVSPost2010Prop28
280
     0
102
RTVSPost2010PropOp28
 70
     1
102
RTVSPost2010Prop29
280
     1
102
RTVSPost2010PropOp29
 70
     1
102
RTVSPost2010Prop30
280
     1
102
RTVSPost2010PropOp30
 70
     1
102
RTVSPost2010Prop31
280
     0
102
RTVSPost2010PropOp31
 70
     1
102
RTVSPost2010Prop32
280
     0
102
RTVSPost2010PropOp32
 70
     1
102
RTVSPost2010Prop33
280
     0
102
RTVSPost2010PropOp33
 70
     1
102
RTVSPost2010Prop34
280
     0
102
RTVSPost2010PropOp34
 70
     1
102
RTVSPost2010Prop35
280
     0
102
RTVSPost2010PropOp35
 70
     1
102
RTVSPost2010Prop36
280
     0
102
RTVSPost2010PropOp36
 70
     1
102
RTVSPost2010Prop37
 90
       50
102
RTVSPost2010PropOp37
 70
     1
102
RTVSPost2010Prop38
140
0.0
102
RTVSPost2010PropOp38
 70
     1
102
RTVSPost2010Prop39
140
1.0
102
RTVSPost2010PropOp39
 70
     1
102
RTVSPost2010Prop40
 90
        0
102
RTVSPost2010PropOp40
 70
     1
102
RTVSPost2010Prop41ColorIndex
 90
       18
102
RTVSPost2010Prop41ColorRGB
 90
        0
102
RTVSPost2010PropOp41
 70
     1
102
RTVSPost2010Prop42
 90
       50
102
RTVSPost2010PropOp42
 70
     1
102
RTVSPost2010Prop43
 90
        3
102
RTVSPost2010PropOp43
 70
     1
102
RTVSPost2010Prop44ColorIndex
 90
        5
102
RTVSPost2010Prop44ColorRGB
 90
      255
102
RTVSPost2010PropOp44
 70
     1
102
RTVSPost2010Prop45
280
     0
102
RTVSPost2010PropOp45
 70
     1
102
RTVSPost2010Prop46
 90
       50
102
RTVSPost2010PropOp46
 70
     1
102
RTVSPost2010Prop47
 90
       50
102
RTVSPost2010PropOp47
 70
     1
102
RTVSPost2010Prop48
 90
       50
102
RTVSPost2010PropOp48
 70
     1
102
RTVSPost2010Prop49
280
     0
102
RTVSPost2010PropOp49
 70
     1
102
RTVSPost2010Prop50
 90
       50
102
RTVSPost2010PropOp50
 70
     1
102
RTVSPost2010Prop51ColorIndex
 90
      256
102
RTVSPost2010Prop51ColorRGB
 90
-16777216
102
RTVSPost2010PropOp51
 70
     0
102
RTVSPost2010Prop52
140
1.0
102
RTVSPost2010PropOp52
 70
     0
102
RTVSPost2010Prop53
 90
        2
102
RTVSPost2010PropOp53
 70
     1
102
RTVSPost2010Prop54
  1
strokes_ogs.tif
102
RTVSPost2010PropOp54
 70
     1
102
RTVSPost2010Prop55
280
     0
102
RTVSPost2010PropOp55
 70
     1
102
RTVSPost2010Prop56
140
1.0
102
RTVSPost2010PropOp56
 70
     1
102
RTVSPost2010Prop57
140
1.0
102
RTVSPost2010PropOp57
 70
     1
102
RTVSPropertyOp0
 70
     1
102
RTVSPropertyOp1
 70
     1
102
RTVSPropertyOp2
 70
     1
102
RTVSPropertyOp3
 70
     1
102
RTVSPropertyOp4
 70
     1
102
RTVSPropertyOp5
 70
     1
102
RTVSPropertyOp6
 70
     1
102
RTVSPropertyOp7
 70
     1
102
RTVSPropertyOp8
 70
     1
102
RTVSPropertyOp9
 70
     1
102
RTVSPropertyOp10
 70
     1
102
RTVSPropertyOp11
 70
     1
102
RTVSPropertyOp12
 70
     1
102
RTVSPropertyOp13
 70
     1
102
RTVSPropertyOp14
 70
     1
102
RTVSPropertyOp15
 70
     1
102
RTVSPropertyOp16
 70
     1
102
RTVSPropertyOp17
 70
     1
102
RTVSPropertyOp18
 70
     1
102
RTVSPropertyOp19
 70
     1
102
RTVSPropertyOp20
 70
     1
102
RTVSPropertyOp21
 70
     1
102
RTVSPropertyOp22
 70
     1
102
RTVSPropertyOp23
 70
     1
102
RTVSPropertyOp24
 70
     1
102
RTVSPropertyOp25
 70
     1
102
RTVSPropertyOp26
 70
     1
102
RTVSPropertyOp27
 70
     1
102
RTVSPropertyOp28
 70
     1
102
RTVSPropertyOp29
 70
     1
102
RTVSPropertyOp30
 70
     1
102
RTVSPropertyOp31
 70
     1
102
RTVSPropertyOp32
 70
     1
102
RTVSPropertyOp33
 70
     1
102
RTVSPropertyOp34
 70
     1
102
RTVSPropertyOp35
 70
     1
102
RTVSPropertyOp36
 70
     1
102
RTVSPropertyOp37
 70
     1
102
RTVSPropertyOp38
 70
     1
102
RTVSPropertyOp39
 70
     1
102
RTVSPropertyOp40
 70
     1
102
RTVSPropertyOp41
 70
     1
102
RTVSPropertyOp42
 70
     1
102
RTVSPropertyOp43
 70
     1
102
RTVSPropertyOp44
 70
     1
102
RTVSPropertyOp45
 70
     1
102
RTVSPropertyOp46
 70
     1
102
RTVSPropertyOp47
 70
     1
102
RTVSPropertyOp48
 70
     1
102
RTVSPropertyOp49
 70
     1
102
RTVSPropertyOp50
 70
     1
102
RTVSPropertyOp51
 70
     0
102
RTVSPropertyOp52
 70
     0
102
RTVSPropertyOp53
 70
     1
102
RTVSPropertyOp54
 70
     1
102
RTVSPropertyOp55
 70
     1
102
RTVSPropertyOp56
 70
     1
102
RTVSPropertyOp57
 70
     1
102
RTVSPropertyOp58
 70
     1
102
RTVSPropertyOp59
 70
     1
102
RTVSPropertyOp60
 70
     1
102
RTVSPropertyOp61
 70
     1
102
RTVSPropertyOp62
 70
     1
  0
XRECORD
  5
44DC
102
{ACAD_REACTORS
330
44DB
102
}
330
44DB
100
AcDbXrecord
280
     1
102
RTVSPost2010Prop28
280
     0
102
RTVSPost2010PropOp28
 70
     1
102
RTVSPost2010Prop29
280
     1
102
RTVSPost2010PropOp29
 70
     1
102
RTVSPost2010Prop30
280
     1
102
RTVSPost2010PropOp30
 70
     1
102
RTVSPost2010Prop31
280
     0
102
RTVSPost2010PropOp31
 70
     1
102
RTVSPost2010Prop32
280
     0
102
RTVSPost2010PropOp32
 70
     1
102
RTVSPost2010Prop33
280
     0
102
RTVSPost2010PropOp33
 70
     1
102
RTVSPost2010Prop34
280
     0
102
RTVSPost2010PropOp34
 70
     1
102
RTVSPost2010Prop35
280
     0
102
RTVSPost2010PropOp35
 70
     1
102
RTVSPost2010Prop36
280
     0
102
RTVSPost2010PropOp36
 70
     1
102
RTVSPost2010Prop37
 90
       50
102
RTVSPost2010PropOp37
 70
     1
102
RTVSPost2010Prop38
140
0.0
102
RTVSPost2010PropOp38
 70
     1
102
RTVSPost2010Prop39
140
1.0
102
RTVSPost2010PropOp39
 70
     1
102
RTVSPost2010Prop40
 90
        0
102
RTVSPost2010PropOp40
 70
     1
102
RTVSPost2010Prop41ColorIndex
 90
       18
102
RTVSPost2010Prop41ColorRGB
 90
        0
102
RTVSPost2010PropOp41
 70
     1
102
RTVSPost2010Prop42
 90
       50
102
RTVSPost2010PropOp42
 70
     1
102
RTVSPost2010Prop43
 90
        3
102
RTVSPost2010PropOp43
 70
     1
102
RTVSPost2010Prop44ColorIndex
 90
        5
102
RTVSPost2010Prop44ColorRGB
 90
      255
102
RTVSPost2010PropOp44
 70
     1
102
RTVSPost2010Prop45
280
     0
102
RTVSPost2010PropOp45
 70
     1
102
RTVSPost2010Prop46
 90
       50
102
RTVSPost2010PropOp46
 70
     1
102
RTVSPost2010Prop47
 90
       50
102
RTVSPost2010PropOp47
 70
     1
102
RTVSPost2010Prop48
 90
       50
102
RTVSPost2010PropOp48
 70
     1
102
RTVSPost2010Prop49
280
     0
102
RTVSPost2010PropOp49
 70
     1
102
RTVSPost2010Prop50
 90
       50
102
RTVSPost2010PropOp50
 70
     1
102
RTVSPost2010Prop51ColorIndex
 90
      256
102
RTVSPost2010Prop51ColorRGB
 90
-16777216
102
RTVSPost2010PropOp51
 70
     0
102
RTVSPost2010Prop52
140
1.0
102
RTVSPost2010PropOp52
 70
     0
102
RTVSPost2010Prop53
 90
        2
102
RTVSPost2010PropOp53
 70
     1
102
RTVSPost2010Prop54
  1
strokes_ogs.tif
102
RTVSPost2010PropOp54
 70
     1
102
RTVSPost2010Prop55
280
     0
102
RTVSPost2010PropOp55
 70
     1
102
RTVSPost2010Prop56
140
1.0
102
RTVSPost2010PropOp56
 70
     1
102
RTVSPost2010Prop57
140
1.0
102
RTVSPost2010PropOp57
 70
     1
102
RTVSPropertyOp0
 70
     1
102
RTVSPropertyOp1
 70
     1
102
RTVSPropertyOp2
 70
     1
102
RTVSPropertyOp3
 70
     1
102
RTVSPropertyOp4
 70
     1
102
RTVSPropertyOp5
 70
     1
102
RTVSPropertyOp6
 70
     1
102
RTVSPropertyOp7
 70
     1
102
RTVSPropertyOp8
 70
     1
102
RTVSPropertyOp9
 70
     1
102
RTVSPropertyOp10
 70
     1
102
RTVSPropertyOp11
 70
     1
102
RTVSPropertyOp12
 70
     1
102
RTVSPropertyOp13
 70
     1
102
RTVSPropertyOp14
 70
     1
102
RTVSPropertyOp15
 70
     1
102
RTVSPropertyOp16
 70
     1
102
RTVSPropertyOp17
 70
     1
102
RTVSPropertyOp18
 70
     1
102
RTVSPropertyOp19
 70
     1
102
RTVSPropertyOp20
 70
     1
102
RTVSPropertyOp21
 70
     1
102
RTVSPropertyOp22
 70
     1
102
RTVSPropertyOp23
 70
     1
102
RTVSPropertyOp24
 70
     1
102
RTVSPropertyOp25
 70
     1
102
RTVSPropertyOp26
 70
     1
102
RTVSPropertyOp27
 70
     1
102
RTVSPropertyOp28
 70
     1
102
RTVSPropertyOp29
 70
     1
102
RTVSPropertyOp30
 70
     1
102
RTVSPropertyOp31
 70
     1
102
RTVSPropertyOp32
 70
     1
102
RTVSPropertyOp33
 70
     1
102
RTVSPropertyOp34
 70
     1
102
RTVSPropertyOp35
 70
     1
102
RTVSPropertyOp36
 70
     1
102
RTVSPropertyOp37
 70
     1
102
RTVSPropertyOp38
 70
     1
102
RTVSPropertyOp39
 70
     1
102
RTVSPropertyOp40
 70
     1
102
RTVSPropertyOp41
 70
     1
102
RTVSPropertyOp42
 70
     1
102
RTVSPropertyOp43
 70
     1
102
RTVSPropertyOp44
 70
     1
102
RTVSPropertyOp45
 70
     1
102
RTVSPropertyOp46
 70
     1
102
RTVSPropertyOp47
 70
     1
102
RTVSPropertyOp48
 70
     1
102
RTVSPropertyOp49
 70
     1
102
RTVSPropertyOp50
 70
     1
102
RTVSPropertyOp51
 70
     0
102
RTVSPropertyOp52
 70
     0
102
RTVSPropertyOp53
 70
     1
102
RTVSPropertyOp54
 70
     1
102
RTVSPropertyOp55
 70
     1
102
RTVSPropertyOp56
 70
     1
102
RTVSPropertyOp57
 70
     1
102
RTVSPropertyOp58
 70
     1
102
RTVSPropertyOp59
 70
     1
102
RTVSPropertyOp60
 70
     1
102
RTVSPropertyOp61
 70
     1
102
RTVSPropertyOp62
 70
     1
  0
XRECORD
  5
44F8
102
{ACAD_REACTORS
330
44F7
102
}
330
44F7
100
AcDbXrecord
280
     1
102
RTVSPost2010Prop28
280
     0
102
RTVSPost2010PropOp28
 70
     0
102
RTVSPost2010Prop29
280
     1
102
RTVSPost2010PropOp29
 70
     0
102
RTVSPost2010Prop30
280
     1
102
RTVSPost2010PropOp30
 70
     0
102
RTVSPost2010Prop31
280
     0
102
RTVSPost2010PropOp31
 70
     0
102
RTVSPost2010Prop32
280
     0
102
RTVSPost2010PropOp32
 70
     0
102
RTVSPost2010Prop33
280
     0
102
RTVSPost2010PropOp33
 70
     0
102
RTVSPost2010Prop34
280
     0
102
RTVSPost2010PropOp34
 70
     0
102
RTVSPost2010Prop35
280
     0
102
RTVSPost2010PropOp35
 70
     0
102
RTVSPost2010Prop36
280
     0
102
RTVSPost2010PropOp36
 70
     0
102
RTVSPost2010Prop37
 90
       50
102
RTVSPost2010PropOp37
 70
     0
102
RTVSPost2010Prop38
140
0.0
102
RTVSPost2010PropOp38
 70
     0
102
RTVSPost2010Prop39
140
1.0
102
RTVSPost2010PropOp39
 70
     0
102
RTVSPost2010Prop40
 90
        0
102
RTVSPost2010PropOp40
 70
     0
102
RTVSPost2010Prop41ColorIndex
 90
       18
102
RTVSPost2010Prop41ColorRGB
 90
        0
102
RTVSPost2010PropOp41
 70
     0
102
RTVSPost2010Prop42
 90
       50
102
RTVSPost2010PropOp42
 70
     0
102
RTVSPost2010Prop43
 90
        3
102
RTVSPost2010PropOp43
 70
     0
102
RTVSPost2010Prop44ColorIndex
 90
        5
102
RTVSPost2010Prop44ColorRGB
 90
      255
102
RTVSPost2010PropOp44
 70
     0
102
RTVSPost2010Prop45
280
     0
102
RTVSPost2010PropOp45
 70
     0
102
RTVSPost2010Prop46
 90
       50
102
RTVSPost2010PropOp46
 70
     0
102
RTVSPost2010Prop47
 90
       50
102
RTVSPost2010PropOp47
 70
     0
102
RTVSPost2010Prop48
 90
       50
102
RTVSPost2010PropOp48
 70
     0
102
RTVSPost2010Prop49
280
     0
102
RTVSPost2010PropOp49
 70
     0
102
RTVSPost2010Prop50
 90
       50
102
RTVSPost2010PropOp50
 70
     0
102
RTVSPost2010Prop51ColorIndex
 90
      256
102
RTVSPost2010Prop51ColorRGB
 90
-16777216
102
RTVSPost2010PropOp51
 70
     0
102
RTVSPost2010Prop52
140
1.0
102
RTVSPost2010PropOp52
 70
     0
102
RTVSPost2010Prop53
 90
        2
102
RTVSPost2010PropOp53
 70
     0
102
RTVSPost2010Prop54
  1
strokes_ogs.tif
102
RTVSPost2010PropOp54
 70
     0
102
RTVSPost2010Prop55
280
     0
102
RTVSPost2010PropOp55
 70
     0
102
RTVSPost2010Prop56
140
1.0
102
RTVSPost2010PropOp56
 70
     0
102
RTVSPost2010Prop57
140
1.0
102
RTVSPost2010PropOp57
 70
     0
102
RTVSPropertyOp0
 70
     0
102
RTVSPropertyOp1
 70
     0
102
RTVSPropertyOp2
 70
     0
102
RTVSPropertyOp3
 70
     0
102
RTVSPropertyOp4
 70
     0
102
RTVSPropertyOp5
 70
     0
102
RTVSPropertyOp6
 70
     0
102
RTVSPropertyOp7
 70
     0
102
RTVSPropertyOp8
 70
     0
102
RTVSPropertyOp9
 70
     0
102
RTVSPropertyOp10
 70
     0
102
RTVSPropertyOp11
 70
     0
102
RTVSPropertyOp12
 70
     0
102
RTVSPropertyOp13
 70
     0
102
RTVSPropertyOp14
 70
     2
102
RTVSPropertyOp15
 70
     0
102
RTVSPropertyOp16
 70
     0
102
RTVSPropertyOp17
 70
     0
102
RTVSPropertyOp18
 70
     0
102
RTVSPropertyOp19
 70
     0
102
RTVSPropertyOp20
 70
     0
102
RTVSPropertyOp21
 70
     0
102
RTVSPropertyOp22
 70
     0
102
RTVSPropertyOp23
 70
     0
102
RTVSPropertyOp24
 70
     0
102
RTVSPropertyOp25
 70
     0
102
RTVSPropertyOp26
 70
     0
102
RTVSPropertyOp27
 70
     0
102
RTVSPropertyOp28
 70
     0
102
RTVSPropertyOp29
 70
     0
102
RTVSPropertyOp30
 70
     0
102
RTVSPropertyOp31
 70
     0
102
RTVSPropertyOp32
 70
     0
102
RTVSPropertyOp33
 70
     0
102
RTVSPropertyOp34
 70
     0
102
RTVSPropertyOp35
 70
     0
102
RTVSPropertyOp36
 70
     0
102
RTVSPropertyOp37
 70
     0
102
RTVSPropertyOp38
 70
     0
102
RTVSPropertyOp39
 70
     0
102
RTVSPropertyOp40
 70
     0
102
RTVSPropertyOp41
 70
     0
102
RTVSPropertyOp42
 70
     0
102
RTVSPropertyOp43
 70
     0
102
RTVSPropertyOp44
 70
     0
102
RTVSPropertyOp45
 70
     0
102
RTVSPropertyOp46
 70
     0
102
RTVSPropertyOp47
 70
     0
102
RTVSPropertyOp48
 70
     0
102
RTVSPropertyOp49
 70
     0
102
RTVSPropertyOp50
 70
     0
102
RTVSPropertyOp51
 70
     0
102
RTVSPropertyOp52
 70
     0
102
RTVSPropertyOp53
 70
     0
102
RTVSPropertyOp54
 70
     0
102
RTVSPropertyOp55
 70
     0
102
RTVSPropertyOp56
 70
     0
102
RTVSPropertyOp57
 70
     0
102
RTVSPropertyOp58
 70
     0
102
RTVSPropertyOp59
 70
     0
102
RTVSPropertyOp60
 70
     0
102
RTVSPropertyOp61
 70
     0
102
RTVSPropertyOp62
 70
     0
  0
XRECORD
  5
44E8
102
{ACAD_REACTORS
330
44E7
102
}
330
44E7
100
AcDbXrecord
280
     1
102
RTVSPost2010Prop28
280
     0
102
RTVSPost2010PropOp28
 70
     1
102
RTVSPost2010Prop29
280
     1
102
RTVSPost2010PropOp29
 70
     1
102
RTVSPost2010Prop30
280
     1
102
RTVSPost2010PropOp30
 70
     1
102
RTVSPost2010Prop31
280
     0
102
RTVSPost2010PropOp31
 70
     1
102
RTVSPost2010Prop32
280
     0
102
RTVSPost2010PropOp32
 70
     1
102
RTVSPost2010Prop33
280
     0
102
RTVSPost2010PropOp33
 70
     1
102
RTVSPost2010Prop34
280
     0
102
RTVSPost2010PropOp34
 70
     1
102
RTVSPost2010Prop35
280
     0
102
RTVSPost2010PropOp35
 70
     1
102
RTVSPost2010Prop36
280
     0
102
RTVSPost2010PropOp36
 70
     1
102
RTVSPost2010Prop37
 90
       50
102
RTVSPost2010PropOp37
 70
     1
102
RTVSPost2010Prop38
140
0.0
102
RTVSPost2010PropOp38
 70
     1
102
RTVSPost2010Prop39
140
1.0
102
RTVSPost2010PropOp39
 70
     1
102
RTVSPost2010Prop40
 90
        0
102
RTVSPost2010PropOp40
 70
     1
102
RTVSPost2010Prop41ColorIndex
 90
       18
102
RTVSPost2010Prop41ColorRGB
 90
        0
102
RTVSPost2010PropOp41
 70
     1
102
RTVSPost2010Prop42
 90
       50
102
RTVSPost2010PropOp42
 70
     1
102
RTVSPost2010Prop43
 90
        3
102
RTVSPost2010PropOp43
 70
     1
102
RTVSPost2010Prop44ColorIndex
 90
        5
102
RTVSPost2010Prop44ColorRGB
 90
      255
102
RTVSPost2010PropOp44
 70
     1
102
RTVSPost2010Prop45
280
     0
102
RTVSPost2010PropOp45
 70
     1
102
RTVSPost2010Prop46
 90
       50
102
RTVSPost2010PropOp46
 70
     1
102
RTVSPost2010Prop47
 90
       50
102
RTVSPost2010PropOp47
 70
     1
102
RTVSPost2010Prop48
 90
       50
102
RTVSPost2010PropOp48
 70
     1
102
RTVSPost2010Prop49
280
     0
102
RTVSPost2010PropOp49
 70
     1
102
RTVSPost2010Prop50
 90
       50
102
RTVSPost2010PropOp50
 70
     1
102
RTVSPost2010Prop51ColorIndex
 90
      256
102
RTVSPost2010Prop51ColorRGB
 90
-16777216
102
RTVSPost2010PropOp51
 70
     0
102
RTVSPost2010Prop52
140
1.0
102
RTVSPost2010PropOp52
 70
     0
102
RTVSPost2010Prop53
 90
        2
102
RTVSPost2010PropOp53
 70
     1
102
RTVSPost2010Prop54
  1
strokes_ogs.tif
102
RTVSPost2010PropOp54
 70
     1
102
RTVSPost2010Prop55
280
     0
102
RTVSPost2010PropOp55
 70
     1
102
RTVSPost2010Prop56
140
1.0
102
RTVSPost2010PropOp56
 70
     1
102
RTVSPost2010Prop57
140
1.0
102
RTVSPost2010PropOp57
 70
     1
102
RTVSPropertyOp0
 70
     1
102
RTVSPropertyOp1
 70
     1
102
RTVSPropertyOp2
 70
     1
102
RTVSPropertyOp3
 70
     1
102
RTVSPropertyOp4
 70
     1
102
RTVSPropertyOp5
 70
     1
102
RTVSPropertyOp6
 70
     1
102
RTVSPropertyOp7
 70
     1
102
RTVSPropertyOp8
 70
     1
102
RTVSPropertyOp9
 70
     1
102
RTVSPropertyOp10
 70
     1
102
RTVSPropertyOp11
 70
     1
102
RTVSPropertyOp12
 70
     1
102
RTVSPropertyOp13
 70
     1
102
RTVSPropertyOp14
 70
     1
102
RTVSPropertyOp15
 70
     1
102
RTVSPropertyOp16
 70
     1
102
RTVSPropertyOp17
 70
     1
102
RTVSPropertyOp18
 70
     1
102
RTVSPropertyOp19
 70
     1
102
RTVSPropertyOp20
 70
     1
102
RTVSPropertyOp21
 70
     1
102
RTVSPropertyOp22
 70
     1
102
RTVSPropertyOp23
 70
     1
102
RTVSPropertyOp24
 70
     1
102
RTVSPropertyOp25
 70
     1
102
RTVSPropertyOp26
 70
     1
102
RTVSPropertyOp27
 70
     1
102
RTVSPropertyOp28
 70
     1
102
RTVSPropertyOp29
 70
     1
102
RTVSPropertyOp30
 70
     1
102
RTVSPropertyOp31
 70
     1
102
RTVSPropertyOp32
 70
     1
102
RTVSPropertyOp33
 70
     1
102
RTVSPropertyOp34
 70
     1
102
RTVSPropertyOp35
 70
     1
102
RTVSPropertyOp36
 70
     1
102
RTVSPropertyOp37
 70
     1
102
RTVSPropertyOp38
 70
     1
102
RTVSPropertyOp39
 70
     1
102
RTVSPropertyOp40
 70
     1
102
RTVSPropertyOp41
 70
     1
102
RTVSPropertyOp42
 70
     1
102
RTVSPropertyOp43
 70
     1
102
RTVSPropertyOp44
 70
     1
102
RTVSPropertyOp45
 70
     1
102
RTVSPropertyOp46
 70
     1
102
RTVSPropertyOp47
 70
     1
102
RTVSPropertyOp48
 70
     1
102
RTVSPropertyOp49
 70
     1
102
RTVSPropertyOp50
 70
     1
102
RTVSPropertyOp51
 70
     0
102
RTVSPropertyOp52
 70
     0
102
RTVSPropertyOp53
 70
     1
102
RTVSPropertyOp54
 70
     1
102
RTVSPropertyOp55
 70
     1
102
RTVSPropertyOp56
 70
     1
102
RTVSPropertyOp57
 70
     1
102
RTVSPropertyOp58
 70
     1
102
RTVSPropertyOp59
 70
     1
102
RTVSPropertyOp60
 70
     1
102
RTVSPropertyOp61
 70
     1
102
RTVSPropertyOp62
 70
     1
  0
XRECORD
  5
44FA
102
{ACAD_REACTORS
330
44F9
102
}
330
44F9
100
AcDbXrecord
280
     1
102
RTVSPost2010Prop28
280
     0
102
RTVSPost2010PropOp28
 70
     0
102
RTVSPost2010Prop29
280
     1
102
RTVSPost2010PropOp29
 70
     0
102
RTVSPost2010Prop30
280
     1
102
RTVSPost2010PropOp30
 70
     0
102
RTVSPost2010Prop31
280
     0
102
RTVSPost2010PropOp31
 70
     0
102
RTVSPost2010Prop32
280
     0
102
RTVSPost2010PropOp32
 70
     0
102
RTVSPost2010Prop33
280
     0
102
RTVSPost2010PropOp33
 70
     0
102
RTVSPost2010Prop34
280
     0
102
RTVSPost2010PropOp34
 70
     0
102
RTVSPost2010Prop35
280
     0
102
RTVSPost2010PropOp35
 70
     0
102
RTVSPost2010Prop36
280
     0
102
RTVSPost2010PropOp36
 70
     0
102
RTVSPost2010Prop37
 90
       50
102
RTVSPost2010PropOp37
 70
     0
102
RTVSPost2010Prop38
140
0.0
102
RTVSPost2010PropOp38
 70
     0
102
RTVSPost2010Prop39
140
1.0
102
RTVSPost2010PropOp39
 70
     0
102
RTVSPost2010Prop40
 90
        0
102
RTVSPost2010PropOp40
 70
     0
102
RTVSPost2010Prop41ColorIndex
 90
       18
102
RTVSPost2010Prop41ColorRGB
 90
        0
102
RTVSPost2010PropOp41
 70
     0
102
RTVSPost2010Prop42
 90
       50
102
RTVSPost2010PropOp42
 70
     0
102
RTVSPost2010Prop43
 90
        3
102
RTVSPost2010PropOp43
 70
     0
102
RTVSPost2010Prop44ColorIndex
 90
        5
102
RTVSPost2010Prop44ColorRGB
 90
      255
102
RTVSPost2010PropOp44
 70
     0
102
RTVSPost2010Prop45
280
     0
102
RTVSPost2010PropOp45
 70
     0
102
RTVSPost2010Prop46
 90
       50
102
RTVSPost2010PropOp46
 70
     0
102
RTVSPost2010Prop47
 90
       50
102
RTVSPost2010PropOp47
 70
     0
102
RTVSPost2010Prop48
 90
       50
102
RTVSPost2010PropOp48
 70
     0
102
RTVSPost2010Prop49
280
     0
102
RTVSPost2010PropOp49
 70
     0
102
RTVSPost2010Prop50
 90
       50
102
RTVSPost2010PropOp50
 70
     0
102
RTVSPost2010Prop51ColorIndex
 90
      256
102
RTVSPost2010Prop51ColorRGB
 90
-16777216
102
RTVSPost2010PropOp51
 70
     0
102
RTVSPost2010Prop52
140
1.0
102
RTVSPost2010PropOp52
 70
     0
102
RTVSPost2010Prop53
 90
        2
102
RTVSPost2010PropOp53
 70
     0
102
RTVSPost2010Prop54
  1
strokes_ogs.tif
102
RTVSPost2010PropOp54
 70
     0
102
RTVSPost2010Prop55
280
     0
102
RTVSPost2010PropOp55
 70
     0
102
RTVSPost2010Prop56
140
1.0
102
RTVSPost2010PropOp56
 70
     0
102
RTVSPost2010Prop57
140
1.0
102
RTVSPost2010PropOp57
 70
     0
102
RTVSPropertyOp0
 70
     0
102
RTVSPropertyOp1
 70
     0
102
RTVSPropertyOp2
 70
     0
102
RTVSPropertyOp3
 70
     0
102
RTVSPropertyOp4
 70
     0
102
RTVSPropertyOp5
 70
     0
102
RTVSPropertyOp6
 70
     0
102
RTVSPropertyOp7
 70
     0
102
RTVSPropertyOp8
 70
     0
102
RTVSPropertyOp9
 70
     0
102
RTVSPropertyOp10
 70
     0
102
RTVSPropertyOp11
 70
     0
102
RTVSPropertyOp12
 70
     0
102
RTVSPropertyOp13
 70
     0
102
RTVSPropertyOp14
 70
     2
102
RTVSPropertyOp15
 70
     0
102
RTVSPropertyOp16
 70
     0
102
RTVSPropertyOp17
 70
     0
102
RTVSPropertyOp18
 70
     0
102
RTVSPropertyOp19
 70
     0
102
RTVSPropertyOp20
 70
     0
102
RTVSPropertyOp21
 70
     0
102
RTVSPropertyOp22
 70
     0
102
RTVSPropertyOp23
 70
     0
102
RTVSPropertyOp24
 70
     0
102
RTVSPropertyOp25
 70
     0
102
RTVSPropertyOp26
 70
     0
102
RTVSPropertyOp27
 70
     0
102
RTVSPropertyOp28
 70
     0
102
RTVSPropertyOp29
 70
     0
102
RTVSPropertyOp30
 70
     0
102
RTVSPropertyOp31
 70
     0
102
RTVSPropertyOp32
 70
     0
102
RTVSPropertyOp33
 70
     0
102
RTVSPropertyOp34
 70
     0
102
RTVSPropertyOp35
 70
     0
102
RTVSPropertyOp36
 70
     0
102
RTVSPropertyOp37
 70
     0
102
RTVSPropertyOp38
 70
     0
102
RTVSPropertyOp39
 70
     0
102
RTVSPropertyOp40
 70
     0
102
RTVSPropertyOp41
 70
     0
102
RTVSPropertyOp42
 70
     0
102
RTVSPropertyOp43
 70
     0
102
RTVSPropertyOp44
 70
     0
102
RTVSPropertyOp45
 70
     0
102
RTVSPropertyOp46
 70
     0
102
RTVSPropertyOp47
 70
     0
102
RTVSPropertyOp48
 70
     0
102
RTVSPropertyOp49
 70
     0
102
RTVSPropertyOp50
 70
     0
102
RTVSPropertyOp51
 70
     0
102
RTVSPropertyOp52
 70
     0
102
RTVSPropertyOp53
 70
     0
102
RTVSPropertyOp54
 70
     0
102
RTVSPropertyOp55
 70
     0
102
RTVSPropertyOp56
 70
     0
102
RTVSPropertyOp57
 70
     0
102
RTVSPropertyOp58
 70
     0
102
RTVSPropertyOp59
 70
     0
102
RTVSPropertyOp60
 70
     0
102
RTVSPropertyOp61
 70
     0
102
RTVSPropertyOp62
 70
     0
  0
XRECORD
  5
44E0
102
{ACAD_REACTORS
330
44DF
102
}
330
44DF
100
AcDbXrecord
280
     1
102
RTVSPost2010Prop28
280
     0
102
RTVSPost2010PropOp28
 70
     1
102
RTVSPost2010Prop29
280
     1
102
RTVSPost2010PropOp29
 70
     1
102
RTVSPost2010Prop30
280
     1
102
RTVSPost2010PropOp30
 70
     1
102
RTVSPost2010Prop31
280
     0
102
RTVSPost2010PropOp31
 70
     1
102
RTVSPost2010Prop32
280
     0
102
RTVSPost2010PropOp32
 70
     1
102
RTVSPost2010Prop33
280
     0
102
RTVSPost2010PropOp33
 70
     1
102
RTVSPost2010Prop34
280
     0
102
RTVSPost2010PropOp34
 70
     1
102
RTVSPost2010Prop35
280
     0
102
RTVSPost2010PropOp35
 70
     1
102
RTVSPost2010Prop36
280
     0
102
RTVSPost2010PropOp36
 70
     1
102
RTVSPost2010Prop37
 90
       50
102
RTVSPost2010PropOp37
 70
     1
102
RTVSPost2010Prop38
140
0.0
102
RTVSPost2010PropOp38
 70
     1
102
RTVSPost2010Prop39
140
1.0
102
RTVSPost2010PropOp39
 70
     1
102
RTVSPost2010Prop40
 90
        0
102
RTVSPost2010PropOp40
 70
     1
102
RTVSPost2010Prop41ColorIndex
 90
       18
102
RTVSPost2010Prop41ColorRGB
 90
        0
102
RTVSPost2010PropOp41
 70
     1
102
RTVSPost2010Prop42
 90
       50
102
RTVSPost2010PropOp42
 70
     1
102
RTVSPost2010Prop43
 90
        3
102
RTVSPost2010PropOp43
 70
     1
102
RTVSPost2010Prop44ColorIndex
 90
        5
102
RTVSPost2010Prop44ColorRGB
 90
      255
102
RTVSPost2010PropOp44
 70
     1
102
RTVSPost2010Prop45
280
     0
102
RTVSPost2010PropOp45
 70
     1
102
RTVSPost2010Prop46
 90
       50
102
RTVSPost2010PropOp46
 70
     1
102
RTVSPost2010Prop47
 90
       50
102
RTVSPost2010PropOp47
 70
     1
102
RTVSPost2010Prop48
 90
       50
102
RTVSPost2010PropOp48
 70
     1
102
RTVSPost2010Prop49
280
     0
102
RTVSPost2010PropOp49
 70
     1
102
RTVSPost2010Prop50
 90
       50
102
RTVSPost2010PropOp50
 70
     1
102
RTVSPost2010Prop51ColorIndex
 90
      256
102
RTVSPost2010Prop51ColorRGB
 90
-16777216
102
RTVSPost2010PropOp51
 70
     0
102
RTVSPost2010Prop52
140
1.0
102
RTVSPost2010PropOp52
 70
     0
102
RTVSPost2010Prop53
 90
        2
102
RTVSPost2010PropOp53
 70
     1
102
RTVSPost2010Prop54
  1
strokes_ogs.tif
102
RTVSPost2010PropOp54
 70
     1
102
RTVSPost2010Prop55
280
     0
102
RTVSPost2010PropOp55
 70
     1
102
RTVSPost2010Prop56
140
1.0
102
RTVSPost2010PropOp56
 70
     1
102
RTVSPost2010Prop57
140
1.0
102
RTVSPost2010PropOp57
 70
     1
102
RTVSPropertyOp0
 70
     1
102
RTVSPropertyOp1
 70
     1
102
RTVSPropertyOp2
 70
     1
102
RTVSPropertyOp3
 70
     1
102
RTVSPropertyOp4
 70
     1
102
RTVSPropertyOp5
 70
     1
102
RTVSPropertyOp6
 70
     1
102
RTVSPropertyOp7
 70
     1
102
RTVSPropertyOp8
 70
     1
102
RTVSPropertyOp9
 70
     1
102
RTVSPropertyOp10
 70
     1
102
RTVSPropertyOp11
 70
     1
102
RTVSPropertyOp12
 70
     1
102
RTVSPropertyOp13
 70
     1
102
RTVSPropertyOp14
 70
     1
102
RTVSPropertyOp15
 70
     1
102
RTVSPropertyOp16
 70
     1
102
RTVSPropertyOp17
 70
     1
102
RTVSPropertyOp18
 70
     1
102
RTVSPropertyOp19
 70
     1
102
RTVSPropertyOp20
 70
     1
102
RTVSPropertyOp21
 70
     1
102
RTVSPropertyOp22
 70
     1
102
RTVSPropertyOp23
 70
     1
102
RTVSPropertyOp24
 70
     1
102
RTVSPropertyOp25
 70
     1
102
RTVSPropertyOp26
 70
     1
102
RTVSPropertyOp27
 70
     1
102
RTVSPropertyOp28
 70
     1
102
RTVSPropertyOp29
 70
     1
102
RTVSPropertyOp30
 70
     1
102
RTVSPropertyOp31
 70
     1
102
RTVSPropertyOp32
 70
     1
102
RTVSPropertyOp33
 70
     1
102
RTVSPropertyOp34
 70
     1
102
RTVSPropertyOp35
 70
     1
102
RTVSPropertyOp36
 70
     1
102
RTVSPropertyOp37
 70
     1
102
RTVSPropertyOp38
 70
     1
102
RTVSPropertyOp39
 70
     1
102
RTVSPropertyOp40
 70
     1
102
RTVSPropertyOp41
 70
     1
102
RTVSPropertyOp42
 70
     1
102
RTVSPropertyOp43
 70
     1
102
RTVSPropertyOp44
 70
     1
102
RTVSPropertyOp45
 70
     1
102
RTVSPropertyOp46
 70
     1
102
RTVSPropertyOp47
 70
     1
102
RTVSPropertyOp48
 70
     1
102
RTVSPropertyOp49
 70
     1
102
RTVSPropertyOp50
 70
     1
102
RTVSPropertyOp51
 70
     0
102
RTVSPropertyOp52
 70
     0
102
RTVSPropertyOp53
 70
     1
102
RTVSPropertyOp54
 70
     1
102
RTVSPropertyOp55
 70
     1
102
RTVSPropertyOp56
 70
     1
102
RTVSPropertyOp57
 70
     1
102
RTVSPropertyOp58
 70
     1
102
RTVSPropertyOp59
 70
     1
102
RTVSPropertyOp60
 70
     1
102
RTVSPropertyOp61
 70
     1
102
RTVSPropertyOp62
 70
     1
  0
XRECORD
  5
44F6
102
{ACAD_REACTORS
330
44F5
102
}
330
44F5
100
AcDbXrecord
280
     1
102
RTVSPost2010Prop28
280
     0
102
RTVSPost2010PropOp28
 70
     1
102
RTVSPost2010Prop29
280
     1
102
RTVSPost2010PropOp29
 70
     1
102
RTVSPost2010Prop30
280
     1
102
RTVSPost2010PropOp30
 70
     1
102
RTVSPost2010Prop31
280
     0
102
RTVSPost2010PropOp31
 70
     1
102
RTVSPost2010Prop32
280
     0
102
RTVSPost2010PropOp32
 70
     1
102
RTVSPost2010Prop33
280
     0
102
RTVSPost2010PropOp33
 70
     1
102
RTVSPost2010Prop34
280
     0
102
RTVSPost2010PropOp34
 70
     1
102
RTVSPost2010Prop35
280
     0
102
RTVSPost2010PropOp35
 70
     1
102
RTVSPost2010Prop36
280
     0
102
RTVSPost2010PropOp36
 70
     1
102
RTVSPost2010Prop37
 90
       50
102
RTVSPost2010PropOp37
 70
     1
102
RTVSPost2010Prop38
140
0.0
102
RTVSPost2010PropOp38
 70
     1
102
RTVSPost2010Prop39
140
1.0
102
RTVSPost2010PropOp39
 70
     1
102
RTVSPost2010Prop40
 90
        0
102
RTVSPost2010PropOp40
 70
     1
102
RTVSPost2010Prop41ColorIndex
 90
       18
102
RTVSPost2010Prop41ColorRGB
 90
        0
102
RTVSPost2010PropOp41
 70
     1
102
RTVSPost2010Prop42
 90
       50
102
RTVSPost2010PropOp42
 70
     1
102
RTVSPost2010Prop43
 90
        3
102
RTVSPost2010PropOp43
 70
     1
102
RTVSPost2010Prop44ColorIndex
 90
        5
102
RTVSPost2010Prop44ColorRGB
 90
      255
102
RTVSPost2010PropOp44
 70
     1
102
RTVSPost2010Prop45
280
     0
102
RTVSPost2010PropOp45
 70
     1
102
RTVSPost2010Prop46
 90
       50
102
RTVSPost2010PropOp46
 70
     1
102
RTVSPost2010Prop47
 90
       50
102
RTVSPost2010PropOp47
 70
     1
102
RTVSPost2010Prop48
 90
       50
102
RTVSPost2010PropOp48
 70
     1
102
RTVSPost2010Prop49
280
     0
102
RTVSPost2010PropOp49
 70
     1
102
RTVSPost2010Prop50
 90
       50
102
RTVSPost2010PropOp50
 70
     1
102
RTVSPost2010Prop51ColorIndex
 90
      256
102
RTVSPost2010Prop51ColorRGB
 90
-16777216
102
RTVSPost2010PropOp51
 70
     0
102
RTVSPost2010Prop52
140
1.0
102
RTVSPost2010PropOp52
 70
     0
102
RTVSPost2010Prop53
 90
        2
102
RTVSPost2010PropOp53
 70
     1
102
RTVSPost2010Prop54
  1
strokes_ogs.tif
102
RTVSPost2010PropOp54
 70
     1
102
RTVSPost2010Prop55
280
     0
102
RTVSPost2010PropOp55
 70
     1
102
RTVSPost2010Prop56
140
1.0
102
RTVSPost2010PropOp56
 70
     1
102
RTVSPost2010Prop57
140
1.0
102
RTVSPost2010PropOp57
 70
     1
102
RTVSPropertyOp0
 70
     1
102
RTVSPropertyOp1
 70
     1
102
RTVSPropertyOp2
 70
     1
102
RTVSPropertyOp3
 70
     1
102
RTVSPropertyOp4
 70
     1
102
RTVSPropertyOp5
 70
     1
102
RTVSPropertyOp6
 70
     1
102
RTVSPropertyOp7
 70
     1
102
RTVSPropertyOp8
 70
     1
102
RTVSPropertyOp9
 70
     1
102
RTVSPropertyOp10
 70
     1
102
RTVSPropertyOp11
 70
     1
102
RTVSPropertyOp12
 70
     1
102
RTVSPropertyOp13
 70
     1
102
RTVSPropertyOp14
 70
     1
102
RTVSPropertyOp15
 70
     1
102
RTVSPropertyOp16
 70
     1
102
RTVSPropertyOp17
 70
     1
102
RTVSPropertyOp18
 70
     1
102
RTVSPropertyOp19
 70
     1
102
RTVSPropertyOp20
 70
     1
102
RTVSPropertyOp21
 70
     1
102
RTVSPropertyOp22
 70
     1
102
RTVSPropertyOp23
 70
     1
102
RTVSPropertyOp24
 70
     1
102
RTVSPropertyOp25
 70
     1
102
RTVSPropertyOp26
 70
     1
102
RTVSPropertyOp27
 70
     1
102
RTVSPropertyOp28
 70
     1
102
RTVSPropertyOp29
 70
     1
102
RTVSPropertyOp30
 70
     1
102
RTVSPropertyOp31
 70
     1
102
RTVSPropertyOp32
 70
     1
102
RTVSPropertyOp33
 70
     1
102
RTVSPropertyOp34
 70
     1
102
RTVSPropertyOp35
 70
     1
102
RTVSPropertyOp36
 70
     1
102
RTVSPropertyOp37
 70
     1
102
RTVSPropertyOp38
 70
     1
102
RTVSPropertyOp39
 70
     1
102
RTVSPropertyOp40
 70
     1
102
RTVSPropertyOp41
 70
     1
102
RTVSPropertyOp42
 70
     1
102
RTVSPropertyOp43
 70
     1
102
RTVSPropertyOp44
 70
     1
102
RTVSPropertyOp45
 70
     1
102
RTVSPropertyOp46
 70
     1
102
RTVSPropertyOp47
 70
     1
102
RTVSPropertyOp48
 70
     1
102
RTVSPropertyOp49
 70
     1
102
RTVSPropertyOp50
 70
     1
102
RTVSPropertyOp51
 70
     0
102
RTVSPropertyOp52
 70
     0
102
RTVSPropertyOp53
 70
     1
102
RTVSPropertyOp54
 70
     1
102
RTVSPropertyOp55
 70
     1
102
RTVSPropertyOp56
 70
     1
102
RTVSPropertyOp57
 70
     1
102
RTVSPropertyOp58
 70
     1
102
RTVSPropertyOp59
 70
     1
102
RTVSPropertyOp60
 70
     1
102
RTVSPropertyOp61
 70
     1
102
RTVSPropertyOp62
 70
     1
  0
XRECORD
  5
44F4
102
{ACAD_REACTORS
330
44F3
102
}
330
44F3
100
AcDbXrecord
280
     1
102
RTVSPost2010Prop28
280
     0
102
RTVSPost2010PropOp28
 70
     1
102
RTVSPost2010Prop29
280
     1
102
RTVSPost2010PropOp29
 70
     1
102
RTVSPost2010Prop30
280
     1
102
RTVSPost2010PropOp30
 70
     1
102
RTVSPost2010Prop31
280
     0
102
RTVSPost2010PropOp31
 70
     1
102
RTVSPost2010Prop32
280
     0
102
RTVSPost2010PropOp32
 70
     1
102
RTVSPost2010Prop33
280
     0
102
RTVSPost2010PropOp33
 70
     1
102
RTVSPost2010Prop34
280
     0
102
RTVSPost2010PropOp34
 70
     1
102
RTVSPost2010Prop35
280
     0
102
RTVSPost2010PropOp35
 70
     1
102
RTVSPost2010Prop36
280
     0
102
RTVSPost2010PropOp36
 70
     1
102
RTVSPost2010Prop37
 90
       50
102
RTVSPost2010PropOp37
 70
     1
102
RTVSPost2010Prop38
140
0.0
102
RTVSPost2010PropOp38
 70
     1
102
RTVSPost2010Prop39
140
1.0
102
RTVSPost2010PropOp39
 70
     1
102
RTVSPost2010Prop40
 90
        0
102
RTVSPost2010PropOp40
 70
     1
102
RTVSPost2010Prop41ColorIndex
 90
       18
102
RTVSPost2010Prop41ColorRGB
 90
        0
102
RTVSPost2010PropOp41
 70
     1
102
RTVSPost2010Prop42
 90
       50
102
RTVSPost2010PropOp42
 70
     1
102
RTVSPost2010Prop43
 90
        3
102
RTVSPost2010PropOp43
 70
     1
102
RTVSPost2010Prop44ColorIndex
 90
        5
102
RTVSPost2010Prop44ColorRGB
 90
      255
102
RTVSPost2010PropOp44
 70
     1
102
RTVSPost2010Prop45
280
     0
102
RTVSPost2010PropOp45
 70
     1
102
RTVSPost2010Prop46
 90
       50
102
RTVSPost2010PropOp46
 70
     1
102
RTVSPost2010Prop47
 90
       50
102
RTVSPost2010PropOp47
 70
     1
102
RTVSPost2010Prop48
 90
       50
102
RTVSPost2010PropOp48
 70
     1
102
RTVSPost2010Prop49
280
     0
102
RTVSPost2010PropOp49
 70
     1
102
RTVSPost2010Prop50
 90
       50
102
RTVSPost2010PropOp50
 70
     1
102
RTVSPost2010Prop51ColorIndex
 90
      256
102
RTVSPost2010Prop51ColorRGB
 90
-16777216
102
RTVSPost2010PropOp51
 70
     0
102
RTVSPost2010Prop52
140
1.0
102
RTVSPost2010PropOp52
 70
     0
102
RTVSPost2010Prop53
 90
        2
102
RTVSPost2010PropOp53
 70
     1
102
RTVSPost2010Prop54
  1
strokes_ogs.tif
102
RTVSPost2010PropOp54
 70
     1
102
RTVSPost2010Prop55
280
     0
102
RTVSPost2010PropOp55
 70
     1
102
RTVSPost2010Prop56
140
1.0
102
RTVSPost2010PropOp56
 70
     1
102
RTVSPost2010Prop57
140
1.0
102
RTVSPost2010PropOp57
 70
     1
102
RTVSPropertyOp0
 70
     1
102
RTVSPropertyOp1
 70
     1
102
RTVSPropertyOp2
 70
     1
102
RTVSPropertyOp3
 70
     1
102
RTVSPropertyOp4
 70
     1
102
RTVSPropertyOp5
 70
     1
102
RTVSPropertyOp6
 70
     1
102
RTVSPropertyOp7
 70
     1
102
RTVSPropertyOp8
 70
     1
102
RTVSPropertyOp9
 70
     1
102
RTVSPropertyOp10
 70
     1
102
RTVSPropertyOp11
 70
     1
102
RTVSPropertyOp12
 70
     1
102
RTVSPropertyOp13
 70
     1
102
RTVSPropertyOp14
 70
     1
102
RTVSPropertyOp15
 70
     1
102
RTVSPropertyOp16
 70
     1
102
RTVSPropertyOp17
 70
     1
102
RTVSPropertyOp18
 70
     1
102
RTVSPropertyOp19
 70
     1
102
RTVSPropertyOp20
 70
     1
102
RTVSPropertyOp21
 70
     1
102
RTVSPropertyOp22
 70
     1
102
RTVSPropertyOp23
 70
     1
102
RTVSPropertyOp24
 70
     1
102
RTVSPropertyOp25
 70
     1
102
RTVSPropertyOp26
 70
     1
102
RTVSPropertyOp27
 70
     1
102
RTVSPropertyOp28
 70
     1
102
RTVSPropertyOp29
 70
     1
102
RTVSPropertyOp30
 70
     1
102
RTVSPropertyOp31
 70
     1
102
RTVSPropertyOp32
 70
     1
102
RTVSPropertyOp33
 70
     1
102
RTVSPropertyOp34
 70
     1
102
RTVSPropertyOp35
 70
     1
102
RTVSPropertyOp36
 70
     1
102
RTVSPropertyOp37
 70
     1
102
RTVSPropertyOp38
 70
     1
102
RTVSPropertyOp39
 70
     1
102
RTVSPropertyOp40
 70
     1
102
RTVSPropertyOp41
 70
     1
102
RTVSPropertyOp42
 70
     1
102
RTVSPropertyOp43
 70
     1
102
RTVSPropertyOp44
 70
     1
102
RTVSPropertyOp45
 70
     1
102
RTVSPropertyOp46
 70
     1
102
RTVSPropertyOp47
 70
     1
102
RTVSPropertyOp48
 70
     1
102
RTVSPropertyOp49
 70
     1
102
RTVSPropertyOp50
 70
     1
102
RTVSPropertyOp51
 70
     0
102
RTVSPropertyOp52
 70
     0
102
RTVSPropertyOp53
 70
     1
102
RTVSPropertyOp54
 70
     1
102
RTVSPropertyOp55
 70
     1
102
RTVSPropertyOp56
 70
     1
102
RTVSPropertyOp57
 70
     1
102
RTVSPropertyOp58
 70
     1
102
RTVSPropertyOp59
 70
     1
102
RTVSPropertyOp60
 70
     1
102
RTVSPropertyOp61
 70
     1
102
RTVSPropertyOp62
 70
     1
  0
XRECORD
  5
44EE
102
{ACAD_REACTORS
330
44ED
102
}
330
44ED
100
AcDbXrecord
280
     1
102
RTVSPost2010Prop28
280
     0
102
RTVSPost2010PropOp28
 70
     1
102
RTVSPost2010Prop29
280
     1
102
RTVSPost2010PropOp29
 70
     1
102
RTVSPost2010Prop30
280
     1
102
RTVSPost2010PropOp30
 70
     1
102
RTVSPost2010Prop31
280
     0
102
RTVSPost2010PropOp31
 70
     1
102
RTVSPost2010Prop32
280
     0
102
RTVSPost2010PropOp32
 70
     1
102
RTVSPost2010Prop33
280
     0
102
RTVSPost2010PropOp33
 70
     1
102
RTVSPost2010Prop34
280
     0
102
RTVSPost2010PropOp34
 70
     1
102
RTVSPost2010Prop35
280
     0
102
RTVSPost2010PropOp35
 70
     1
102
RTVSPost2010Prop36
280
     0
102
RTVSPost2010PropOp36
 70
     1
102
RTVSPost2010Prop37
 90
       50
102
RTVSPost2010PropOp37
 70
     1
102
RTVSPost2010Prop38
140
0.0
102
RTVSPost2010PropOp38
 70
     1
102
RTVSPost2010Prop39
140
1.0
102
RTVSPost2010PropOp39
 70
     1
102
RTVSPost2010Prop40
 90
        0
102
RTVSPost2010PropOp40
 70
     1
102
RTVSPost2010Prop41ColorIndex
 90
       18
102
RTVSPost2010Prop41ColorRGB
 90
        0
102
RTVSPost2010PropOp41
 70
     1
102
RTVSPost2010Prop42
 90
       50
102
RTVSPost2010PropOp42
 70
     1
102
RTVSPost2010Prop43
 90
        3
102
RTVSPost2010PropOp43
 70
     1
102
RTVSPost2010Prop44ColorIndex
 90
        5
102
RTVSPost2010Prop44ColorRGB
 90
      255
102
RTVSPost2010PropOp44
 70
     1
102
RTVSPost2010Prop45
280
     0
102
RTVSPost2010PropOp45
 70
     1
102
RTVSPost2010Prop46
 90
       50
102
RTVSPost2010PropOp46
 70
     1
102
RTVSPost2010Prop47
 90
       50
102
RTVSPost2010PropOp47
 70
     1
102
RTVSPost2010Prop48
 90
       50
102
RTVSPost2010PropOp48
 70
     1
102
RTVSPost2010Prop49
280
     0
102
RTVSPost2010PropOp49
 70
     1
102
RTVSPost2010Prop50
 90
       50
102
RTVSPost2010PropOp50
 70
     1
102
RTVSPost2010Prop51ColorIndex
 90
      256
102
RTVSPost2010Prop51ColorRGB
 90
-16777216
102
RTVSPost2010PropOp51
 70
     0
102
RTVSPost2010Prop52
140
1.0
102
RTVSPost2010PropOp52
 70
     0
102
RTVSPost2010Prop53
 90
        2
102
RTVSPost2010PropOp53
 70
     1
102
RTVSPost2010Prop54
  1
strokes_ogs.tif
102
RTVSPost2010PropOp54
 70
     1
102
RTVSPost2010Prop55
280
     0
102
RTVSPost2010PropOp55
 70
     1
102
RTVSPost2010Prop56
140
1.0
102
RTVSPost2010PropOp56
 70
     1
102
RTVSPost2010Prop57
140
1.0
102
RTVSPost2010PropOp57
 70
     1
102
RTVSPropertyOp0
 70
     1
102
RTVSPropertyOp1
 70
     1
102
RTVSPropertyOp2
 70
     1
102
RTVSPropertyOp3
 70
     1
102
RTVSPropertyOp4
 70
     1
102
RTVSPropertyOp5
 70
     1
102
RTVSPropertyOp6
 70
     1
102
RTVSPropertyOp7
 70
     1
102
RTVSPropertyOp8
 70
     1
102
RTVSPropertyOp9
 70
     1
102
RTVSPropertyOp10
 70
     1
102
RTVSPropertyOp11
 70
     1
102
RTVSPropertyOp12
 70
     1
102
RTVSPropertyOp13
 70
     1
102
RTVSPropertyOp14
 70
     1
102
RTVSPropertyOp15
 70
     1
102
RTVSPropertyOp16
 70
     1
102
RTVSPropertyOp17
 70
     1
102
RTVSPropertyOp18
 70
     1
102
RTVSPropertyOp19
 70
     1
102
RTVSPropertyOp20
 70
     1
102
RTVSPropertyOp21
 70
     1
102
RTVSPropertyOp22
 70
     1
102
RTVSPropertyOp23
 70
     1
102
RTVSPropertyOp24
 70
     1
102
RTVSPropertyOp25
 70
     1
102
RTVSPropertyOp26
 70
     1
102
RTVSPropertyOp27
 70
     1
102
RTVSPropertyOp28
 70
     1
102
RTVSPropertyOp29
 70
     1
102
RTVSPropertyOp30
 70
     1
102
RTVSPropertyOp31
 70
     1
102
RTVSPropertyOp32
 70
     1
102
RTVSPropertyOp33
 70
     1
102
RTVSPropertyOp34
 70
     1
102
RTVSPropertyOp35
 70
     1
102
RTVSPropertyOp36
 70
     1
102
RTVSPropertyOp37
 70
     1
102
RTVSPropertyOp38
 70
     1
102
RTVSPropertyOp39
 70
     1
102
RTVSPropertyOp40
 70
     1
102
RTVSPropertyOp41
 70
     1
102
RTVSPropertyOp42
 70
     1
102
RTVSPropertyOp43
 70
     1
102
RTVSPropertyOp44
 70
     1
102
RTVSPropertyOp45
 70
     1
102
RTVSPropertyOp46
 70
     1
102
RTVSPropertyOp47
 70
     1
102
RTVSPropertyOp48
 70
     1
102
RTVSPropertyOp49
 70
     1
102
RTVSPropertyOp50
 70
     1
102
RTVSPropertyOp51
 70
     0
102
RTVSPropertyOp52
 70
     0
102
RTVSPropertyOp53
 70
     1
102
RTVSPropertyOp54
 70
     1
102
RTVSPropertyOp55
 70
     1
102
RTVSPropertyOp56
 70
     1
102
RTVSPropertyOp57
 70
     1
102
RTVSPropertyOp58
 70
     1
102
RTVSPropertyOp59
 70
     1
102
RTVSPropertyOp60
 70
     1
102
RTVSPropertyOp61
 70
     1
102
RTVSPropertyOp62
 70
     1
  0
XRECORD
  5
44F0
102
{ACAD_REACTORS
330
44EF
102
}
330
44EF
100
AcDbXrecord
280
     1
102
RTVSPost2010Prop28
280
     0
102
RTVSPost2010PropOp28
 70
     1
102
RTVSPost2010Prop29
280
     1
102
RTVSPost2010PropOp29
 70
     1
102
RTVSPost2010Prop30
280
     1
102
RTVSPost2010PropOp30
 70
     1
102
RTVSPost2010Prop31
280
     0
102
RTVSPost2010PropOp31
 70
     1
102
RTVSPost2010Prop32
280
     0
102
RTVSPost2010PropOp32
 70
     1
102
RTVSPost2010Prop33
280
     0
102
RTVSPost2010PropOp33
 70
     1
102
RTVSPost2010Prop34
280
     0
102
RTVSPost2010PropOp34
 70
     1
102
RTVSPost2010Prop35
280
     0
102
RTVSPost2010PropOp35
 70
     1
102
RTVSPost2010Prop36
280
     0
102
RTVSPost2010PropOp36
 70
     1
102
RTVSPost2010Prop37
 90
       50
102
RTVSPost2010PropOp37
 70
     1
102
RTVSPost2010Prop38
140
0.0
102
RTVSPost2010PropOp38
 70
     1
102
RTVSPost2010Prop39
140
1.0
102
RTVSPost2010PropOp39
 70
     1
102
RTVSPost2010Prop40
 90
        0
102
RTVSPost2010PropOp40
 70
     1
102
RTVSPost2010Prop41ColorIndex
 90
       18
102
RTVSPost2010Prop41ColorRGB
 90
        0
102
RTVSPost2010PropOp41
 70
     1
102
RTVSPost2010Prop42
 90
       50
102
RTVSPost2010PropOp42
 70
     1
102
RTVSPost2010Prop43
 90
        3
102
RTVSPost2010PropOp43
 70
     1
102
RTVSPost2010Prop44ColorIndex
 90
        5
102
RTVSPost2010Prop44ColorRGB
 90
      255
102
RTVSPost2010PropOp44
 70
     1
102
RTVSPost2010Prop45
280
     0
102
RTVSPost2010PropOp45
 70
     1
102
RTVSPost2010Prop46
 90
       50
102
RTVSPost2010PropOp46
 70
     1
102
RTVSPost2010Prop47
 90
       50
102
RTVSPost2010PropOp47
 70
     1
102
RTVSPost2010Prop48
 90
       50
102
RTVSPost2010PropOp48
 70
     1
102
RTVSPost2010Prop49
280
     0
102
RTVSPost2010PropOp49
 70
     1
102
RTVSPost2010Prop50
 90
       50
102
RTVSPost2010PropOp50
 70
     1
102
RTVSPost2010Prop51ColorIndex
 90
      256
102
RTVSPost2010Prop51ColorRGB
 90
-16777216
102
RTVSPost2010PropOp51
 70
     0
102
RTVSPost2010Prop52
140
1.0
102
RTVSPost2010PropOp52
 70
     0
102
RTVSPost2010Prop53
 90
        2
102
RTVSPost2010PropOp53
 70
     1
102
RTVSPost2010Prop54
  1
strokes_ogs.tif
102
RTVSPost2010PropOp54
 70
     1
102
RTVSPost2010Prop55
280
     0
102
RTVSPost2010PropOp55
 70
     1
102
RTVSPost2010Prop56
140
1.0
102
RTVSPost2010PropOp56
 70
     1
102
RTVSPost2010Prop57
140
1.0
102
RTVSPost2010PropOp57
 70
     1
102
RTVSPropertyOp0
 70
     1
102
RTVSPropertyOp1
 70
     1
102
RTVSPropertyOp2
 70
     1
102
RTVSPropertyOp3
 70
     1
102
RTVSPropertyOp4
 70
     1
102
RTVSPropertyOp5
 70
     1
102
RTVSPropertyOp6
 70
     1
102
RTVSPropertyOp7
 70
     1
102
RTVSPropertyOp8
 70
     1
102
RTVSPropertyOp9
 70
     1
102
RTVSPropertyOp10
 70
     1
102
RTVSPropertyOp11
 70
     1
102
RTVSPropertyOp12
 70
     1
102
RTVSPropertyOp13
 70
     1
102
RTVSPropertyOp14
 70
     1
102
RTVSPropertyOp15
 70
     1
102
RTVSPropertyOp16
 70
     1
102
RTVSPropertyOp17
 70
     1
102
RTVSPropertyOp18
 70
     1
102
RTVSPropertyOp19
 70
     1
102
RTVSPropertyOp20
 70
     1
102
RTVSPropertyOp21
 70
     1
102
RTVSPropertyOp22
 70
     1
102
RTVSPropertyOp23
 70
     1
102
RTVSPropertyOp24
 70
     1
102
RTVSPropertyOp25
 70
     1
102
RTVSPropertyOp26
 70
     1
102
RTVSPropertyOp27
 70
     1
102
RTVSPropertyOp28
 70
     1
102
RTVSPropertyOp29
 70
     1
102
RTVSPropertyOp30
 70
     1
102
RTVSPropertyOp31
 70
     1
102
RTVSPropertyOp32
 70
     1
102
RTVSPropertyOp33
 70
     1
102
RTVSPropertyOp34
 70
     1
102
RTVSPropertyOp35
 70
     1
102
RTVSPropertyOp36
 70
     1
102
RTVSPropertyOp37
 70
     1
102
RTVSPropertyOp38
 70
     1
102
RTVSPropertyOp39
 70
     1
102
RTVSPropertyOp40
 70
     1
102
RTVSPropertyOp41
 70
     1
102
RTVSPropertyOp42
 70
     1
102
RTVSPropertyOp43
 70
     1
102
RTVSPropertyOp44
 70
     1
102
RTVSPropertyOp45
 70
     1
102
RTVSPropertyOp46
 70
     1
102
RTVSPropertyOp47
 70
     1
102
RTVSPropertyOp48
 70
     1
102
RTVSPropertyOp49
 70
     1
102
RTVSPropertyOp50
 70
     1
102
RTVSPropertyOp51
 70
     0
102
RTVSPropertyOp52
 70
     0
102
RTVSPropertyOp53
 70
     1
102
RTVSPropertyOp54
 70
     1
102
RTVSPropertyOp55
 70
     1
102
RTVSPropertyOp56
 70
     1
102
RTVSPropertyOp57
 70
     1
102
RTVSPropertyOp58
 70
     1
102
RTVSPropertyOp59
 70
     1
102
RTVSPropertyOp60
 70
     1
102
RTVSPropertyOp61
 70
     1
102
RTVSPropertyOp62
 70
     1
  0
XRECORD
  5
44E6
102
{ACAD_REACTORS
330
44E5
102
}
330
44E5
100
AcDbXrecord
280
     1
102
RTVSPost2010Prop28
280
     0
102
RTVSPost2010PropOp28
 70
     1
102
RTVSPost2010Prop29
280
     1
102
RTVSPost2010PropOp29
 70
     1
102
RTVSPost2010Prop30
280
     1
102
RTVSPost2010PropOp30
 70
     1
102
RTVSPost2010Prop31
280
     0
102
RTVSPost2010PropOp31
 70
     1
102
RTVSPost2010Prop32
280
     0
102
RTVSPost2010PropOp32
 70
     1
102
RTVSPost2010Prop33
280
     0
102
RTVSPost2010PropOp33
 70
     1
102
RTVSPost2010Prop34
280
     0
102
RTVSPost2010PropOp34
 70
     1
102
RTVSPost2010Prop35
280
     0
102
RTVSPost2010PropOp35
 70
     1
102
RTVSPost2010Prop36
280
     0
102
RTVSPost2010PropOp36
 70
     1
102
RTVSPost2010Prop37
 90
       50
102
RTVSPost2010PropOp37
 70
     1
102
RTVSPost2010Prop38
140
0.0
102
RTVSPost2010PropOp38
 70
     1
102
RTVSPost2010Prop39
140
1.0
102
RTVSPost2010PropOp39
 70
     1
102
RTVSPost2010Prop40
 90
        0
102
RTVSPost2010PropOp40
 70
     1
102
RTVSPost2010Prop41ColorIndex
 90
       18
102
RTVSPost2010Prop41ColorRGB
 90
        0
102
RTVSPost2010PropOp41
 70
     1
102
RTVSPost2010Prop42
 90
       50
102
RTVSPost2010PropOp42
 70
     1
102
RTVSPost2010Prop43
 90
        3
102
RTVSPost2010PropOp43
 70
     1
102
RTVSPost2010Prop44ColorIndex
 90
        5
102
RTVSPost2010Prop44ColorRGB
 90
      255
102
RTVSPost2010PropOp44
 70
     1
102
RTVSPost2010Prop45
280
     0
102
RTVSPost2010PropOp45
 70
     1
102
RTVSPost2010Prop46
 90
       50
102
RTVSPost2010PropOp46
 70
     1
102
RTVSPost2010Prop47
 90
       50
102
RTVSPost2010PropOp47
 70
     1
102
RTVSPost2010Prop48
 90
       50
102
RTVSPost2010PropOp48
 70
     1
102
RTVSPost2010Prop49
280
     0
102
RTVSPost2010PropOp49
 70
     1
102
RTVSPost2010Prop50
 90
       50
102
RTVSPost2010PropOp50
 70
     1
102
RTVSPost2010Prop51ColorIndex
 90
      256
102
RTVSPost2010Prop51ColorRGB
 90
-16777216
102
RTVSPost2010PropOp51
 70
     0
102
RTVSPost2010Prop52
140
1.0
102
RTVSPost2010PropOp52
 70
     0
102
RTVSPost2010Prop53
 90
        2
102
RTVSPost2010PropOp53
 70
     1
102
RTVSPost2010Prop54
  1
strokes_ogs.tif
102
RTVSPost2010PropOp54
 70
     1
102
RTVSPost2010Prop55
280
     0
102
RTVSPost2010PropOp55
 70
     1
102
RTVSPost2010Prop56
140
1.0
102
RTVSPost2010PropOp56
 70
     1
102
RTVSPost2010Prop57
140
1.0
102
RTVSPost2010PropOp57
 70
     1
102
RTVSPropertyOp0
 70
     1
102
RTVSPropertyOp1
 70
     1
102
RTVSPropertyOp2
 70
     1
102
RTVSPropertyOp3
 70
     1
102
RTVSPropertyOp4
 70
     1
102
RTVSPropertyOp5
 70
     1
102
RTVSPropertyOp6
 70
     1
102
RTVSPropertyOp7
 70
     1
102
RTVSPropertyOp8
 70
     1
102
RTVSPropertyOp9
 70
     1
102
RTVSPropertyOp10
 70
     1
102
RTVSPropertyOp11
 70
     1
102
RTVSPropertyOp12
 70
     1
102
RTVSPropertyOp13
 70
     1
102
RTVSPropertyOp14
 70
     1
102
RTVSPropertyOp15
 70
     1
102
RTVSPropertyOp16
 70
     1
102
RTVSPropertyOp17
 70
     1
102
RTVSPropertyOp18
 70
     1
102
RTVSPropertyOp19
 70
     1
102
RTVSPropertyOp20
 70
     1
102
RTVSPropertyOp21
 70
     1
102
RTVSPropertyOp22
 70
     1
102
RTVSPropertyOp23
 70
     1
102
RTVSPropertyOp24
 70
     1
102
RTVSPropertyOp25
 70
     1
102
RTVSPropertyOp26
 70
     1
102
RTVSPropertyOp27
 70
     1
102
RTVSPropertyOp28
 70
     1
102
RTVSPropertyOp29
 70
     1
102
RTVSPropertyOp30
 70
     1
102
RTVSPropertyOp31
 70
     1
102
RTVSPropertyOp32
 70
     1
102
RTVSPropertyOp33
 70
     1
102
RTVSPropertyOp34
 70
     1
102
RTVSPropertyOp35
 70
     1
102
RTVSPropertyOp36
 70
     1
102
RTVSPropertyOp37
 70
     1
102
RTVSPropertyOp38
 70
     1
102
RTVSPropertyOp39
 70
     1
102
RTVSPropertyOp40
 70
     1
102
RTVSPropertyOp41
 70
     1
102
RTVSPropertyOp42
 70
     1
102
RTVSPropertyOp43
 70
     1
102
RTVSPropertyOp44
 70
     1
102
RTVSPropertyOp45
 70
     1
102
RTVSPropertyOp46
 70
     1
102
RTVSPropertyOp47
 70
     1
102
RTVSPropertyOp48
 70
     1
102
RTVSPropertyOp49
 70
     1
102
RTVSPropertyOp50
 70
     1
102
RTVSPropertyOp51
 70
     0
102
RTVSPropertyOp52
 70
     0
102
RTVSPropertyOp53
 70
     1
102
RTVSPropertyOp54
 70
     1
102
RTVSPropertyOp55
 70
     1
102
RTVSPropertyOp56
 70
     1
102
RTVSPropertyOp57
 70
     1
102
RTVSPropertyOp58
 70
     1
102
RTVSPropertyOp59
 70
     1
102
RTVSPropertyOp60
 70
     1
102
RTVSPropertyOp61
 70
     1
102
RTVSPropertyOp62
 70
     1
  0
XRECORD
  5
44DA
102
{ACAD_REACTORS
330
44D9
102
}
330
44D9
100
AcDbXrecord
280
     1
102
RTVSPost2010Prop28
280
     0
102
RTVSPost2010PropOp28
 70
     1
102
RTVSPost2010Prop29
280
     1
102
RTVSPost2010PropOp29
 70
     1
102
RTVSPost2010Prop30
280
     1
102
RTVSPost2010PropOp30
 70
     1
102
RTVSPost2010Prop31
280
     0
102
RTVSPost2010PropOp31
 70
     1
102
RTVSPost2010Prop32
280
     0
102
RTVSPost2010PropOp32
 70
     1
102
RTVSPost2010Prop33
280
     0
102
RTVSPost2010PropOp33
 70
     1
102
RTVSPost2010Prop34
280
     0
102
RTVSPost2010PropOp34
 70
     1
102
RTVSPost2010Prop35
280
     0
102
RTVSPost2010PropOp35
 70
     1
102
RTVSPost2010Prop36
280
     0
102
RTVSPost2010PropOp36
 70
     1
102
RTVSPost2010Prop37
 90
       50
102
RTVSPost2010PropOp37
 70
     1
102
RTVSPost2010Prop38
140
0.0
102
RTVSPost2010PropOp38
 70
     1
102
RTVSPost2010Prop39
140
1.0
102
RTVSPost2010PropOp39
 70
     1
102
RTVSPost2010Prop40
 90
        0
102
RTVSPost2010PropOp40
 70
     1
102
RTVSPost2010Prop41ColorIndex
 90
       18
102
RTVSPost2010Prop41ColorRGB
 90
        0
102
RTVSPost2010PropOp41
 70
     1
102
RTVSPost2010Prop42
 90
       50
102
RTVSPost2010PropOp42
 70
     1
102
RTVSPost2010Prop43
 90
        3
102
RTVSPost2010PropOp43
 70
     1
102
RTVSPost2010Prop44ColorIndex
 90
        5
102
RTVSPost2010Prop44ColorRGB
 90
      255
102
RTVSPost2010PropOp44
 70
     1
102
RTVSPost2010Prop45
280
     0
102
RTVSPost2010PropOp45
 70
     1
102
RTVSPost2010Prop46
 90
       50
102
RTVSPost2010PropOp46
 70
     1
102
RTVSPost2010Prop47
 90
       50
102
RTVSPost2010PropOp47
 70
     1
102
RTVSPost2010Prop48
 90
       50
102
RTVSPost2010PropOp48
 70
     1
102
RTVSPost2010Prop49
280
     0
102
RTVSPost2010PropOp49
 70
     1
102
RTVSPost2010Prop50
 90
       50
102
RTVSPost2010PropOp50
 70
     1
102
RTVSPost2010Prop51ColorIndex
 90
      256
102
RTVSPost2010Prop51ColorRGB
 90
-16777216
102
RTVSPost2010PropOp51
 70
     0
102
RTVSPost2010Prop52
140
1.0
102
RTVSPost2010PropOp52
 70
     0
102
RTVSPost2010Prop53
 90
        2
102
RTVSPost2010PropOp53
 70
     1
102
RTVSPost2010Prop54
  1
strokes_ogs.tif
102
RTVSPost2010PropOp54
 70
     1
102
RTVSPost2010Prop55
280
     0
102
RTVSPost2010PropOp55
 70
     1
102
RTVSPost2010Prop56
140
1.0
102
RTVSPost2010PropOp56
 70
     1
102
RTVSPost2010Prop57
140
1.0
102
RTVSPost2010PropOp57
 70
     1
102
RTVSPropertyOp0
 70
     1
102
RTVSPropertyOp1
 70
     1
102
RTVSPropertyOp2
 70
     1
102
RTVSPropertyOp3
 70
     1
102
RTVSPropertyOp4
 70
     1
102
RTVSPropertyOp5
 70
     1
102
RTVSPropertyOp6
 70
     1
102
RTVSPropertyOp7
 70
     1
102
RTVSPropertyOp8
 70
     1
102
RTVSPropertyOp9
 70
     1
102
RTVSPropertyOp10
 70
     1
102
RTVSPropertyOp11
 70
     1
102
RTVSPropertyOp12
 70
     1
102
RTVSPropertyOp13
 70
     1
102
RTVSPropertyOp14
 70
     1
102
RTVSPropertyOp15
 70
     1
102
RTVSPropertyOp16
 70
     1
102
RTVSPropertyOp17
 70
     1
102
RTVSPropertyOp18
 70
     1
102
RTVSPropertyOp19
 70
     1
102
RTVSPropertyOp20
 70
     1
102
RTVSPropertyOp21
 70
     1
102
RTVSPropertyOp22
 70
     1
102
RTVSPropertyOp23
 70
     1
102
RTVSPropertyOp24
 70
     1
102
RTVSPropertyOp25
 70
     1
102
RTVSPropertyOp26
 70
     1
102
RTVSPropertyOp27
 70
     1
102
RTVSPropertyOp28
 70
     1
102
RTVSPropertyOp29
 70
     1
102
RTVSPropertyOp30
 70
     1
102
RTVSPropertyOp31
 70
     1
102
RTVSPropertyOp32
 70
     1
102
RTVSPropertyOp33
 70
     1
102
RTVSPropertyOp34
 70
     1
102
RTVSPropertyOp35
 70
     1
102
RTVSPropertyOp36
 70
     1
102
RTVSPropertyOp37
 70
     1
102
RTVSPropertyOp38
 70
     1
102
RTVSPropertyOp39
 70
     1
102
RTVSPropertyOp40
 70
     1
102
RTVSPropertyOp41
 70
     1
102
RTVSPropertyOp42
 70
     1
102
RTVSPropertyOp43
 70
     1
102
RTVSPropertyOp44
 70
     1
102
RTVSPropertyOp45
 70
     1
102
RTVSPropertyOp46
 70
     1
102
RTVSPropertyOp47
 70
     1
102
RTVSPropertyOp48
 70
     1
102
RTVSPropertyOp49
 70
     1
102
RTVSPropertyOp50
 70
     1
102
RTVSPropertyOp51
 70
     0
102
RTVSPropertyOp52
 70
     0
102
RTVSPropertyOp53
 70
     1
102
RTVSPropertyOp54
 70
     1
102
RTVSPropertyOp55
 70
     1
102
RTVSPropertyOp56
 70
     1
102
RTVSPropertyOp57
 70
     1
102
RTVSPropertyOp58
 70
     1
102
RTVSPropertyOp59
 70
     1
102
RTVSPropertyOp60
 70
     1
102
RTVSPropertyOp61
 70
     1
102
RTVSPropertyOp62
 70
     1
  0
XRECORD
  5
44F2
102
{ACAD_REACTORS
330
44F1
102
}
330
44F1
100
AcDbXrecord
280
     1
102
RTVSPost2010Prop28
280
     0
102
RTVSPost2010PropOp28
 70
     1
102
RTVSPost2010Prop29
280
     1
102
RTVSPost2010PropOp29
 70
     1
102
RTVSPost2010Prop30
280
     1
102
RTVSPost2010PropOp30
 70
     1
102
RTVSPost2010Prop31
280
     0
102
RTVSPost2010PropOp31
 70
     1
102
RTVSPost2010Prop32
280
     0
102
RTVSPost2010PropOp32
 70
     1
102
RTVSPost2010Prop33
280
     0
102
RTVSPost2010PropOp33
 70
     1
102
RTVSPost2010Prop34
280
     0
102
RTVSPost2010PropOp34
 70
     1
102
RTVSPost2010Prop35
280
     0
102
RTVSPost2010PropOp35
 70
     1
102
RTVSPost2010Prop36
280
     0
102
RTVSPost2010PropOp36
 70
     1
102
RTVSPost2010Prop37
 90
       50
102
RTVSPost2010PropOp37
 70
     1
102
RTVSPost2010Prop38
140
0.0
102
RTVSPost2010PropOp38
 70
     1
102
RTVSPost2010Prop39
140
1.0
102
RTVSPost2010PropOp39
 70
     1
102
RTVSPost2010Prop40
 90
        0
102
RTVSPost2010PropOp40
 70
     1
102
RTVSPost2010Prop41ColorIndex
 90
       18
102
RTVSPost2010Prop41ColorRGB
 90
        0
102
RTVSPost2010PropOp41
 70
     1
102
RTVSPost2010Prop42
 90
       50
102
RTVSPost2010PropOp42
 70
     1
102
RTVSPost2010Prop43
 90
        3
102
RTVSPost2010PropOp43
 70
     1
102
RTVSPost2010Prop44ColorIndex
 90
        5
102
RTVSPost2010Prop44ColorRGB
 90
      255
102
RTVSPost2010PropOp44
 70
     1
102
RTVSPost2010Prop45
280
     0
102
RTVSPost2010PropOp45
 70
     1
102
RTVSPost2010Prop46
 90
       50
102
RTVSPost2010PropOp46
 70
     1
102
RTVSPost2010Prop47
 90
       50
102
RTVSPost2010PropOp47
 70
     1
102
RTVSPost2010Prop48
 90
       50
102
RTVSPost2010PropOp48
 70
     1
102
RTVSPost2010Prop49
280
     0
102
RTVSPost2010PropOp49
 70
     1
102
RTVSPost2010Prop50
 90
       50
102
RTVSPost2010PropOp50
 70
     1
102
RTVSPost2010Prop51ColorIndex
 90
      256
102
RTVSPost2010Prop51ColorRGB
 90
-16777216
102
RTVSPost2010PropOp51
 70
     0
102
RTVSPost2010Prop52
140
1.0
102
RTVSPost2010PropOp52
 70
     0
102
RTVSPost2010Prop53
 90
        2
102
RTVSPost2010PropOp53
 70
     1
102
RTVSPost2010Prop54
  1
strokes_ogs.tif
102
RTVSPost2010PropOp54
 70
     1
102
RTVSPost2010Prop55
280
     0
102
RTVSPost2010PropOp55
 70
     1
102
RTVSPost2010Prop56
140
1.0
102
RTVSPost2010PropOp56
 70
     1
102
RTVSPost2010Prop57
140
1.0
102
RTVSPost2010PropOp57
 70
     1
102
RTVSPropertyOp0
 70
     1
102
RTVSPropertyOp1
 70
     1
102
RTVSPropertyOp2
 70
     1
102
RTVSPropertyOp3
 70
     1
102
RTVSPropertyOp4
 70
     1
102
RTVSPropertyOp5
 70
     1
102
RTVSPropertyOp6
 70
     1
102
RTVSPropertyOp7
 70
     1
102
RTVSPropertyOp8
 70
     1
102
RTVSPropertyOp9
 70
     1
102
RTVSPropertyOp10
 70
     1
102
RTVSPropertyOp11
 70
     1
102
RTVSPropertyOp12
 70
     1
102
RTVSPropertyOp13
 70
     1
102
RTVSPropertyOp14
 70
     1
102
RTVSPropertyOp15
 70
     1
102
RTVSPropertyOp16
 70
     1
102
RTVSPropertyOp17
 70
     1
102
RTVSPropertyOp18
 70
     1
102
RTVSPropertyOp19
 70
     1
102
RTVSPropertyOp20
 70
     1
102
RTVSPropertyOp21
 70
     1
102
RTVSPropertyOp22
 70
     1
102
RTVSPropertyOp23
 70
     1
102
RTVSPropertyOp24
 70
     1
102
RTVSPropertyOp25
 70
     1
102
RTVSPropertyOp26
 70
     1
102
RTVSPropertyOp27
 70
     1
102
RTVSPropertyOp28
 70
     1
102
RTVSPropertyOp29
 70
     1
102
RTVSPropertyOp30
 70
     1
102
RTVSPropertyOp31
 70
     1
102
RTVSPropertyOp32
 70
     1
102
RTVSPropertyOp33
 70
     1
102
RTVSPropertyOp34
 70
     1
102
RTVSPropertyOp35
 70
     1
102
RTVSPropertyOp36
 70
     1
102
RTVSPropertyOp37
 70
     1
102
RTVSPropertyOp38
 70
     1
102
RTVSPropertyOp39
 70
     1
102
RTVSPropertyOp40
 70
     1
102
RTVSPropertyOp41
 70
     1
102
RTVSPropertyOp42
 70
     1
102
RTVSPropertyOp43
 70
     1
102
RTVSPropertyOp44
 70
     1
102
RTVSPropertyOp45
 70
     1
102
RTVSPropertyOp46
 70
     1
102
RTVSPropertyOp47
 70
     1
102
RTVSPropertyOp48
 70
     1
102
RTVSPropertyOp49
 70
     1
102
RTVSPropertyOp50
 70
     1
102
RTVSPropertyOp51
 70
     0
102
RTVSPropertyOp52
 70
     0
102
RTVSPropertyOp53
 70
     1
102
RTVSPropertyOp54
 70
     1
102
RTVSPropertyOp55
 70
     1
102
RTVSPropertyOp56
 70
     1
102
RTVSPropertyOp57
 70
     1
102
RTVSPropertyOp58
 70
     1
102
RTVSPropertyOp59
 70
     1
102
RTVSPropertyOp60
 70
     1
102
RTVSPropertyOp61
 70
     1
102
RTVSPropertyOp62
 70
     1
  0
ENDSEC
  0
EOF
