  0
SECTION
  2
HEADER
  9
$ACADVER
  1
AC1018
  9
$ACADMAINTVER
 70
   104
  9
$DWGCODEPAGE
  3
ANSI_936
  9
$LASTSAVEDBY
  1
Benz
  9
$INSBASE
 10
0.0
 20
0.0
 30
0.0
  9
$EXTMIN
 10
295.4578952232109
 20
2500.400469225771
 30
0.0
  9
$EXTMAX
 10
4459.994876986023
 20
7225.120819845393
 30
0.0
  9
$LIMMIN
 10
0.0
 20
0.0
  9
$LIMMAX
 10
420.0
 20
297.0
  9
$ORTHOMODE
 70
     0
  9
$REGENMODE
 70
     1
  9
$FILLMODE
 70
     1
  9
$QTEXTMODE
 70
     0
  9
$MIRRTEXT
 70
     1
  9
$LTSCALE
 40
1.0
  9
$ATTMODE
 70
     1
  9
$TEXTSIZE
 40
42.76517376937772
  9
$TRACEWID
 40
1.0
  9
$TEXTSTYLE
  7
Standard
  9
$CLAYER
  8
图层1
  9
$CELTYPE
  6
ByLayer
  9
$CECOLOR
 62
   256
  9
$CELTSCALE
 40
1.0
  9
$DISPSILH
 70
     0
  9
$DIMSCALE
 40
1.0
  9
$DIMASZ
 40
13.0
  9
$DIMEXO
 40
5.0
  9
$DIMDLI
 40
3.75
  9
$DIMRND
 40
0.0
  9
$DIMDLE
 40
0.0
  9
$DIMEXE
 40
1.25
  9
$DIMTP
 40
0.0
  9
$DIMTM
 40
0.0
  9
$DIMTXT
 40
13.0
  9
$DIMCEN
 40
20.0
  9
$DIMTSZ
 40
0.0
  9
$DIMTOL
 70
     0
  9
$DIMLIM
 70
     0
  9
$DIMTIH
 70
     0
  9
$DIMTOH
 70
     1
  9
$DIMSE1
 70
     0
  9
$DIMSE2
 70
     0
  9
$DIMTAD
 70
     1
  9
$DIMZIN
 70
     8
  9
$DIMBLK
  1

  9
$DIMASO
 70
     1
  9
$DIMSHO
 70
     1
  9
$DIMPOST
  1

  9
$DIMAPOST
  1

  9
$DIMALT
 70
     1
  9
$DIMALTD
 70
     3
  9
$DIMALTF
 40
0.03937007874016
  9
$DIMLFAC
 40
1.0
  9
$DIMTOFL
 70
     1
  9
$DIMTVP
 40
0.0
  9
$DIMTIX
 70
     0
  9
$DIMSOXD
 70
     0
  9
$DIMSAH
 70
     0
  9
$DIMBLK1
  1

  9
$DIMBLK2
  1

  9
$DIMSTYLE
  2
ISO-25
  9
$DIMCLRD
 70
     0
  9
$DIMCLRE
 70
     0
  9
$DIMCLRT
 70
     0
  9
$DIMTFAC
 40
1.0
  9
$DIMGAP
 40
4.0
  9
$DIMJUST
 70
     0
  9
$DIMSD1
 70
     0
  9
$DIMSD2
 70
     0
  9
$DIMTOLJ
 70
     0
  9
$DIMTZIN
 70
     8
  9
$DIMALTZ
 70
     0
  9
$DIMALTTZ
 70
     0
  9
$DIMUPT
 70
     0
  9
$DIMDEC
 70
     2
  9
$DIMTDEC
 70
     2
  9
$DIMALTU
 70
     7
  9
$DIMALTTD
 70
     3
  9
$DIMTXSTY
  7
Standard
  9
$DIMAUNIT
 70
     0
  9
$DIMADEC
 70
     0
  9
$DIMALTRND
 40
0.0
  9
$DIMAZIN
 70
     0
  9
$DIMDSEP
 70
    46
  9
$DIMATFIT
 70
     3
  9
$DIMFRAC
 70
     0
  9
$DIMLDRBLK
  1

  9
$DIMLUNIT
 70
     2
  9
$DIMLWD
 70
    -2
  9
$DIMLWE
 70
    -2
  9
$DIMTMOVE
 70
     0
  9
$LUNITS
 70
     2
  9
$LUPREC
 70
     4
  9
$SKETCHINC
 40
1.0
  9
$FILLETRAD
 40
4.5
  9
$AUNITS
 70
     0
  9
$AUPREC
 70
     0
  9
$MENU
  1
.
  9
$ELEVATION
 40
0.0
  9
$PELEVATION
 40
0.0
  9
$THICKNESS
 40
0.0
  9
$LIMCHECK
 70
     0
  9
$CHAMFERA
 40
10.0
  9
$CHAMFERB
 40
10.0
  9
$CHAMFERC
 40
20.0
  9
$CHAMFERD
 40
0.0
  9
$SKPOLY
 70
     0
  9
$TDCREATE
 40
2453678.444714456
  9
$TDUCREATE
 40
2453678.111381123
  9
$TDUPDATE
 40
2456716.708198554
  9
$TDUUPDATE
 40
2456716.374865220
  9
$TDINDWG
 40
0.3086532292
  9
$TDUSRTIMER
 40
0.3086531134
  9
$USRTIMER
 70
     1
  9
$ANGBASE
 50
0.0
  9
$ANGDIR
 70
     0
  9
$PDMODE
 70
     0
  9
$PDSIZE
 40
0.0
  9
$PLINEWID
 40
0.0
  9
$SPLFRAME
 70
     0
  9
$SPLINETYPE
 70
     6
  9
$SPLINESEGS
 70
     8
  9
$HANDSEED
  5
289E
  9
$SURFTAB1
 70
     6
  9
$SURFTAB2
 70
     6
  9
$SURFTYPE
 70
     6
  9
$SURFU
 70
     6
  9
$SURFV
 70
     6
  9
$UCSBASE
  2

  9
$UCSNAME
  2

  9
$UCSORG
 10
0.0
 20
0.0
 30
0.0
  9
$UCSXDIR
 10
1.0
 20
0.0
 30
0.0
  9
$UCSYDIR
 10
0.0
 20
1.0
 30
0.0
  9
$UCSORTHOREF
  2

  9
$UCSORTHOVIEW
 70
     0
  9
$UCSORGTOP
 10
0.0
 20
0.0
 30
0.0
  9
$UCSORGBOTTOM
 10
0.0
 20
0.0
 30
0.0
  9
$UCSORGLEFT
 10
0.0
 20
0.0
 30
0.0
  9
$UCSORGRIGHT
 10
0.0
 20
0.0
 30
0.0
  9
$UCSORGFRONT
 10
0.0
 20
0.0
 30
0.0
  9
$UCSORGBACK
 10
0.0
 20
0.0
 30
0.0
  9
$PUCSBASE
  2

  9
$PUCSNAME
  2

  9
$PUCSORG
 10
0.0
 20
0.0
 30
0.0
  9
$PUCSXDIR
 10
1.0
 20
0.0
 30
0.0
  9
$PUCSYDIR
 10
0.0
 20
1.0
 30
0.0
  9
$PUCSORTHOREF
  2

  9
$PUCSORTHOVIEW
 70
     0
  9
$PUCSORGTOP
 10
0.0
 20
0.0
 30
0.0
  9
$PUCSORGBOTTOM
 10
0.0
 20
0.0
 30
0.0
  9
$PUCSORGLEFT
 10
0.0
 20
0.0
 30
0.0
  9
$PUCSORGRIGHT
 10
0.0
 20
0.0
 30
0.0
  9
$PUCSORGFRONT
 10
0.0
 20
0.0
 30
0.0
  9
$PUCSORGBACK
 10
0.0
 20
0.0
 30
0.0
  9
$USERI1
 70
     0
  9
$USERI2
 70
     0
  9
$USERI3
 70
     0
  9
$USERI4
 70
     0
  9
$USERI5
 70
     0
  9
$USERR1
 40
0.0
  9
$USERR2
 40
0.0
  9
$USERR3
 40
0.0
  9
$USERR4
 40
0.0
  9
$USERR5
 40
0.0
  9
$WORLDVIEW
 70
     1
  9
$SHADEDGE
 70
     3
  9
$SHADEDIF
 70
    70
  9
$TILEMODE
 70
     1
  9
$MAXACTVP
 70
    64
  9
$PINSBASE
 10
0.0
 20
0.0
 30
0.0
  9
$PLIMCHECK
 70
     0
  9
$PEXTMIN
 10
0.0
 20
0.0
 30
0.0
  9
$PEXTMAX
 10
0.0
 20
0.0
 30
0.0
  9
$PLIMMIN
 10
0.0
 20
0.0
  9
$PLIMMAX
 10
12.0
 20
9.0
  9
$UNITMODE
 70
     0
  9
$VISRETAIN
 70
     1
  9
$PLINEGEN
 70
     0
  9
$PSLTSCALE
 70
     1
  9
$TREEDEPTH
 70
  3020
  9
$CMLSTYLE
  2
Standard
  9
$CMLJUST
 70
     0
  9
$CMLSCALE
 40
20.0
  9
$PROXYGRAPHICS
 70
     1
  9
$MEASUREMENT
 70
     1
  9
$CELWEIGHT
370
    -1
  9
$ENDCAPS
280
     0
  9
$JOINSTYLE
280
     0
  9
$LWDISPLAY
290
     0
  9
$INSUNITS
 70
     4
  9
$HYPERLINKBASE
  1

  9
$STYLESHEET
  1

  9
$XEDIT
290
     1
  9
$CEPSNTYPE
380
     0
  9
$PSTYLEMODE
290
     1
  9
$FINGERPRINTGUID
  2
{FDEAD578-A652-11D2-9A35-0060089B3A3F}
  9
$VERSIONGUID
  2
{400BBFCC-6ABB-42FC-81C4-C5295540666E}
  9
$EXTNAMES
290
     1
  9
$PSVPSCALE
 40
0.0
  9
$OLESTARTUP
290
     0
  9
$SORTENTS
280
   127
  9
$INDEXCTL
280
     0
  9
$HIDETEXT
280
     1
  9
$XCLIPFRAME
290
     0
  9
$HALOGAP
280
     0
  9
$OBSCOLOR
 70
   257
  9
$OBSLTYPE
280
     0
  9
$INTERSECTIONDISPLAY
280
     0
  9
$INTERSECTIONCOLOR
 70
   257
  9
$DIMASSOC
280
     2
  9
$PROJECTNAME
  1

  0
ENDSEC
  0
SECTION
  2
CLASSES
  0
CLASS
  1
ACDBDICTIONARYWDFLT
  2
AcDbDictionaryWithDefault
  3
ObjectDBX Classes
 90
        0
 91
        1
280
     0
281
     0
  0
CLASS
  1
DICTIONARYVAR
  2
AcDbDictionaryVar
  3
ObjectDBX Classes
 90
        0
 91
        5
280
     0
281
     0
  0
CLASS
  1
DIMASSOC
  2
AcDbDimAssoc
  3
"AcDbDimAssoc|Product Desc:     AcDim ARX App For Dimension|Company:          Autodesk, Inc.|WEB Address:      www.autodesk.com"
 90
        0
 91
       38
280
     0
281
     0
  0
CLASS
  1
TABLESTYLE
  2
AcDbTableStyle
  3
ObjectDBX Classes
 90
     4095
 91
        1
280
     0
281
     0
  0
CLASS
  1
SORTENTSTABLE
  2
AcDbSortentsTable
  3
ObjectDBX Classes
 90
        0
 91
        1
280
     0
281
     0
  0
CLASS
  1
MATERIAL
  2
AcDbMaterial
  3
ObjectDBX Classes
 90
     1153
 91
        3
280
     0
281
     0
  0
CLASS
  1
VISUALSTYLE
  2
AcDbVisualStyle
  3
ObjectDBX Classes
 90
     4095
 91
       19
280
     0
281
     0
  0
CLASS
  1
SCALE
  2
AcDbScale
  3
ObjectDBX Classes
 90
     1153
 91
       17
280
     0
281
     0
  0
CLASS
  1
MLEADERSTYLE
  2
AcDbMLeaderStyle
  3
ACDB_MLEADERSTYLE_CLASS
 90
     4095
 91
        1
280
     0
281
     0
  0
CLASS
  1
CELLSTYLEMAP
  2
AcDbCellStyleMap
  3
ObjectDBX Classes
 90
     1152
 91
        1
280
     0
281
     0
  0
ENDSEC
  0
SECTION
  2
TABLES
  0
TABLE
  2
VPORT
  5
8
330
0
100
AcDbSymbolTable
 70
     1
  0
VPORT
  5
2801
330
8
100
AcDbSymbolTableRecord
100
AcDbViewportTableRecord
  2
*Active
 70
     0
 10
0.0
 20
0.0
 11
1.0
 21
1.0
 12
2895.705365692135
 22
4171.893489670003
 13
0.0
 23
0.0
 14
10.0
 24
10.0
 15
10.0
 25
10.0
 16
0.0
 26
0.0
 36
1.0
 17
0.0
 27
0.0
 37
0.0
 40
706.5974337317238
 41
2.637741046831955
 42
50.0
 43
0.0
 44
0.0
 50
0.0
 51
0.0
 71
     0
 72
  1000
 73
     1
 74
     3
 75
     0
 76
     0
 77
     0
 78
     0
281
     0
 65
     1
110
0.0
120
0.0
130
0.0
111
1.0
121
0.0
131
0.0
112
0.0
122
1.0
132
0.0
 79
     0
146
0.0
  0
ENDTAB
  0
TABLE
  2
LTYPE
  5
5
330
0
100
AcDbSymbolTable
 70
     3
  0
LTYPE
  5
14
330
5
100
AcDbSymbolTableRecord
100
AcDbLinetypeTableRecord
  2
ByBlock
 70
     0
  3

 72
    65
 73
     0
 40
0.0
  0
LTYPE
  5
15
330
5
100
AcDbSymbolTableRecord
100
AcDbLinetypeTableRecord
  2
ByLayer
 70
     0
  3

 72
    65
 73
     0
 40
0.0
  0
LTYPE
  5
16
330
5
100
AcDbSymbolTableRecord
100
AcDbLinetypeTableRecord
  2
Continuous
 70
     0
  3
Solid line
 72
    65
 73
     0
 40
0.0
  0
LTYPE
  5
2765
330
5
100
AcDbSymbolTableRecord
100
AcDbLinetypeTableRecord
  2
DASHED
 70
     0
  3
Dashed __ __ __ __ __ __ __ __ __ __ __ __ __ _
 72
    65
 73
     2
 40
19.05
 49
12.7
 74
     0
 49
-6.349999999999999
 74
     0
  0
ENDTAB
  0
TABLE
  2
LAYER
  5
2
102
{ACAD_XDICTIONARY
360
2754
102
}
330
0
100
AcDbSymbolTable
 70
     6
  0
LAYER
  5
10
102
{ACAD_XDICTIONARY
360
284C
102
}
330
2
100
AcDbSymbolTableRecord
100
AcDbLayerTableRecord
  2
0
 70
     0
 62
     7
  6
Continuous
370
    -3
390
F
  0
LAYER
  5
74
330
2
100
AcDbSymbolTableRecord
100
AcDbLayerTableRecord
  2
Defpoints
 70
     0
 62
     7
  6
Continuous
290
     0
370
    -3
390
F
  0
LAYER
  5
BC
102
{ACAD_XDICTIONARY
360
284E
102
}
330
2
100
AcDbSymbolTableRecord
100
AcDbLayerTableRecord
  2
图层1
 70
     0
 62
     7
  6
DASHED
370
    35
390
F
  0
LAYER
  5
BD
102
{ACAD_XDICTIONARY
360
2850
102
}
330
2
100
AcDbSymbolTableRecord
100
AcDbLayerTableRecord
  2
图层2
 70
     0
 62
     7
  6
Continuous
370
    35
390
F
  0
LAYER
  5
BE
102
{ACAD_XDICTIONARY
360
2852
102
}
330
2
100
AcDbSymbolTableRecord
100
AcDbLayerTableRecord
  2
图层3
 70
     0
 62
     7
  6
Continuous
370
    15
390
F
  0
LAYER
  5
2A3
102
{ACAD_XDICTIONARY
360
2854
102
}
330
2
100
AcDbSymbolTableRecord
100
AcDbLayerTableRecord
  2
图层4
 70
     0
 62
     1
  6
Continuous
370
    25
390
F
  0
ENDTAB
  0
TABLE
  2
STYLE
  5
3
330
0
100
AcDbSymbolTable
 70
     2
  0
STYLE
  5
11
330
3
100
AcDbSymbolTableRecord
100
AcDbTextStyleTableRecord
  2
Standard
 70
     0
 40
0.0
 41
1.0
 50
0.0
 71
     0
 42
42.76517376937772
  3
txt
  4

  0
STYLE
  5
2764
330
3
100
AcDbSymbolTableRecord
100
AcDbTextStyleTableRecord
  2

 70
     1
 40
0.0
 41
1.0
 50
0.0
 71
     0
 42
2.5
  3
ltypeshp.shx
  4

  0
ENDTAB
  0
TABLE
  2
VIEW
  5
6
330
0
100
AcDbSymbolTable
 70
     0
  0
ENDTAB
  0
TABLE
  2
UCS
  5
7
330
0
100
AcDbSymbolTable
 70
     0
  0
ENDTAB
  0
TABLE
  2
APPID
  5
9
330
0
100
AcDbSymbolTable
 70
     4
  0
APPID
  5
12
330
9
100
AcDbSymbolTableRecord
100
AcDbRegAppTableRecord
  2
ACAD
 70
     0
  0
APPID
  5
2312
330
9
100
AcDbSymbolTableRecord
100
AcDbRegAppTableRecord
  2
ACAD_DSTYLE_DIMTEXT_FILL
 70
     0
  0
APPID
  5
2849
330
9
100
AcDbSymbolTableRecord
100
AcDbRegAppTableRecord
  2
ACAD_EXEMPT_FROM_CAD_STANDARDS
 70
     0
  0
APPID
  5
289D
330
9
100
AcDbSymbolTableRecord
100
AcDbRegAppTableRecord
  2
ACAD_MLEADERVER
 70
     0
  0
ENDTAB
  0
TABLE
  2
DIMSTYLE
  5
A
330
0
100
AcDbSymbolTable
 70
     1
100
AcDbDimStyleTable
 71
     1
340
27
  0
DIMSTYLE
105
27
102
{ACAD_REACTORS
330
2792
330
27AA
330
27C2
330
27DA
102
}
330
A
100
AcDbSymbolTableRecord
100
AcDbDimStyleTableRecord
  2
ISO-25
 70
     0
 41
13.0
 42
5.0
 43
3.75
 44
1.25
 73
     0
 77
     1
 78
     8
140
13.0
141
20.0
143
0.03937007874016
147
4.0
170
     1
171
     3
172
     1
271
     2
272
     2
273
     7
274
     3
283
     0
284
     8
340
11
  0
ENDTAB
  0
TABLE
  2
BLOCK_RECORD
  5
1
330
0
100
AcDbSymbolTable
 70
    82
  0
BLOCK_RECORD
  5
1F
102
{ACAD_XDICTIONARY
360
22DA
102
}
330
1
100
AcDbSymbolTableRecord
100
AcDbBlockTableRecord
  2
*Model_Space
340
22
  0
BLOCK_RECORD
  5
50
330
1
100
AcDbSymbolTableRecord
100
AcDbBlockTableRecord
  2
*Paper_Space
340
51
  0
BLOCK_RECORD
  5
55
330
1
100
AcDbSymbolTableRecord
100
AcDbBlockTableRecord
  2
*Paper_Space0
340
56
  0
BLOCK_RECORD
  5
13C
330
1
100
AcDbSymbolTableRecord
100
AcDbBlockTableRecord
  2
*D1
340
0
  0
BLOCK_RECORD
  5
157
330
1
100
AcDbSymbolTableRecord
100
AcDbBlockTableRecord
  2
*D2
340
0
  0
BLOCK_RECORD
  5
178
330
1
100
AcDbSymbolTableRecord
100
AcDbBlockTableRecord
  2
*D3
340
0
  0
BLOCK_RECORD
  5
190
330
1
100
AcDbSymbolTableRecord
100
AcDbBlockTableRecord
  2
*D4
340
0
  0
BLOCK_RECORD
  5
1A8
330
1
100
AcDbSymbolTableRecord
100
AcDbBlockTableRecord
  2
*D5
340
0
  0
BLOCK_RECORD
  5
1B8
330
1
100
AcDbSymbolTableRecord
100
AcDbBlockTableRecord
  2
*D6
340
0
  0
BLOCK_RECORD
  5
1C8
330
1
100
AcDbSymbolTableRecord
100
AcDbBlockTableRecord
  2
*D7
340
0
  0
BLOCK_RECORD
  5
1D8
330
1
100
AcDbSymbolTableRecord
100
AcDbBlockTableRecord
  2
*D8
340
0
  0
BLOCK_RECORD
  5
1F0
330
1
100
AcDbSymbolTableRecord
100
AcDbBlockTableRecord
  2
*D9
340
0
  0
BLOCK_RECORD
  5
208
330
1
100
AcDbSymbolTableRecord
100
AcDbBlockTableRecord
  2
*D10
340
0
  0
BLOCK_RECORD
  5
220
330
1
100
AcDbSymbolTableRecord
100
AcDbBlockTableRecord
  2
*D11
340
0
  0
BLOCK_RECORD
  5
269
330
1
100
AcDbSymbolTableRecord
100
AcDbBlockTableRecord
  2
*D12
340
0
  0
BLOCK_RECORD
  5
18BC
330
1
100
AcDbSymbolTableRecord
100
AcDbBlockTableRecord
  2
*D46
340
0
  0
BLOCK_RECORD
  5
19A4
330
1
100
AcDbSymbolTableRecord
100
AcDbBlockTableRecord
  2
*D47
340
0
  0
BLOCK_RECORD
  5
19BC
330
1
100
AcDbSymbolTableRecord
100
AcDbBlockTableRecord
  2
*D48
340
0
  0
BLOCK_RECORD
  5
19D4
330
1
100
AcDbSymbolTableRecord
100
AcDbBlockTableRecord
  2
*D49
340
0
  0
BLOCK_RECORD
  5
19F0
330
1
100
AcDbSymbolTableRecord
100
AcDbBlockTableRecord
  2
*D50
340
0
  0
BLOCK_RECORD
  5
1A08
330
1
100
AcDbSymbolTableRecord
100
AcDbBlockTableRecord
  2
*D51
340
0
  0
BLOCK_RECORD
  5
1A20
330
1
100
AcDbSymbolTableRecord
100
AcDbBlockTableRecord
  2
*D52
340
0
  0
BLOCK_RECORD
  5
1A38
330
1
100
AcDbSymbolTableRecord
100
AcDbBlockTableRecord
  2
*D53
340
0
  0
BLOCK_RECORD
  5
1A54
330
1
100
AcDbSymbolTableRecord
100
AcDbBlockTableRecord
  2
*D54
340
0
  0
BLOCK_RECORD
  5
1A64
330
1
100
AcDbSymbolTableRecord
100
AcDbBlockTableRecord
  2
*D55
340
0
  0
BLOCK_RECORD
  5
1A7E
330
1
100
AcDbSymbolTableRecord
100
AcDbBlockTableRecord
  2
*D56
340
0
  0
BLOCK_RECORD
  5
1AB3
330
1
100
AcDbSymbolTableRecord
100
AcDbBlockTableRecord
  2
*D57
340
0
  0
BLOCK_RECORD
  5
1ACB
330
1
100
AcDbSymbolTableRecord
100
AcDbBlockTableRecord
  2
*D58
340
0
  0
BLOCK_RECORD
  5
1B15
330
1
100
AcDbSymbolTableRecord
100
AcDbBlockTableRecord
  2
*D59
340
0
  0
BLOCK_RECORD
  5
1B2D
330
1
100
AcDbSymbolTableRecord
100
AcDbBlockTableRecord
  2
*D60
340
0
  0
BLOCK_RECORD
  5
1B45
330
1
100
AcDbSymbolTableRecord
100
AcDbBlockTableRecord
  2
*D61
340
0
  0
BLOCK_RECORD
  5
1B55
330
1
100
AcDbSymbolTableRecord
100
AcDbBlockTableRecord
  2
*D62
340
0
  0
BLOCK_RECORD
  5
1B6D
330
1
100
AcDbSymbolTableRecord
100
AcDbBlockTableRecord
  2
*D63
340
0
  0
BLOCK_RECORD
  5
1B85
330
1
100
AcDbSymbolTableRecord
100
AcDbBlockTableRecord
  2
*D64
340
0
  0
BLOCK_RECORD
  5
1E79
330
1
100
AcDbSymbolTableRecord
100
AcDbBlockTableRecord
  2
*D65
340
0
  0
BLOCK_RECORD
  5
1E89
330
1
100
AcDbSymbolTableRecord
100
AcDbBlockTableRecord
  2
*D66
340
0
  0
BLOCK_RECORD
  5
1E9D
330
1
100
AcDbSymbolTableRecord
100
AcDbBlockTableRecord
  2
*D67
340
0
  0
BLOCK_RECORD
  5
1EB5
330
1
100
AcDbSymbolTableRecord
100
AcDbBlockTableRecord
  2
*D68
340
0
  0
BLOCK_RECORD
  5
21D8
330
1
100
AcDbSymbolTableRecord
100
AcDbBlockTableRecord
  2
a
340
0
  0
BLOCK_RECORD
  5
2793
330
1
100
AcDbSymbolTableRecord
100
AcDbBlockTableRecord
  2
*D78
340
0
  0
BLOCK_RECORD
  5
27AB
330
1
100
AcDbSymbolTableRecord
100
AcDbBlockTableRecord
  2
*D79
340
0
  0
BLOCK_RECORD
  5
27C3
330
1
100
AcDbSymbolTableRecord
100
AcDbBlockTableRecord
  2
*D80
340
0
  0
BLOCK_RECORD
  5
27DB
330
1
100
AcDbSymbolTableRecord
100
AcDbBlockTableRecord
  2
*D81
340
0
  0
ENDTAB
  0
ENDSEC
  0
SECTION
  2
BLOCKS
  0
BLOCK
  5
20
330
1F
100
AcDbEntity
  8
0
100
AcDbBlockBegin
  2
*Model_Space
 70
     0
 10
0.0
 20
0.0
 30
0.0
  3
*Model_Space
  1

  0
ENDBLK
  5
21
330
1F
100
AcDbEntity
  8
0
100
AcDbBlockEnd
  0
BLOCK
  5
52
330
50
100
AcDbEntity
 67
     1
  8
0
100
AcDbBlockBegin
  2
*Paper_Space
 70
     0
 10
0.0
 20
0.0
 30
0.0
  3
*Paper_Space
  1

  0
ENDBLK
  5
53
330
50
100
AcDbEntity
 67
     1
  8
0
100
AcDbBlockEnd
  0
BLOCK
  5
57
330
55
100
AcDbEntity
 67
     1
  8
0
100
AcDbBlockBegin
  2
*Paper_Space0
 70
     0
 10
0.0
 20
0.0
 30
0.0
  3
*Paper_Space0
  1

  0
ENDBLK
  5
58
330
55
100
AcDbEntity
 67
     1
  8
0
100
AcDbBlockEnd
  0
BLOCK
  5
142
330
13C
100
AcDbEntity
  8
0
100
AcDbBlockBegin
  2
*D1
 70
     1
 10
0.0
 20
0.0
 30
0.0
  3
*D1
  1

  0
LINE
  5
26D2
330
13C
100
AcDbEntity
  8
图层3
 62
     0
370
    -2
100
AcDbLine
 10
1332.882136891498
 20
4379.216932460987
 30
0.0
 11
1190.215470224831
 21
4379.216932460987
 31
0.0
  0
LINE
  5
26D3
330
13C
100
AcDbEntity
  8
图层3
 62
     0
370
    -2
100
AcDbLine
 10
1190.215470224831
 20
4379.216932460987
 30
0.0
 11
1173.93744426344
 21
4395.934298139965
 31
0.0
  0
MTEXT
  5
26D4
330
13C
100
AcDbEntity
  8
图层3
 62
     0
100
AcDbMText
 10
1263.548803558165
 20
4389.716932460987
 30
0.0
 40
13.0
 41
0.0
 71
     5
 72
     1
  1
R35 [R1 3/8]
 73
     1
 44
1.0
  0
SOLID
  5
26D5
330
13C
100
AcDbEntity
  8
图层3
 62
     0
100
AcDbTrace
 10
1175.489771076488
 20
4397.445829122094
 30
0.0
 11
1172.385117450392
 21
4394.422767157835
 31
0.0
 12
1164.868258370665
 22
4405.248259018253
 32
0.0
 13
1164.868258370665
 23
4405.248259018253
 33
0.0
  0
POINT
  5
26D6
330
13C
100
AcDbEntity
  8
Defpoints
 62
     0
100
AcDbPoint
 10
1164.868258370665
 20
4405.248259018253
 30
0.0
  0
POINT
  5
26D7
330
13C
100
AcDbEntity
  8
Defpoints
 62
     0
100
AcDbPoint
 10
1189.285297312752
 20
4380.172210499786
 30
0.0
  0
ENDBLK
  5
143
330
13C
100
AcDbEntity
  8
0
100
AcDbBlockEnd
  0
BLOCK
  5
161
330
157
100
AcDbEntity
  8
0
100
AcDbBlockBegin
  2
*D2
 70
     1
 10
0.0
 20
0.0
 30
0.0
  3
*D2
  1

  0
LINE
  5
25D1
330
157
100
AcDbEntity
  8
图层4
 62
     0
370
    -2
100
AcDbLine
 10
1378.18954469438
 20
4322.613430818227
 30
0.0
 11
1378.18954469438
 21
4223.870819845396
 31
0.0
  0
LINE
  5
25D2
330
157
100
AcDbEntity
  8
图层4
 62
     0
370
    -2
100
AcDbLine
 10
1148.158459683439
 20
4230.120819845395
 30
0.0
 11
1148.158459683439
 21
4226.370819845396
 31
0.0
  0
LINE
  5
25D3
330
157
100
AcDbEntity
  8
图层4
 62
     0
370
    -2
100
AcDbLine
 10
1365.18954469438
 20
4225.120819845396
 30
0.0
 11
1161.158459683439
 21
4225.120819845396
 31
0.0
  0
SOLID
  5
25D4
330
157
100
AcDbEntity
  8
图层4
 62
     0
100
AcDbTrace
 10
1365.18954469438
 20
4227.287486512063
 30
0.0
 11
1365.18954469438
 21
4222.954153178728
 31
0.0
 12
1378.18954469438
 22
4225.120819845396
 32
0.0
 13
1378.18954469438
 23
4225.120819845396
 33
0.0
  0
SOLID
  5
25D5
330
157
100
AcDbEntity
  8
图层4
 62
     0
100
AcDbTrace
 10
1161.158459683439
 20
4227.287486512063
 30
0.0
 11
1161.158459683439
 21
4222.954153178728
 31
0.0
 12
1148.158459683439
 22
4225.120819845396
 32
0.0
 13
1148.158459683439
 23
4225.120819845396
 33
0.0
  0
MTEXT
  5
25D6
330
157
100
AcDbEntity
  8
图层4
 62
     0
100
AcDbMText
 10
1263.17400218891
 20
4235.620819845396
 30
0.0
 40
13.0
 41
0.0
 71
     5
 72
     1
  1
230
 73
     1
 44
1.0
  0
POINT
  5
25D7
330
157
100
AcDbEntity
  8
Defpoints
 62
     0
100
AcDbPoint
 10
1378.18954469438
 20
4327.613430818227
 30
0.0
  0
POINT
  5
25D8
330
157
100
AcDbEntity
  8
Defpoints
 62
     0
100
AcDbPoint
 10
1148.158459683439
 20
4225.120819845395
 30
0.0
  0
POINT
  5
25D9
330
157
100
AcDbEntity
  8
Defpoints
 62
     0
100
AcDbPoint
 10
1148.158459683439
 20
4225.120819845396
 30
0.0
  0
ENDBLK
  5
162
330
157
100
AcDbEntity
  8
0
100
AcDbBlockEnd
  0
BLOCK
  5
182
330
178
100
AcDbEntity
  8
0
100
AcDbBlockBegin
  2
*D3
 70
     1
 10
0.0
 20
0.0
 30
0.0
  3
*D3
  1

  0
ARC
  5
2586
330
178
100
AcDbEntity
  8
图层3
 62
     0
370
    -2
100
AcDbCircle
 10
1378.199564834195
 20
4425.120819845395
 30
0.0
 40
92.42526150365272
100
AcDbArc
 50
191.0655491839709
 51
261.9285629369137
  0
SOLID
  5
2587
330
178
100
AcDbEntity
  8
图层3
 62
     0
100
AcDbTrace
 10
1285.342285766895
 20
4407.11618345347
 30
0.0
 11
1289.643016300577
 21
4407.646744151637
 31
0.0
 12
1285.900968939232
 22
4420.283655403597
 32
0.0
 13
1285.900968939232
 23
4420.283655403597
 33
0.0
  0
SOLID
  5
2588
330
178
100
AcDbEntity
  8
图层3
 62
     0
100
AcDbTrace
 10
1365.374946637695
 20
4335.772429945787
 30
0.0
 11
1365.069751697944
 21
4331.449857352236
 31
0.0
 12
1378.190066948476
 22
4332.695558829757
 32
0.0
 13
1378.190066948476
 23
4332.695558829757
 33
0.0
  0
MTEXT
  5
2589
102
{ACAD_XDICTIONARY
360
2868
102
}
330
178
100
AcDbEntity
  8
图层3
 62
     0
100
AcDbMText
 10
1321.802882869419
 20
4365.697232476357
 30
0.0
 40
13.0
 41
0.0
 71
     5
 72
     1
  1
87\U+00B0
 11
0.7253390014066554
 21
-0.6883918455635541
 31
0.0
 73
     1
 44
1.0
  0
POINT
  5
258A
330
178
100
AcDbEntity
  8
Defpoints
 62
     0
100
AcDbPoint
 10
1299.81682012104
 20
4376.145578189523
 30
0.0
  0
POINT
  5
258B
330
178
100
AcDbEntity
  8
Defpoints
 62
     0
100
AcDbPoint
 10
1373.935076637287
 20
4424.897327489217
 30
0.0
  0
POINT
  5
258C
330
178
100
AcDbEntity
  8
Defpoints
 62
     0
100
AcDbPoint
 10
1378.220629705321
 20
4630.106041791061
 30
0.0
  0
POINT
  5
258D
330
178
100
AcDbEntity
  8
Defpoints
 62
     0
100
AcDbPoint
 10
1378.15845968344
 20
4025.120819845394
 30
0.0
  0
POINT
  5
258E
330
178
100
AcDbEntity
  8
Defpoints
 62
     0
100
AcDbPoint
 10
1187.453538844249
 20
4415.124244216197
 30
0.0
  0
ENDBLK
  5
183
330
178
100
AcDbEntity
  8
0
100
AcDbBlockEnd
  0
BLOCK
  5
19A
330
190
100
AcDbEntity
  8
0
100
AcDbBlockBegin
  2
*D4
 70
     1
 10
0.0
 20
0.0
 30
0.0
  3
*D4
  1

  0
ARC
  5
258F
330
190
100
AcDbEntity
  8
图层3
 62
     0
370
    -2
100
AcDbCircle
 10
1378.158459683439
 20
4025.120819845394
 30
0.0
 40
76.31923020942619
100
AcDbArc
 50
99.76554931263443
 51
167.2285628082502
  0
SOLID
  5
2590
330
190
100
AcDbEntity
  8
图层3
 62
     0
100
AcDbTrace
 10
1365.02911346332
 20
4102.493002416485
 30
0.0
 11
1365.39773359391
 21
4098.175376103671
 31
0.0
 12
1378.166302467056
 22
4101.440049651847
 32
0.0
 13
1378.166302467056
 23
4101.440049651847
 33
0.0
  0
SOLID
  5
2591
330
190
100
AcDbEntity
  8
图层3
 62
     0
100
AcDbTrace
 10
1305.873569772784
 20
4041.694866153709
 30
0.0
 11
1301.581213776044
 21
4042.289389302989
 31
0.0
 12
1301.943822326573
 22
4029.11505973813
 32
0.0
 13
1301.943822326573
 23
4029.11505973813
 33
0.0
  0
MTEXT
  5
2592
102
{ACAD_XDICTIONARY
360
286A
102
}
330
190
100
AcDbEntity
  8
图层3
 62
     0
100
AcDbMText
 10
1318.399281209753
 20
4088.100334946001
 30
0.0
 40
13.0
 41
0.0
 71
     5
 72
     1
  1
87\U+00B0
 11
0.7254097387028914
 21
0.6883173040066644
 31
0.0
 73
     1
 44
1.0
  0
POINT
  5
2593
330
190
100
AcDbEntity
  8
Defpoints
 62
     0
100
AcDbPoint
 10
1341.162735723688
 20
4091.87365730159
 30
0.0
  0
POINT
  5
2594
330
190
100
AcDbEntity
  8
Defpoints
 62
     0
100
AcDbPoint
 10
1378.22062970532
 20
4630.10604179106
 30
0.0
  0
POINT
  5
2595
330
190
100
AcDbEntity
  8
Defpoints
 62
     0
100
AcDbPoint
 10
1373.893971486533
 20
4025.344312201573
 30
0.0
  0
POINT
  5
2596
330
190
100
AcDbEntity
  8
Defpoints
 62
     0
100
AcDbPoint
 10
1187.453710070254
 20
4035.115232271349
 30
0.0
  0
POINT
  5
2597
330
190
100
AcDbEntity
  8
Defpoints
 62
     0
100
AcDbPoint
 10
1378.158459683439
 20
4025.120819845394
 30
0.0
  0
ENDBLK
  5
19B
330
190
100
AcDbEntity
  8
0
100
AcDbBlockEnd
  0
BLOCK
  5
1AE
330
1A8
100
AcDbEntity
  8
0
100
AcDbBlockBegin
  2
*D5
 70
     1
 10
0.0
 20
0.0
 30
0.0
  3
*D5
  1

  0
LINE
  5
2598
330
1A8
100
AcDbEntity
  8
图层3
 62
     0
370
    -2
100
AcDbLine
 10
4250.791394344507
 20
4286.484298696746
 30
0.0
 11
4447.01327663118
 21
4296.935275295859
 31
0.0
  0
MTEXT
  5
2599
330
1A8
100
AcDbEntity
  8
图层3
 62
     0
100
AcDbMText
 10
4341.853086179171
 20
4301.849219139385
 30
0.0
 40
13.0
 41
0.0
 71
     5
 72
     1
  1
R2000 [R78 3/4]
 11
0.9985846426802673
 21
0.0531856315476533
 31
0.0
 73
     1
 44
1.0
  0
SOLID
  5
259A
330
1A8
100
AcDbEntity
  8
图层3
 62
     0
100
AcDbTrace
 10
4446.898041096161
 20
4299.098875354999
 30
0.0
 11
4447.128512166199
 21
4294.771675236718
 31
0.0
 12
4459.994876986023
 22
4297.626688505979
 32
0.0
 13
4459.994876986023
 23
4297.626688505979
 33
0.0
  0
POINT
  5
259B
330
1A8
100
AcDbEntity
  8
Defpoints
 62
     0
100
AcDbPoint
 10
4459.994876986023
 20
4297.626688505979
 30
0.0
  0
POINT
  5
259C
330
1A8
100
AcDbEntity
  8
Defpoints
 62
     0
100
AcDbPoint
 10
2462.825591625499
 20
4191.255425410671
 30
0.0
  0
ENDBLK
  5
1AF
330
1A8
100
AcDbEntity
  8
0
100
AcDbBlockEnd
  0
BLOCK
  5
1BE
330
1B8
100
AcDbEntity
  8
0
100
AcDbBlockBegin
  2
*D6
 70
     1
 10
0.0
 20
0.0
 30
0.0
  3
*D6
  1

  0
LINE
  5
26D8
330
1B8
100
AcDbEntity
  8
图层3
 62
     0
370
    -2
100
AcDbLine
 10
694.8946970925169
 20
4143.239750848561
 30
0.0
 11
870.0613637591837
 21
4143.239750848561
 31
0.0
  0
LINE
  5
26D9
330
1B8
100
AcDbEntity
  8
图层3
 62
     0
370
    -2
100
AcDbLine
 10
870.0613637591837
 20
4143.239750848561
 30
0.0
 11
940.955516123792
 21
4069.095570778365
 31
0.0
  0
MTEXT
  5
26DA
330
1B8
100
AcDbEntity
  8
图层3
 62
     0
100
AcDbMText
 10
780.4780304258501
 20
4153.73975084856
 30
0.0
 40
13.0
 41
0.0
 71
     5
 72
     1
  1
4-R110 [R4 3/8]
 73
     1
 44
1.0
  0
SOLID
  5
26DB
330
1B8
100
AcDbEntity
  8
图层3
 62
     0
100
AcDbTrace
 10
942.5215183023663
 20
4070.592928992403
 30
0.0
 11
939.3895139452176
 21
4067.598212564329
 31
0.0
 12
949.9396654080154
 22
4059.699557706919
 32
0.0
 13
949.9396654080154
 23
4059.699557706919
 33
0.0
  0
POINT
  5
26DC
330
1B8
100
AcDbEntity
  8
Defpoints
 62
     0
100
AcDbPoint
 10
949.9396654080154
 20
4059.699557706919
 30
0.0
  0
POINT
  5
26DD
330
1B8
100
AcDbEntity
  8
Defpoints
 62
     0
100
AcDbPoint
 10
873.9199406953581
 20
4139.204283696081
 30
0.0
  0
ENDBLK
  5
1BF
330
1B8
100
AcDbEntity
  8
0
100
AcDbBlockEnd
  0
BLOCK
  5
1CE
330
1C8
100
AcDbEntity
  8
0
100
AcDbBlockBegin
  2
*D7
 70
     1
 10
0.0
 20
0.0
 30
0.0
  3
*D7
  1

  0
LINE
  5
26DE
330
1C8
100
AcDbEntity
  8
图层3
 62
     0
370
    -2
100
AcDbLine
 10
738.1421521061034
 20
4219.542365773602
 30
0.0
 11
739.5314147165271
 21
4038.214354349064
 31
0.0
  0
MTEXT
  5
26DF
330
1C8
100
AcDbEntity
  8
图层3
 62
     0
100
AcDbMText
 10
749.2866763138332
 20
4135.458613728625
 30
0.0
 40
13.0
 41
0.0
 71
     5
 72
     1
  1
4-R3200 [R126]
 11
0.0076613746898363
 21
-0.9999706512382562
 31
0.0
 73
     1
 44
1.0
  0
SOLID
  5
26E0
330
1C8
100
AcDbEntity
  8
图层3
 62
     0
100
AcDbTrace
 10
741.69801779421
 20
4038.230953994226
 30
0.0
 11
737.3648116388443
 21
4038.197754703904
 31
0.0
 12
739.6310125874951
 22
4025.214735882967
 32
0.0
 13
739.6310125874951
 23
4025.214735882967
 33
0.0
  0
POINT
  5
26E1
330
1C8
100
AcDbEntity
  8
Defpoints
 62
     0
100
AcDbPoint
 10
739.6310125874951
 20
4025.214735882967
 30
0.0
  0
POINT
  5
26E2
330
1C8
100
AcDbEntity
  8
Defpoints
 62
     0
100
AcDbPoint
 10
715.1146135800182
 20
7225.120819845393
 30
0.0
  0
ENDBLK
  5
1CF
330
1C8
100
AcDbEntity
  8
0
100
AcDbBlockEnd
  0
BLOCK
  5
1E2
330
1D8
100
AcDbEntity
  8
0
100
AcDbBlockBegin
  2
*D8
 70
     1
 10
0.0
 20
0.0
 30
0.0
  3
*D8
  1

  0
LINE
  5
25A7
330
1D8
100
AcDbEntity
  8
图层3
 62
     0
370
    -2
100
AcDbLine
 10
445.1146135800168
 20
4230.120819845395
 30
0.0
 11
445.1146135800168
 21
4483.362661449389
 31
0.0
  0
LINE
  5
25A8
330
1D8
100
AcDbEntity
  8
图层3
 62
     0
370
    -2
100
AcDbLine
 10
985.1146135800167
 20
4230.120819845394
 30
0.0
 11
985.1146135800167
 21
4483.362661449389
 31
0.0
  0
LINE
  5
25A9
330
1D8
100
AcDbEntity
  8
图层3
 62
     0
370
    -2
100
AcDbLine
 10
458.1146135800167
 20
4482.112661449388
 30
0.0
 11
972.1146135800168
 21
4482.112661449388
 31
0.0
  0
SOLID
  5
25AA
330
1D8
100
AcDbEntity
  8
图层3
 62
     0
100
AcDbTrace
 10
458.1146135800167
 20
4484.279328116056
 30
0.0
 11
458.1146135800167
 21
4479.945994782721
 31
0.0
 12
445.1146135800168
 22
4482.112661449388
 32
0.0
 13
445.1146135800168
 23
4482.112661449388
 33
0.0
  0
SOLID
  5
25AB
330
1D8
100
AcDbEntity
  8
图层3
 62
     0
100
AcDbTrace
 10
972.1146135800168
 20
4484.279328116056
 30
0.0
 11
972.1146135800168
 21
4479.945994782721
 31
0.0
 12
985.1146135800167
 22
4482.112661449388
 32
0.0
 13
985.1146135800167
 23
4482.112661449388
 33
0.0
  0
MTEXT
  5
25AC
330
1D8
100
AcDbEntity
  8
图层3
 62
     0
100
AcDbMText
 10
715.1146135800168
 20
4492.612661449388
 30
0.0
 40
13.0
 41
0.0
 71
     5
 72
     1
  1
540 [21 1/4]
 73
     1
 44
1.0
  0
POINT
  5
25AD
330
1D8
100
AcDbEntity
  8
Defpoints
 62
     0
100
AcDbPoint
 10
445.1146135800168
 20
4225.120819845395
 30
0.0
  0
POINT
  5
25AE
330
1D8
100
AcDbEntity
  8
Defpoints
 62
     0
100
AcDbPoint
 10
985.1146135800167
 20
4225.120819845394
 30
0.0
  0
POINT
  5
25AF
330
1D8
100
AcDbEntity
  8
Defpoints
 62
     0
100
AcDbPoint
 10
985.1146135800167
 20
4482.112661449388
 30
0.0
  0
ENDBLK
  5
1E3
330
1D8
100
AcDbEntity
  8
0
100
AcDbBlockEnd
  0
BLOCK
  5
1FA
330
1F0
100
AcDbEntity
  8
0
100
AcDbBlockBegin
  2
*D9
 70
     1
 10
0.0
 20
0.0
 30
0.0
  3
*D9
  1

  0
LINE
  5
25B0
330
1F0
100
AcDbEntity
  8
图层3
 62
     0
370
    -2
100
AcDbLine
 10
420.1146135800168
 20
4230.120819845395
 30
0.0
 11
420.1146135800168
 21
4513.459090877566
 31
0.0
  0
LINE
  5
25B1
330
1F0
100
AcDbEntity
  8
图层3
 62
     0
370
    -2
100
AcDbLine
 10
1010.114613580016
 20
4230.120819845394
 30
0.0
 11
1010.114613580016
 21
4513.459090877566
 31
0.0
  0
LINE
  5
25B2
330
1F0
100
AcDbEntity
  8
图层3
 62
     0
370
    -2
100
AcDbLine
 10
433.1146135800167
 20
4512.209090877565
 30
0.0
 11
997.1146135800168
 21
4512.209090877565
 31
0.0
  0
SOLID
  5
25B3
330
1F0
100
AcDbEntity
  8
图层3
 62
     0
100
AcDbTrace
 10
433.1146135800167
 20
4514.375757544232
 30
0.0
 11
433.1146135800167
 21
4510.042424210898
 31
0.0
 12
420.1146135800168
 22
4512.209090877565
 32
0.0
 13
420.1146135800168
 23
4512.209090877565
 33
0.0
  0
SOLID
  5
25B4
330
1F0
100
AcDbEntity
  8
图层3
 62
     0
100
AcDbTrace
 10
997.1146135800168
 20
4514.375757544232
 30
0.0
 11
997.1146135800168
 21
4510.042424210898
 31
0.0
 12
1010.114613580016
 22
4512.209090877565
 32
0.0
 13
1010.114613580016
 23
4512.209090877565
 33
0.0
  0
MTEXT
  5
25B5
330
1F0
100
AcDbEntity
  8
图层3
 62
     0
100
AcDbMText
 10
715.1146135800168
 20
4522.709090877565
 30
0.0
 40
13.0
 41
0.0
 71
     5
 72
     1
  1
590 [23 1/4]
 73
     1
 44
1.0
  0
POINT
  5
25B6
330
1F0
100
AcDbEntity
  8
Defpoints
 62
     0
100
AcDbPoint
 10
420.1146135800168
 20
4225.120819845395
 30
0.0
  0
POINT
  5
25B7
330
1F0
100
AcDbEntity
  8
Defpoints
 62
     0
100
AcDbPoint
 10
1010.114613580016
 20
4225.120819845394
 30
0.0
  0
POINT
  5
25B8
330
1F0
100
AcDbEntity
  8
Defpoints
 62
     0
100
AcDbPoint
 10
1010.114613580016
 20
4512.209090877565
 30
0.0
  0
ENDBLK
  5
1FB
330
1F0
100
AcDbEntity
  8
0
100
AcDbBlockEnd
  0
BLOCK
  5
212
330
208
100
AcDbEntity
  8
0
100
AcDbBlockBegin
  2
*D10
 70
     1
 10
0.0
 20
0.0
 30
0.0
  3
*D10
  1

  0
LINE
  5
25B9
330
208
100
AcDbEntity
  8
图层3
 62
     0
370
    -2
100
AcDbLine
 10
710.1146135800177
 20
4425.120819845394
 30
0.0
 11
391.6146333349976
 21
4425.120819845394
 31
0.0
  0
LINE
  5
25BA
330
208
100
AcDbEntity
  8
图层3
 62
     0
370
    -2
100
AcDbLine
 10
710.1146135800177
 20
4025.120819845394
 30
0.0
 11
391.6146333349975
 21
4025.120819845394
 31
0.0
  0
LINE
  5
25BB
330
208
100
AcDbEntity
  8
图层3
 62
     0
370
    -2
100
AcDbLine
 10
392.8646333349976
 20
4412.120819845394
 30
0.0
 11
392.8646333349975
 21
4038.120819845394
 31
0.0
  0
SOLID
  5
25BC
330
208
100
AcDbEntity
  8
图层3
 62
     0
100
AcDbTrace
 10
390.6979666683309
 20
4412.120819845394
 30
0.0
 11
395.0313000016643
 21
4412.120819845394
 31
0.0
 12
392.8646333349976
 22
4425.120819845394
 32
0.0
 13
392.8646333349976
 23
4425.120819845394
 33
0.0
  0
SOLID
  5
25BD
330
208
100
AcDbEntity
  8
图层3
 62
     0
100
AcDbTrace
 10
390.6979666683308
 20
4038.120819845394
 30
0.0
 11
395.0313000016642
 21
4038.120819845394
 31
0.0
 12
392.8646333349975
 22
4025.120819845394
 32
0.0
 13
392.8646333349975
 23
4025.120819845394
 33
0.0
  0
MTEXT
  5
25BE
330
208
100
AcDbEntity
  8
图层3
 62
     0
100
AcDbMText
 10
382.3646333349969
 20
4225.120819845394
 30
0.0
 40
13.0
 41
0.0
 71
     5
 72
     1
  1
400 [15 3/4]
 11
0.0000000000000001
 21
1.0
 31
0.0
 73
     1
 44
1.0
  0
POINT
  5
25BF
330
208
100
AcDbEntity
  8
Defpoints
 62
     0
100
AcDbPoint
 10
715.1146135800177
 20
4425.120819845394
 30
0.0
  0
POINT
  5
25C0
330
208
100
AcDbEntity
  8
Defpoints
 62
     0
100
AcDbPoint
 10
715.1146135800177
 20
4025.120819845394
 30
0.0
  0
POINT
  5
25C1
330
208
100
AcDbEntity
  8
Defpoints
 62
     0
100
AcDbPoint
 10
392.8646333349975
 20
4025.120819845394
 30
0.0
  0
ENDBLK
  5
213
330
208
100
AcDbEntity
  8
0
100
AcDbBlockEnd
  0
BLOCK
  5
22A
330
220
100
AcDbEntity
  8
0
100
AcDbBlockBegin
  2
*D11
 70
     1
 10
0.0
 20
0.0
 30
0.0
  3
*D11
  1

  0
LINE
  5
25C2
330
220
100
AcDbEntity
  8
图层3
 62
     0
370
    -2
100
AcDbLine
 10
710.1146135800177
 20
4450.120819845394
 30
0.0
 11
364.2329440217732
 21
4450.120819845394
 31
0.0
  0
LINE
  5
25C3
330
220
100
AcDbEntity
  8
图层3
 62
     0
370
    -2
100
AcDbLine
 10
710.1146135800177
 20
4000.120819845395
 30
0.0
 11
364.2329440217732
 21
4000.120819845395
 31
0.0
  0
LINE
  5
25C4
330
220
100
AcDbEntity
  8
图层3
 62
     0
370
    -2
100
AcDbLine
 10
365.4829440217732
 20
4437.120819845394
 30
0.0
 11
365.4829440217732
 21
4013.120819845394
 31
0.0
  0
SOLID
  5
25C5
330
220
100
AcDbEntity
  8
图层3
 62
     0
100
AcDbTrace
 10
363.3162773551065
 20
4437.120819845394
 30
0.0
 11
367.6496106884399
 21
4437.120819845394
 31
0.0
 12
365.4829440217732
 22
4450.120819845394
 32
0.0
 13
365.4829440217732
 23
4450.120819845394
 33
0.0
  0
SOLID
  5
25C6
330
220
100
AcDbEntity
  8
图层3
 62
     0
100
AcDbTrace
 10
363.3162773551065
 20
4013.120819845394
 30
0.0
 11
367.6496106884398
 21
4013.120819845394
 31
0.0
 12
365.4829440217732
 22
4000.120819845395
 32
0.0
 13
365.4829440217732
 23
4000.120819845395
 33
0.0
  0
MTEXT
  5
25C7
330
220
100
AcDbEntity
  8
图层3
 62
     0
100
AcDbMText
 10
354.9829440217725
 20
4225.120819845394
 30
0.0
 40
13.0
 41
0.0
 71
     5
 72
     1
  1
450 [17 3/4]
 11
0.0000000000000001
 21
1.0
 31
0.0
 73
     1
 44
1.0
  0
POINT
  5
25C8
330
220
100
AcDbEntity
  8
Defpoints
 62
     0
100
AcDbPoint
 10
715.1146135800177
 20
4450.120819845394
 30
0.0
  0
POINT
  5
25C9
330
220
100
AcDbEntity
  8
Defpoints
 62
     0
100
AcDbPoint
 10
715.1146135800177
 20
4000.120819845395
 30
0.0
  0
POINT
  5
25CA
330
220
100
AcDbEntity
  8
Defpoints
 62
     0
100
AcDbPoint
 10
365.4829440217732
 20
4000.120819845395
 30
0.0
  0
ENDBLK
  5
22B
330
220
100
AcDbEntity
  8
0
100
AcDbBlockEnd
  0
BLOCK
  5
270
330
269
100
AcDbEntity
  8
0
100
AcDbBlockBegin
  2
*D12
 70
     1
 10
0.0
 20
0.0
 30
0.0
  3
*D12
  1

  0
LINE
  5
26E3
330
269
100
AcDbEntity
  8
图层3
 62
     0
370
    -2
100
AcDbLine
 10
1308.568890118602
 20
4455.857804244662
 30
0.0
 11
1351.568890118602
 21
4455.857804244662
 31
0.0
  0
LINE
  5
26E4
330
269
100
AcDbEntity
  8
图层3
 62
     0
370
    -2
100
AcDbLine
 10
1351.568890118602
 20
4455.857804244662
 30
0.0
 11
1368.24707975934
 21
4435.911927720738
 31
0.0
  0
MTEXT
  5
26E5
330
269
100
AcDbEntity
  8
图层3
 62
     0
100
AcDbMText
 10
1328.068890118601
 20
4466.357804244662
 30
0.0
 40
13.0
 41
0.0
 71
     5
 72
     1
  1
R3.5
 73
     1
 44
1.0
  0
SOLID
  5
26E6
330
269
100
AcDbEntity
  8
图层3
 62
     0
100
AcDbTrace
 10
1369.909236136333
 20
4437.301776857466
 30
0.0
 11
1366.584923382346
 21
4434.52207858401
 31
0.0
 12
1376.586174579708
 22
4425.938989458777
 32
0.0
 13
1376.586174579708
 23
4425.938989458777
 33
0.0
  0
POINT
  5
26E7
330
269
100
AcDbEntity
  8
Defpoints
 62
     0
100
AcDbPoint
 10
1376.586174579708
 20
4425.938989458777
 30
0.0
  0
POINT
  5
26E8
330
269
100
AcDbEntity
  8
Defpoints
 62
     0
100
AcDbPoint
 10
1373.699564834194
 20
4429.391160395611
 30
0.0
  0
ENDBLK
  5
271
330
269
100
AcDbEntity
  8
0
100
AcDbBlockEnd
  0
BLOCK
  5
18C2
330
18BC
100
AcDbEntity
  8
0
100
AcDbBlockBegin
  2
*D46
 70
     1
 10
0.0
 20
0.0
 30
0.0
  3
*D46
  1

  0
LINE
  5
26E9
330
18BC
100
AcDbEntity
  8
图层3
 62
     0
370
    -2
100
AcDbLine
 10
1616.251138640744
 20
3111.949150473628
 30
0.0
 11
1659.251138640755
 21
3111.949150473628
 31
0.0
  0
LINE
  5
26EA
330
18BC
100
AcDbEntity
  8
图层3
 62
     0
370
    -2
100
AcDbLine
 10
1659.251138640755
 20
3111.949150473628
 30
0.0
 11
1679.924308214577
 21
3092.331045066335
 31
0.0
  0
MTEXT
  5
26EB
330
18BC
100
AcDbEntity
  8
图层3
 62
     0
100
AcDbMText
 10
1635.751138640744
 20
3122.449150473628
 30
0.0
 40
13.0
 41
0.0
 71
     5
 72
     1
  1
R3.5
 73
     1
 44
1.0
  0
SOLID
  5
26EC
330
18BC
100
AcDbEntity
  8
图层3
 62
     0
100
AcDbTrace
 10
1681.415743128582
 20
3093.902689536859
 30
0.0
 11
1678.432873300572
 21
3090.75940059581
 31
0.0
 12
1689.354175037725
 22
3083.382435582305
 32
0.0
 13
1689.354175037725
 23
3083.382435582305
 33
0.0
  0
POINT
  5
26ED
330
18BC
100
AcDbEntity
  8
Defpoints
 62
     0
100
AcDbPoint
 10
1689.354175037725
 20
3083.382435582305
 30
0.0
  0
POINT
  5
26EE
330
18BC
100
AcDbEntity
  8
Defpoints
 62
     0
100
AcDbPoint
 10
1686.089990368172
 20
3086.480031172933
 30
0.0
  0
ENDBLK
  5
18C3
330
18BC
100
AcDbEntity
  8
0
100
AcDbBlockEnd
  0
BLOCK
  5
19AE
330
19A4
100
AcDbEntity
  8
0
100
AcDbBlockBegin
  2
*D47
 70
     1
 10
0.0
 20
0.0
 30
0.0
  3
*D47
  1

  0
LINE
  5
25E9
330
19A4
100
AcDbEntity
  8
图层3
 62
     0
370
    -2
100
AcDbLine
 10
741.3850278486949
 20
3082.209690622713
 30
0.0
 11
496.5216438388783
 21
3082.209690622713
 31
0.0
  0
LINE
  5
25EA
330
19A4
100
AcDbEntity
  8
图层3
 62
     0
370
    -2
100
AcDbLine
 10
741.3850278486933
 20
2662.209690622713
 30
0.0
 11
496.5216438388782
 21
2662.209690622713
 31
0.0
  0
LINE
  5
25EB
330
19A4
100
AcDbEntity
  8
图层3
 62
     0
370
    -2
100
AcDbLine
 10
497.7716438388783
 20
3069.209690622713
 30
0.0
 11
497.7716438388782
 21
2675.209690622713
 31
0.0
  0
SOLID
  5
25EC
330
19A4
100
AcDbEntity
  8
图层3
 62
     0
100
AcDbTrace
 10
495.6049771722116
 20
3069.209690622713
 30
0.0
 11
499.938310505545
 21
3069.209690622713
 31
0.0
 12
497.7716438388783
 22
3082.209690622713
 32
0.0
 13
497.7716438388783
 23
3082.209690622713
 33
0.0
  0
SOLID
  5
25ED
330
19A4
100
AcDbEntity
  8
图层3
 62
     0
100
AcDbTrace
 10
495.6049771722115
 20
2675.209690622713
 30
0.0
 11
499.9383105055449
 21
2675.209690622713
 31
0.0
 12
497.7716438388782
 22
2662.209690622713
 32
0.0
 13
497.7716438388782
 23
2662.209690622713
 33
0.0
  0
MTEXT
  5
25EE
330
19A4
100
AcDbEntity
  8
图层3
 62
     0
100
AcDbMText
 10
487.2716438388778
 20
2872.209690622712
 30
0.0
 40
13.0
 41
0.0
 71
     5
 72
     1
  1
420 [16 1/2]
 11
0.0000000000000001
 21
1.0
 31
0.0
 73
     1
 44
1.0
  0
POINT
  5
25EF
330
19A4
100
AcDbEntity
  8
Defpoints
 62
     0
100
AcDbPoint
 10
746.385027848695
 20
3082.209690622713
 30
0.0
  0
POINT
  5
25F0
330
19A4
100
AcDbEntity
  8
Defpoints
 62
     0
100
AcDbPoint
 10
746.3850278486932
 20
2662.209690622713
 30
0.0
  0
POINT
  5
25F1
330
19A4
100
AcDbEntity
  8
Defpoints
 62
     0
100
AcDbPoint
 10
497.7716438388782
 20
2662.209690622713
 30
0.0
  0
ENDBLK
  5
19AF
330
19A4
100
AcDbEntity
  8
0
100
AcDbBlockEnd
  0
BLOCK
  5
19C6
330
19BC
100
AcDbEntity
  8
0
100
AcDbBlockBegin
  2
*D48
 70
     1
 10
0.0
 20
0.0
 30
0.0
  3
*D48
  1

  0
LINE
  5
25F2
330
19BC
100
AcDbEntity
  8
图层3
 62
     0
370
    -2
100
AcDbLine
 10
605.2231303073344
 20
3107.209690622714
 30
0.0
 11
460.7153689139417
 21
3107.209690622714
 31
0.0
  0
LINE
  5
25F3
330
19BC
100
AcDbEntity
  8
图层3
 62
     0
370
    -2
100
AcDbLine
 10
605.2231303073341
 20
2637.209690622712
 30
0.0
 11
460.7153689139416
 21
2637.209690622712
 31
0.0
  0
LINE
  5
25F4
330
19BC
100
AcDbEntity
  8
图层3
 62
     0
370
    -2
100
AcDbLine
 10
461.9653689139417
 20
3094.209690622714
 30
0.0
 11
461.9653689139416
 21
2650.209690622712
 31
0.0
  0
SOLID
  5
25F5
330
19BC
100
AcDbEntity
  8
图层3
 62
     0
100
AcDbTrace
 10
459.798702247275
 20
3094.209690622714
 30
0.0
 11
464.1320355806084
 21
3094.209690622714
 31
0.0
 12
461.9653689139417
 22
3107.209690622714
 32
0.0
 13
461.9653689139417
 23
3107.209690622714
 33
0.0
  0
SOLID
  5
25F6
330
19BC
100
AcDbEntity
  8
图层3
 62
     0
100
AcDbTrace
 10
459.7987022472749
 20
2650.209690622712
 30
0.0
 11
464.1320355806083
 21
2650.209690622712
 31
0.0
 12
461.9653689139416
 22
2637.209690622712
 32
0.0
 13
461.9653689139416
 23
2637.209690622712
 33
0.0
  0
MTEXT
  5
25F7
330
19BC
100
AcDbEntity
  8
图层3
 62
     0
100
AcDbMText
 10
451.4653689139412
 20
2872.209690622712
 30
0.0
 40
13.0
 41
0.0
 71
     5
 72
     1
  1
470 [18 1/2]
 11
0.0000000000000001
 21
1.0
 31
0.0
 73
     1
 44
1.0
  0
POINT
  5
25F8
330
19BC
100
AcDbEntity
  8
Defpoints
 62
     0
100
AcDbPoint
 10
610.2231303073343
 20
3107.209690622714
 30
0.0
  0
POINT
  5
25F9
330
19BC
100
AcDbEntity
  8
Defpoints
 62
     0
100
AcDbPoint
 10
610.2231303073341
 20
2637.209690622712
 30
0.0
  0
POINT
  5
25FA
330
19BC
100
AcDbEntity
  8
Defpoints
 62
     0
100
AcDbPoint
 10
461.9653689139416
 20
2637.209690622712
 30
0.0
  0
ENDBLK
  5
19C7
330
19BC
100
AcDbEntity
  8
0
100
AcDbBlockEnd
  0
BLOCK
  5
19E0
330
19D4
100
AcDbEntity
  8
0
100
AcDbBlockBegin
  2
*D49
 70
     1
 10
0.0
 20
0.0
 30
0.0
  3
*D49
  1

  0
LINE
  5
25FB
330
19D4
100
AcDbEntity
  8
图层3
 62
     0
370
    -2
100
AcDbLine
 10
536.3850278486944
 20
2706.047793081352
 30
0.0
 11
536.3850278486944
 21
2588.663030479822
 31
0.0
  0
LINE
  5
25FC
330
19D4
100
AcDbEntity
  8
图层3
 62
     0
370
    -2
100
AcDbLine
 10
561.3850278486946
 20
2867.209690622713
 30
0.0
 11
561.3850278486946
 21
2588.663030479822
 31
0.0
  0
LINE
  5
25FD
330
19D4
100
AcDbEntity
  8
图层3
 62
     0
370
    -2
100
AcDbLine
 10
523.3850278486944
 20
2589.913030479822
 30
0.0
 11
510.3850278486944
 21
2589.913030479822
 31
0.0
  0
LINE
  5
25FE
330
19D4
100
AcDbEntity
  8
图层3
 62
     0
370
    -2
100
AcDbLine
 10
574.3850278486946
 20
2589.913030479822
 30
0.0
 11
656.0516945153612
 21
2589.913030479822
 31
0.0
  0
LINE
  5
25FF
330
19D4
100
AcDbEntity
  8
图层3
 62
     0
370
    -2
100
AcDbLine
 10
536.3850278486944
 20
2589.913030479822
 30
0.0
 11
561.3850278486946
 21
2589.913030479822
 31
0.0
  0
SOLID
  5
2600
330
19D4
100
AcDbEntity
  8
图层3
 62
     0
100
AcDbTrace
 10
523.3850278486944
 20
2592.079697146489
 30
0.0
 11
523.3850278486944
 21
2587.746363813156
 31
0.0
 12
536.3850278486944
 22
2589.913030479822
 32
0.0
 13
536.3850278486944
 23
2589.913030479822
 33
0.0
  0
SOLID
  5
2601
330
19D4
100
AcDbEntity
  8
图层3
 62
     0
100
AcDbTrace
 10
574.3850278486946
 20
2592.079697146489
 30
0.0
 11
574.3850278486946
 21
2587.746363813156
 31
0.0
 12
561.3850278486946
 22
2589.913030479822
 32
0.0
 13
561.3850278486946
 23
2589.913030479822
 33
0.0
  0
MTEXT
  5
2602
330
19D4
100
AcDbEntity
  8
图层3
 62
     0
100
AcDbMText
 10
621.7183611820281
 20
2600.413030479822
 30
0.0
 40
13.0
 41
0.0
 71
     5
 72
     1
  1
25 [1]
 73
     1
 44
1.0
  0
POINT
  5
2603
330
19D4
100
AcDbEntity
  8
Defpoints
 62
     0
100
AcDbPoint
 10
536.3850278486944
 20
2711.047793081352
 30
0.0
  0
POINT
  5
2604
330
19D4
100
AcDbEntity
  8
Defpoints
 62
     0
100
AcDbPoint
 10
561.3850278486946
 20
2872.209690622713
 30
0.0
  0
POINT
  5
2605
330
19D4
100
AcDbEntity
  8
Defpoints
 62
     0
100
AcDbPoint
 10
561.3850278486946
 20
2589.913030479822
 30
0.0
  0
ENDBLK
  5
19E1
330
19D4
100
AcDbEntity
  8
0
100
AcDbBlockEnd
  0
BLOCK
  5
19FA
330
19F0
100
AcDbEntity
  8
0
100
AcDbBlockBegin
  2
*D50
 70
     1
 10
0.0
 20
0.0
 30
0.0
  3
*D50
  1

  0
LINE
  5
2606
330
19F0
100
AcDbEntity
  8
图层3
 62
     0
370
    -2
100
AcDbLine
 10
561.3850278486948
 20
2867.209690622713
 30
0.0
 11
561.3850278486948
 21
2588.663030479822
 31
0.0
  0
LINE
  5
2607
330
19F0
100
AcDbEntity
  8
图层3
 62
     0
370
    -2
100
AcDbLine
 10
931.3850278486947
 20
2867.209690622713
 30
0.0
 11
931.3850278486947
 21
2588.663030479822
 31
0.0
  0
LINE
  5
2608
330
19F0
100
AcDbEntity
  8
图层3
 62
     0
370
    -2
100
AcDbLine
 10
574.3850278486948
 20
2589.913030479822
 30
0.0
 11
918.3850278486948
 21
2589.913030479822
 31
0.0
  0
SOLID
  5
2609
330
19F0
100
AcDbEntity
  8
图层3
 62
     0
100
AcDbTrace
 10
574.3850278486948
 20
2592.079697146489
 30
0.0
 11
574.3850278486948
 21
2587.746363813156
 31
0.0
 12
561.3850278486948
 22
2589.913030479822
 32
0.0
 13
561.3850278486948
 23
2589.913030479822
 33
0.0
  0
SOLID
  5
260A
330
19F0
100
AcDbEntity
  8
图层3
 62
     0
100
AcDbTrace
 10
918.3850278486948
 20
2592.079697146489
 30
0.0
 11
918.3850278486948
 21
2587.746363813156
 31
0.0
 12
931.3850278486947
 22
2589.913030479822
 32
0.0
 13
931.3850278486947
 23
2589.913030479822
 33
0.0
  0
MTEXT
  5
260B
330
19F0
100
AcDbEntity
  8
图层3
 62
     0
100
AcDbMText
 10
746.3850278486948
 20
2600.413030479822
 30
0.0
 40
13.0
 41
0.0
 71
     5
 72
     1
  1
370 [14 5/8]
 73
     1
 44
1.0
  0
POINT
  5
260C
330
19F0
100
AcDbEntity
  8
Defpoints
 62
     0
100
AcDbPoint
 10
561.3850278486948
 20
2872.209690622713
 30
0.0
  0
POINT
  5
260D
330
19F0
100
AcDbEntity
  8
Defpoints
 62
     0
100
AcDbPoint
 10
931.3850278486947
 20
2872.209690622713
 30
0.0
  0
POINT
  5
260E
330
19F0
100
AcDbEntity
  8
Defpoints
 62
     0
100
AcDbPoint
 10
931.3850278486947
 20
2589.913030479822
 30
0.0
  0
ENDBLK
  5
19FB
330
19F0
100
AcDbEntity
  8
0
100
AcDbBlockEnd
  0
BLOCK
  5
1A12
330
1A08
100
AcDbEntity
  8
0
100
AcDbBlockBegin
  2
*D51
 70
     1
 10
0.0
 20
0.0
 30
0.0
  3
*D51
  1

  0
LINE
  5
260F
330
1A08
100
AcDbEntity
  8
图层3
 62
     0
370
    -2
100
AcDbLine
 10
931.3850278486947
 20
2867.209690622713
 30
0.0
 11
931.3850278486947
 21
2588.663030479822
 31
0.0
  0
LINE
  5
2610
330
1A08
100
AcDbEntity
  8
图层3
 62
     0
370
    -2
100
AcDbLine
 10
961.3850278486946
 20
2867.209690622713
 30
0.0
 11
961.3850278486946
 21
2588.663030479822
 31
0.0
  0
LINE
  5
2611
330
1A08
100
AcDbEntity
  8
图层3
 62
     0
370
    -2
100
AcDbLine
 10
918.3850278486946
 20
2589.913030479822
 30
0.0
 11
905.3850278486946
 21
2589.913030479822
 31
0.0
  0
LINE
  5
2612
330
1A08
100
AcDbEntity
  8
图层3
 62
     0
370
    -2
100
AcDbLine
 10
974.3850278486947
 20
2589.913030479822
 30
0.0
 11
987.3850278486946
 21
2589.913030479822
 31
0.0
  0
LINE
  5
2613
330
1A08
100
AcDbEntity
  8
图层3
 62
     0
370
    -2
100
AcDbLine
 10
946.3850278486946
 20
2589.913030479822
 30
0.0
 11
946.3850278486946
 21
2560.663030479822
 31
0.0
  0
LINE
  5
2614
330
1A08
100
AcDbEntity
  8
图层3
 62
     0
370
    -2
100
AcDbLine
 10
946.3850278486946
 20
2560.663030479822
 30
0.0
 11
1060.551694515361
 21
2560.663030479822
 31
0.0
  0
MTEXT
  5
2615
330
1A08
100
AcDbEntity
  8
图层3
 62
     0
100
AcDbMText
 10
1003.468361182028
 20
2571.163030479822
 30
0.0
 40
13.0
 41
0.0
 71
     5
 72
     1
  1
30 [1 1/8]
 73
     1
 44
1.0
  0
LINE
  5
2616
330
1A08
100
AcDbEntity
  8
图层3
 62
     0
370
    -2
100
AcDbLine
 10
931.3850278486947
 20
2589.913030479822
 30
0.0
 11
961.3850278486946
 21
2589.913030479822
 31
0.0
  0
LINE
  5
2617
330
1A08
100
AcDbEntity
  8
图层3
 62
     0
370
    -2
100
AcDbLine
 10
931.3850278486947
 20
2589.913030479822
 30
0.0
 11
961.3850278486946
 21
2589.913030479822
 31
0.0
  0
SOLID
  5
2618
330
1A08
100
AcDbEntity
  8
图层3
 62
     0
100
AcDbTrace
 10
918.3850278486946
 20
2592.079697146489
 30
0.0
 11
918.3850278486946
 21
2587.746363813156
 31
0.0
 12
931.3850278486947
 22
2589.913030479822
 32
0.0
 13
931.3850278486947
 23
2589.913030479822
 33
0.0
  0
SOLID
  5
2619
330
1A08
100
AcDbEntity
  8
图层3
 62
     0
100
AcDbTrace
 10
974.3850278486947
 20
2592.079697146489
 30
0.0
 11
974.3850278486947
 21
2587.746363813156
 31
0.0
 12
961.3850278486946
 22
2589.913030479822
 32
0.0
 13
961.3850278486946
 23
2589.913030479822
 33
0.0
  0
POINT
  5
261A
330
1A08
100
AcDbEntity
  8
Defpoints
 62
     0
100
AcDbPoint
 10
931.3850278486947
 20
2872.209690622713
 30
0.0
  0
POINT
  5
261B
330
1A08
100
AcDbEntity
  8
Defpoints
 62
     0
100
AcDbPoint
 10
961.3850278486946
 20
2872.209690622713
 30
0.0
  0
POINT
  5
261C
330
1A08
100
AcDbEntity
  8
Defpoints
 62
     0
100
AcDbPoint
 10
961.3850278486946
 20
2589.913030479822
 30
0.0
  0
ENDBLK
  5
1A13
330
1A08
100
AcDbEntity
  8
0
100
AcDbBlockEnd
  0
BLOCK
  5
1A2A
330
1A20
100
AcDbEntity
  8
0
100
AcDbBlockBegin
  2
*D52
 70
     1
 10
0.0
 20
0.0
 30
0.0
  3
*D52
  1

  0
LINE
  5
261D
330
1A20
100
AcDbEntity
  8
图层3
 62
     0
370
    -2
100
AcDbLine
 10
961.3850278486948
 20
2867.209690622713
 30
0.0
 11
961.3850278486948
 21
2588.663030479822
 31
0.0
  0
LINE
  5
261E
330
1A20
100
AcDbEntity
  8
图层3
 62
     0
370
    -2
100
AcDbLine
 10
1331.385027848695
 20
2867.209690622713
 30
0.0
 11
1331.385027848695
 21
2588.663030479822
 31
0.0
  0
LINE
  5
261F
330
1A20
100
AcDbEntity
  8
图层3
 62
     0
370
    -2
100
AcDbLine
 10
974.3850278486947
 20
2589.913030479822
 30
0.0
 11
1318.385027848695
 21
2589.913030479822
 31
0.0
  0
SOLID
  5
2620
330
1A20
100
AcDbEntity
  8
图层3
 62
     0
100
AcDbTrace
 10
974.3850278486947
 20
2592.079697146489
 30
0.0
 11
974.3850278486947
 21
2587.746363813156
 31
0.0
 12
961.3850278486948
 22
2589.913030479822
 32
0.0
 13
961.3850278486948
 23
2589.913030479822
 33
0.0
  0
SOLID
  5
2621
330
1A20
100
AcDbEntity
  8
图层3
 62
     0
100
AcDbTrace
 10
1318.385027848695
 20
2592.079697146489
 30
0.0
 11
1318.385027848695
 21
2587.746363813156
 31
0.0
 12
1331.385027848695
 22
2589.913030479822
 32
0.0
 13
1331.385027848695
 23
2589.913030479822
 33
0.0
  0
MTEXT
  5
2622
330
1A20
100
AcDbEntity
  8
图层3
 62
     0
100
AcDbMText
 10
1146.385027848695
 20
2600.413030479822
 30
0.0
 40
13.0
 41
0.0
 71
     5
 72
     1
  1
370 [14 5/8]
 73
     1
 44
1.0
  0
POINT
  5
2623
330
1A20
100
AcDbEntity
  8
Defpoints
 62
     0
100
AcDbPoint
 10
961.3850278486948
 20
2872.209690622713
 30
0.0
  0
POINT
  5
2624
330
1A20
100
AcDbEntity
  8
Defpoints
 62
     0
100
AcDbPoint
 10
1331.385027848695
 20
2872.209690622713
 30
0.0
  0
POINT
  5
2625
330
1A20
100
AcDbEntity
  8
Defpoints
 62
     0
100
AcDbPoint
 10
1331.385027848695
 20
2589.913030479822
 30
0.0
  0
ENDBLK
  5
1A2B
330
1A20
100
AcDbEntity
  8
0
100
AcDbBlockEnd
  0
BLOCK
  5
1A44
330
1A38
100
AcDbEntity
  8
0
100
AcDbBlockBegin
  2
*D53
 70
     1
 10
0.0
 20
0.0
 30
0.0
  3
*D53
  1

  0
LINE
  5
2626
330
1A38
100
AcDbEntity
  8
图层3
 62
     0
370
    -2
100
AcDbLine
 10
1331.385027848695
 20
2867.209690622713
 30
0.0
 11
1331.385027848695
 21
2588.663030479822
 31
0.0
  0
LINE
  5
2627
330
1A38
100
AcDbEntity
  8
图层3
 62
     0
370
    -2
100
AcDbLine
 10
1356.385027848695
 20
2706.047793081352
 30
0.0
 11
1356.385027848695
 21
2588.663030479822
 31
0.0
  0
LINE
  5
2628
330
1A38
100
AcDbEntity
  8
图层3
 62
     0
370
    -2
100
AcDbLine
 10
1318.385027848695
 20
2589.913030479822
 30
0.0
 11
1305.385027848695
 21
2589.913030479822
 31
0.0
  0
LINE
  5
2629
330
1A38
100
AcDbEntity
  8
图层3
 62
     0
370
    -2
100
AcDbLine
 10
1369.385027848695
 20
2589.913030479822
 30
0.0
 11
1382.385027848695
 21
2589.913030479822
 31
0.0
  0
LINE
  5
262A
330
1A38
100
AcDbEntity
  8
图层3
 62
     0
370
    -2
100
AcDbLine
 10
1343.885027848695
 20
2589.913030479822
 30
0.0
 11
1343.885027848695
 21
2560.663030479822
 31
0.0
  0
LINE
  5
262B
330
1A38
100
AcDbEntity
  8
图层3
 62
     0
370
    -2
100
AcDbLine
 10
1343.885027848695
 20
2560.663030479822
 30
0.0
 11
1412.551694515361
 21
2560.663030479822
 31
0.0
  0
MTEXT
  5
262C
330
1A38
100
AcDbEntity
  8
图层3
 62
     0
100
AcDbMText
 10
1378.218361182028
 20
2571.163030479822
 30
0.0
 40
13.0
 41
0.0
 71
     5
 72
     1
  1
25 [1]
 73
     1
 44
1.0
  0
LINE
  5
262D
330
1A38
100
AcDbEntity
  8
图层3
 62
     0
370
    -2
100
AcDbLine
 10
1331.385027848695
 20
2589.913030479822
 30
0.0
 11
1356.385027848695
 21
2589.913030479822
 31
0.0
  0
LINE
  5
262E
330
1A38
100
AcDbEntity
  8
图层3
 62
     0
370
    -2
100
AcDbLine
 10
1331.385027848695
 20
2589.913030479822
 30
0.0
 11
1356.385027848695
 21
2589.913030479822
 31
0.0
  0
SOLID
  5
262F
330
1A38
100
AcDbEntity
  8
图层3
 62
     0
100
AcDbTrace
 10
1318.385027848695
 20
2592.079697146489
 30
0.0
 11
1318.385027848695
 21
2587.746363813156
 31
0.0
 12
1331.385027848695
 22
2589.913030479822
 32
0.0
 13
1331.385027848695
 23
2589.913030479822
 33
0.0
  0
SOLID
  5
2630
330
1A38
100
AcDbEntity
  8
图层3
 62
     0
100
AcDbTrace
 10
1369.385027848695
 20
2592.079697146489
 30
0.0
 11
1369.385027848695
 21
2587.746363813156
 31
0.0
 12
1356.385027848695
 22
2589.913030479822
 32
0.0
 13
1356.385027848695
 23
2589.913030479822
 33
0.0
  0
POINT
  5
2631
330
1A38
100
AcDbEntity
  8
Defpoints
 62
     0
100
AcDbPoint
 10
1331.385027848695
 20
2872.209690622713
 30
0.0
  0
POINT
  5
2632
330
1A38
100
AcDbEntity
  8
Defpoints
 62
     0
100
AcDbPoint
 10
1356.385027848695
 20
2711.047793081351
 30
0.0
  0
POINT
  5
2633
330
1A38
100
AcDbEntity
  8
Defpoints
 62
     0
100
AcDbPoint
 10
1356.385027848695
 20
2589.913030479822
 30
0.0
  0
ENDBLK
  5
1A45
330
1A38
100
AcDbEntity
  8
0
100
AcDbBlockEnd
  0
BLOCK
  5
1A5A
330
1A54
100
AcDbEntity
  8
0
100
AcDbBlockBegin
  2
*D54
 70
     1
 10
0.0
 20
0.0
 30
0.0
  3
*D54
  1

  0
LINE
  5
26EF
330
1A54
100
AcDbEntity
  8
图层3
 62
     0
370
    -2
100
AcDbLine
 10
792.5516968847113
 20
2872.295912617027
 30
0.0
 11
574.3850305475335
 21
2872.307902906047
 31
0.0
  0
MTEXT
  5
26F0
330
1A54
100
AcDbEntity
  8
图层3
 62
     0
100
AcDbMText
 10
689.9689407790393
 20
2882.801550510177
 30
0.0
 40
13.0
 41
0.0
 71
     5
 72
     1
  1
4-R1800 [R70 7/8]
 11
0.9999999984897371
 21
-0.0000549593079649
 31
0.0
 73
     1
 44
1.0
  0
SOLID
  5
26F1
330
1A54
100
AcDbEntity
  8
图层3
 62
     0
100
AcDbTrace
 10
574.3851496260341
 20
2874.474569569441
 30
0.0
 11
574.384911469033
 21
2870.141236242653
 31
0.0
 12
561.3850305671669
 22
2872.308617377051
 32
0.0
 13
561.3850305671669
 23
2872.308617377051
 33
0.0
  0
POINT
  5
26F2
330
1A54
100
AcDbEntity
  8
Defpoints
 62
     0
100
AcDbPoint
 10
561.3850305671669
 20
2872.308617377051
 30
0.0
  0
POINT
  5
26F3
330
1A54
100
AcDbEntity
  8
Defpoints
 62
     0
100
AcDbPoint
 10
2361.385027848693
 20
2872.209690622714
 30
0.0
  0
ENDBLK
  5
1A5B
330
1A54
100
AcDbEntity
  8
0
100
AcDbBlockEnd
  0
BLOCK
  5
1A6A
330
1A64
100
AcDbEntity
  8
0
100
AcDbBlockBegin
  2
*D55
 70
     1
 10
0.0
 20
0.0
 30
0.0
  3
*D55
  1

  0
LINE
  5
26F4
330
1A64
100
AcDbEntity
  8
图层3
 62
     0
370
    -2
100
AcDbLine
 10
824.644015934996
 20
2757.22032049687
 30
0.0
 11
658.1440159349961
 21
2757.22032049687
 31
0.0
  0
LINE
  5
26F5
330
1A64
100
AcDbEntity
  8
图层3
 62
     0
370
    -2
100
AcDbLine
 10
658.1440159349961
 20
2757.22032049687
 30
0.0
 11
599.7494417219736
 21
2701.447242739948
 31
0.0
  0
MTEXT
  5
26F6
330
1A64
100
AcDbEntity
  8
图层3
 62
     0
100
AcDbMText
 10
743.3940159349962
 20
2767.72032049687
 30
0.0
 40
13.0
 41
0.0
 71
     5
 72
     1
  1
4-R90 [R3 1/2]
 73
     1
 44
1.0
  0
SOLID
  5
26F7
330
1A64
100
AcDbEntity
  8
图层3
 62
     0
100
AcDbTrace
 10
598.2529504715298
 20
2703.014073420586
 30
0.0
 11
601.2459329724174
 21
2699.880412059309
 31
0.0
 12
590.3484576381433
 22
2692.468295237285
 32
0.0
 13
590.3484576381433
 23
2692.468295237285
 33
0.0
  0
POINT
  5
26F8
330
1A64
100
AcDbEntity
  8
Defpoints
 62
     0
100
AcDbPoint
 10
590.3484576381433
 20
2692.468295237285
 30
0.0
  0
POINT
  5
26F9
330
1A64
100
AcDbEntity
  8
Defpoints
 62
     0
100
AcDbPoint
 10
655.4321936031213
 20
2754.630239486486
 30
0.0
  0
ENDBLK
  5
1A6B
330
1A64
100
AcDbEntity
  8
0
100
AcDbBlockEnd
  0
BLOCK
  5
1A88
330
1A7E
100
AcDbEntity
  8
0
100
AcDbBlockBegin
  2
*D56
 70
     1
 10
0.0
 20
0.0
 30
0.0
  3
*D56
  1

  0
LINE
  5
263F
330
1A7E
100
AcDbEntity
  8
图层3
 62
     0
370
    -2
100
AcDbLine
 10
1690.589990368172
 20
2876.735208339355
 30
0.0
 11
1690.589990368172
 21
2948.476157375747
 31
0.0
  0
LINE
  5
2640
330
1A7E
100
AcDbEntity
  8
图层3
 62
     0
370
    -2
100
AcDbLine
 10
1491.05577495573
 20
2952.226157375747
 30
0.0
 11
1491.05577495573
 21
2948.476157375747
 31
0.0
  0
LINE
  5
2641
330
1A7E
100
AcDbEntity
  8
图层3
 62
     0
370
    -2
100
AcDbLine
 10
1677.589990368171
 20
2947.226157375748
 30
0.0
 11
1504.05577495573
 21
2947.226157375748
 31
0.0
  0
SOLID
  5
2642
330
1A7E
100
AcDbEntity
  8
图层3
 62
     0
100
AcDbTrace
 10
1677.589990368171
 20
2949.392824042414
 30
0.0
 11
1677.589990368171
 21
2945.059490709081
 31
0.0
 12
1690.589990368172
 22
2947.226157375748
 32
0.0
 13
1690.589990368172
 23
2947.226157375748
 33
0.0
  0
SOLID
  5
2643
330
1A7E
100
AcDbEntity
  8
图层3
 62
     0
100
AcDbTrace
 10
1504.05577495573
 20
2949.392824042414
 30
0.0
 11
1504.05577495573
 21
2945.059490709081
 31
0.0
 12
1491.05577495573
 22
2947.226157375748
 32
0.0
 13
1491.05577495573
 23
2947.226157375748
 33
0.0
  0
MTEXT
  5
2644
330
1A7E
100
AcDbEntity
  8
图层3
 62
     0
100
AcDbMText
 10
1590.82288266195
 20
2957.726157375748
 30
0.0
 40
13.0
 41
0.0
 71
     5
 72
     1
  1
200
 73
     1
 44
1.0
  0
POINT
  5
2645
330
1A7E
100
AcDbEntity
  8
Defpoints
 62
     0
100
AcDbPoint
 10
1690.589990368172
 20
2871.735208339355
 30
0.0
  0
POINT
  5
2646
330
1A7E
100
AcDbEntity
  8
Defpoints
 62
     0
100
AcDbPoint
 10
1491.05577495573
 20
2947.226157375748
 30
0.0
  0
POINT
  5
2647
330
1A7E
100
AcDbEntity
  8
Defpoints
 62
     0
100
AcDbPoint
 10
1491.05577495573
 20
2947.226157375748
 30
0.0
  0
ENDBLK
  5
1A89
330
1A7E
100
AcDbEntity
  8
0
100
AcDbBlockEnd
  0
BLOCK
  5
1ABD
330
1AB3
100
AcDbEntity
  8
0
100
AcDbBlockBegin
  2
*D57
 70
     1
 10
0.0
 20
0.0
 30
0.0
  3
*D57
  1

  0
ARC
  5
2648
330
1AB3
100
AcDbEntity
  8
图层3
 62
     0
370
    -2
100
AcDbCircle
 10
1690.589990368172
 20
2662.209690622712
 30
0.0
 40
71.91455766727827
100
AcDbArc
 50
100.3715168048594
 51
166.6284831951401
  0
SOLID
  5
2649
330
1AB3
100
AcDbEntity
  8
图层3
 62
     0
100
AcDbTrace
 10
1677.44736647543
 20
2735.107041075058
 30
0.0
 11
1677.839034971772
 21
2730.791444526868
 31
0.0
 12
1690.589990368172
 22
2734.12424828999
 32
0.0
 13
1690.589990368172
 23
2734.12424828999
 33
0.0
  0
SOLID
  5
264A
330
1AB3
100
AcDbEntity
  8
图层3
 62
     0
100
AcDbTrace
 10
1622.769558817893
 20
2678.532462949287
 30
0.0
 11
1618.480374990072
 21
2679.149455549676
 31
0.0
 12
1618.773989102817
 22
2665.973407766018
 32
0.0
 13
1618.773989102817
 23
2665.973407766018
 33
0.0
  0
MTEXT
  5
264B
102
{ACAD_XDICTIONARY
360
286C
102
}
330
1AB3
100
AcDbEntity
  8
图层3
 62
     0
100
AcDbMText
 10
1633.859552494123
 20
2721.99109855287
 30
0.0
 40
13.0
 41
0.0
 71
     5
 72
     1
  1
87\U+00B0
 11
0.7253743710122896
 21
0.6883545756937521
 31
0.0
 73
     1
 44
1.0
  0
POINT
  5
264C
330
1AB3
100
AcDbEntity
  8
Defpoints
 62
     0
100
AcDbPoint
 10
1655.725120975315
 20
2725.107579988726
 30
0.0
  0
POINT
  5
264D
330
1AB3
100
AcDbEntity
  8
Defpoints
 62
     0
100
AcDbPoint
 10
1686.325502171265
 20
2662.433182978891
 30
0.0
  0
POINT
  5
264E
330
1AB3
100
AcDbEntity
  8
Defpoints
 62
     0
100
AcDbPoint
 10
1690.589990368172
 20
3085.531066606216
 30
0.0
  0
POINT
  5
264F
330
1AB3
100
AcDbEntity
  8
Defpoints
 62
     0
100
AcDbPoint
 10
1690.589990368172
 20
2657.939350072495
 30
0.0
  0
POINT
  5
2650
330
1AB3
100
AcDbEntity
  8
Defpoints
 62
     0
100
AcDbPoint
 10
1548.714924399388
 20
2669.645047765772
 30
0.0
  0
ENDBLK
  5
1ABE
330
1AB3
100
AcDbEntity
  8
0
100
AcDbBlockEnd
  0
BLOCK
  5
1AD5
330
1ACB
100
AcDbEntity
  8
0
100
AcDbBlockBegin
  2
*D58
 70
     1
 10
0.0
 20
0.0
 30
0.0
  3
*D58
  1

  0
ARC
  5
2651
330
1ACB
100
AcDbEntity
  8
图层3
 62
     0
370
    -2
100
AcDbCircle
 10
1690.589990368172
 20
3082.209690622713
 30
0.0
 40
77.44637011615498
100
AcDbArc
 50
192.6288873815874
 51
260.3711126184128
  0
SOLID
  5
2652
330
1ACB
100
AcDbEntity
  8
图层3
 62
     0
100
AcDbTrace
 10
1612.870760919129
 20
3064.982592492163
 30
0.0
 11
1617.163853170447
 21
3065.571775570212
 31
0.0
 12
1613.249757810645
 22
3078.15646078514
 32
0.0
 13
1613.249757810645
 23
3078.15646078514
 33
0.0
  0
SOLID
  5
2653
330
1ACB
100
AcDbEntity
  8
图层3
 62
     0
100
AcDbTrace
 10
1677.817704103474
 20
3008.013420199963
 30
0.0
 11
1677.45401156857
 21
3003.695376022579
 31
0.0
 12
1690.589990368172
 22
3004.763320506559
 32
0.0
 13
1690.589990368172
 23
3004.763320506559
 33
0.0
  0
MTEXT
  5
2654
102
{ACAD_XDICTIONARY
360
286E
102
}
330
1ACB
100
AcDbEntity
  8
图层3
 62
     0
100
AcDbMText
 10
1644.507150172629
 20
3033.648509508152
 30
0.0
 40
13.0
 41
0.0
 71
     5
 72
     1
  1
87\U+00B0
 11
0.7253743710122897
 21
-0.6883545756937519
 31
0.0
 73
     1
 44
1.0
  0
POINT
  5
2655
330
1ACB
100
AcDbEntity
  8
Defpoints
 62
     0
100
AcDbPoint
 10
1624.91174363694
 20
3041.169367153228
 30
0.0
  0
POINT
  5
2656
330
1ACB
100
AcDbEntity
  8
Defpoints
 62
     0
100
AcDbPoint
 10
1686.325502171264
 20
3081.986198266534
 30
0.0
  0
POINT
  5
2657
330
1ACB
100
AcDbEntity
  8
Defpoints
 62
     0
100
AcDbPoint
 10
1690.589990368172
 20
3085.531066606215
 30
0.0
  0
POINT
  5
2658
330
1ACB
100
AcDbEntity
  8
Defpoints
 62
     0
100
AcDbPoint
 10
1690.589990368172
 20
2657.939350072495
 30
0.0
  0
POINT
  5
2659
330
1ACB
100
AcDbEntity
  8
Defpoints
 62
     0
100
AcDbPoint
 10
1528.977266408436
 20
3073.7399266561
 30
0.0
  0
ENDBLK
  5
1AD6
330
1ACB
100
AcDbEntity
  8
0
100
AcDbBlockEnd
  0
BLOCK
  5
1B1C
330
1B15
100
AcDbEntity
  8
0
100
AcDbBlockBegin
  2
*D59
 70
     1
 10
0.0
 20
0.0
 30
0.0
  3
*D59
  1

  0
LINE
  5
26FA
330
1B15
100
AcDbEntity
  8
图层3
 62
     0
370
    -2
100
AcDbLine
 10
1397.685755695384
 20
3382.950258941384
 30
0.0
 11
1354.685755695384
 21
3382.950258941384
 31
0.0
  0
LINE
  5
26FB
330
1B15
100
AcDbEntity
  8
图层3
 62
     0
370
    -2
100
AcDbLine
 10
1354.685755695384
 20
3382.950258941384
 30
0.0
 11
1340.797474358577
 21
3401.230490257292
 31
0.0
  0
MTEXT
  5
26FC
330
1B15
100
AcDbEntity
  8
图层3
 62
     0
100
AcDbMText
 10
1378.185755695384
 20
3393.450258941383
 30
0.0
 40
13.0
 41
0.0
 71
     5
 72
     1
  1
R3.5
 73
     1
 44
1.0
  0
SOLID
  5
26FD
330
1B15
100
AcDbEntity
  8
图层3
 62
     0
100
AcDbTrace
 10
1342.522705859308
 20
3402.541223148971
 30
0.0
 11
1339.072242857846
 21
3399.919757365612
 31
0.0
 12
1332.9330770085
 22
3411.581879261677
 32
0.0
 13
1332.9330770085
 23
3411.581879261677
 33
0.0
  0
POINT
  5
26FE
330
1B15
100
AcDbEntity
  8
Defpoints
 62
     0
100
AcDbPoint
 10
1332.9330770085
 20
3411.581879261677
 30
0.0
  0
POINT
  5
26FF
330
1B15
100
AcDbEntity
  8
Defpoints
 62
     0
100
AcDbPoint
 10
1335.655368398912
 20
3407.998706144774
 30
0.0
  0
ENDBLK
  5
1B1D
330
1B15
100
AcDbEntity
  8
0
100
AcDbBlockEnd
  0
BLOCK
  5
1B37
330
1B2D
100
AcDbEntity
  8
0
100
AcDbBlockBegin
  2
*D60
 70
     1
 10
0.0
 20
0.0
 30
0.0
  3
*D60
  1

  0
LINE
  5
2660
330
1B2D
100
AcDbEntity
  8
图层3
 62
     0
370
    -2
100
AcDbLine
 10
1151.385027848696
 20
3212.498706144774
 30
0.0
 11
1147.872268990373
 21
3212.498706144774
 31
0.0
  0
LINE
  5
2661
330
1B2D
100
AcDbEntity
  8
图层3
 62
     0
370
    -2
100
AcDbLine
 10
1151.385027848696
 20
3412.498706144774
 30
0.0
 11
1147.872268990373
 21
3412.498706144774
 31
0.0
  0
LINE
  5
2662
330
1B2D
100
AcDbEntity
  8
图层3
 62
     0
370
    -2
100
AcDbLine
 10
1146.622268990373
 20
3225.498706144774
 30
0.0
 11
1146.622268990373
 21
3399.498706144775
 31
0.0
  0
SOLID
  5
2663
330
1B2D
100
AcDbEntity
  8
图层3
 62
     0
100
AcDbTrace
 10
1144.455602323707
 20
3225.498706144774
 30
0.0
 11
1148.78893565704
 21
3225.498706144774
 31
0.0
 12
1146.622268990373
 22
3212.498706144774
 32
0.0
 13
1146.622268990373
 23
3212.498706144774
 33
0.0
  0
SOLID
  5
2664
330
1B2D
100
AcDbEntity
  8
图层3
 62
     0
100
AcDbTrace
 10
1144.455602323707
 20
3399.498706144775
 30
0.0
 11
1148.78893565704
 21
3399.498706144775
 31
0.0
 12
1146.622268990373
 22
3412.498706144774
 32
0.0
 13
1146.622268990373
 23
3412.498706144774
 33
0.0
  0
MTEXT
  5
2665
330
1B2D
100
AcDbEntity
  8
图层3
 62
     0
100
AcDbMText
 10
1136.122268990373
 20
3312.498706144775
 30
0.0
 40
13.0
 41
0.0
 71
     5
 72
     1
  1
200 [7 7/8]
 11
0.0000000000000001
 21
1.0
 31
0.0
 73
     1
 44
1.0
  0
POINT
  5
2666
330
1B2D
100
AcDbEntity
  8
Defpoints
 62
     0
100
AcDbPoint
 10
1146.385027848696
 20
3212.498706144774
 30
0.0
  0
POINT
  5
2667
330
1B2D
100
AcDbEntity
  8
Defpoints
 62
     0
100
AcDbPoint
 10
1146.385027848696
 20
3412.498706144774
 30
0.0
  0
POINT
  5
2668
330
1B2D
100
AcDbEntity
  8
Defpoints
 62
     0
100
AcDbPoint
 10
1146.622268990373
 20
3412.498706144774
 30
0.0
  0
ENDBLK
  5
1B38
330
1B2D
100
AcDbEntity
  8
0
100
AcDbBlockEnd
  0
BLOCK
  5
1B4B
330
1B45
100
AcDbEntity
  8
0
100
AcDbBlockBegin
  2
*D61
 70
     1
 10
0.0
 20
0.0
 30
0.0
  3
*D61
  1

  0
LINE
  5
2700
330
1B45
100
AcDbEntity
  8
图层3
 62
     0
370
    -2
100
AcDbLine
 10
1109.128740525866
 20
3283.752683563539
 30
0.0
 11
1249.628740525866
 21
3283.752683563539
 31
0.0
  0
LINE
  5
2701
330
1B45
100
AcDbEntity
  8
图层3
 62
     0
370
    -2
100
AcDbLine
 10
1249.628740525866
 20
3283.752683563539
 30
0.0
 11
1304.395444070598
 21
3240.559273385095
 31
0.0
  0
MTEXT
  5
2702
330
1B45
100
AcDbEntity
  8
图层3
 62
     0
100
AcDbMText
 10
1177.378740525866
 20
3294.252683563539
 30
0.0
 40
13.0
 41
0.0
 71
     5
 72
     1
  1
R40 [R1 5/8]
 73
     1
 44
1.0
  0
SOLID
  5
2703
330
1B45
100
AcDbEntity
  8
图层3
 62
     0
100
AcDbTrace
 10
1305.737174852724
 20
3242.260509098552
 30
0.0
 11
1303.053713288472
 21
3238.858037671639
 31
0.0
 12
1314.602858351336
 22
3232.508888692339
 32
0.0
 13
1314.602858351336
 23
3232.508888692339
 33
0.0
  0
POINT
  5
2704
330
1B45
100
AcDbEntity
  8
Defpoints
 62
     0
100
AcDbPoint
 10
1314.602858351336
 20
3232.508888692339
 30
0.0
  0
POINT
  5
2705
330
1B45
100
AcDbEntity
  8
Defpoints
 62
     0
100
AcDbPoint
 10
1283.195429795217
 20
3257.27930313159
 30
0.0
  0
ENDBLK
  5
1B4C
330
1B45
100
AcDbEntity
  8
0
100
AcDbBlockEnd
  0
BLOCK
  5
1B5F
330
1B55
100
AcDbEntity
  8
0
100
AcDbBlockBegin
  2
*D62
 70
     1
 10
0.0
 20
0.0
 30
0.0
  3
*D62
  1

  0
ARC
  5
266F
330
1B55
100
AcDbEntity
  8
图层3
 62
     0
370
    -2
100
AcDbCircle
 10
1331.385027848695
 20
3412.498706144776
 30
0.0
 40
73.90706894239302
100
AcDbArc
 50
190.0911688051487
 51
256.9088311948513
  0
SOLID
  5
2670
330
1B55
100
AcDbEntity
  8
图层3
 62
     0
100
AcDbTrace
 10
1256.463015693743
 20
3399.358525981636
 30
0.0
 11
1260.779557541926
 21
3399.739635218815
 31
0.0
 12
1257.477958906302
 22
3412.498706144775
 32
0.0
 13
1257.477958906302
 23
3412.498706144775
 33
0.0
  0
SOLID
  5
2671
330
1B55
100
AcDbEntity
  8
图层3
 62
     0
100
AcDbTrace
 10
1314.948237981515
 20
3342.65775635888
 30
0.0
 11
1314.341740696014
 21
3338.367075897642
 31
0.0
 12
1327.517030722481
 22
3338.692924271759
 32
0.0
 13
1327.517030722481
 23
3338.692924271759
 33
0.0
  0
MTEXT
  5
2672
102
{ACAD_XDICTIONARY
360
2870
102
}
330
1B55
100
AcDbEntity
  8
图层3
 62
     0
100
AcDbMText
 10
1285.391165096874
 20
3368.85216010695
 30
0.0
 40
13.0
 41
0.0
 71
     5
 72
     1
  1
87\U+00B0
 11
0.688354575693754
 21
-0.7253743710122878
 31
0.0
 73
     1
 44
1.0
  0
POINT
  5
2673
330
1B55
100
AcDbEntity
  8
Defpoints
 62
     0
100
AcDbPoint
 10
1266.744448854768
 20
3376.667848117293
 30
0.0
  0
POINT
  5
2674
330
1B55
100
AcDbEntity
  8
Defpoints
 62
     0
100
AcDbPoint
 10
957.5891695818347
 20
3412.498706144775
 30
0.0
  0
POINT
  5
2675
330
1B55
100
AcDbEntity
  8
Defpoints
 62
     0
100
AcDbPoint
 10
1331.161535492517
 20
3408.234217947867
 30
0.0
  0
POINT
  5
2676
330
1B55
100
AcDbEntity
  8
Defpoints
 62
     0
100
AcDbPoint
 10
1323.1406111854
 20
3255.185864881872
 30
0.0
  0
POINT
  5
2677
330
1B55
100
AcDbEntity
  8
Defpoints
 62
     0
100
AcDbPoint
 10
1335.655368398912
 20
3412.498706144775
 30
0.0
  0
ENDBLK
  5
1B60
330
1B55
100
AcDbEntity
  8
0
100
AcDbBlockEnd
  0
BLOCK
  5
1B77
330
1B6D
100
AcDbEntity
  8
0
100
AcDbBlockBegin
  2
*D63
 70
     1
 10
0.0
 20
0.0
 30
0.0
  3
*D63
  1

  0
ARC
  5
2678
330
1B6D
100
AcDbEntity
  8
图层3
 62
     0
370
    -2
100
AcDbCircle
 10
961.3850278486946
 20
3412.498706144775
 30
0.0
 40
84.36540691459526
100
AcDbArc
 50
281.8375560942303
 51
351.1624439057698
  0
SOLID
  5
2679
330
1B6D
100
AcDbEntity
  8
图层3
 62
     0
100
AcDbTrace
 10
978.9713090622461
 20
3327.778957593042
 30
0.0
 11
978.4117864677879
 21
3332.076016150248
 31
0.0
 12
965.8003720933947
 22
3328.248919088272
 32
0.0
 13
965.8003720933947
 23
3328.248919088272
 33
0.0
  0
SOLID
  5
267A
330
1B6D
100
AcDbEntity
  8
图层3
 62
     0
100
AcDbTrace
 10
1042.588613035687
 20
3399.704280491105
 30
0.0
 11
1046.909065773504
 21
3399.370415371539
 31
0.0
 12
1045.75043476329
 22
3412.498706144775
 32
0.0
 13
1045.75043476329
 23
3412.498706144775
 33
0.0
  0
MTEXT
  5
267B
102
{ACAD_XDICTIONARY
360
2872
102
}
330
1B6D
100
AcDbEntity
  8
图层3
 62
     0
100
AcDbMText
 10
1014.965100928935
 20
3361.653115309632
 30
0.0
 40
13.0
 41
0.0
 71
     5
 72
     1
  1
87\U+00B0
 11
0.688354575693753
 21
0.7253743710122887
 31
0.0
 73
     1
 44
1.0
  0
POINT
  5
267C
330
1B6D
100
AcDbEntity
  8
Defpoints
 62
     0
100
AcDbPoint
 10
1006.091882207612
 20
3340.95278342939
 30
0.0
  0
POINT
  5
267D
330
1B6D
100
AcDbEntity
  8
Defpoints
 62
     0
100
AcDbPoint
 10
957.5891695818347
 20
3412.498706144775
 30
0.0
  0
POINT
  5
267E
330
1B6D
100
AcDbEntity
  8
Defpoints
 62
     0
100
AcDbPoint
 10
961.5836877208531
 20
3408.708049969745
 30
0.0
  0
POINT
  5
267F
330
1B6D
100
AcDbEntity
  8
Defpoints
 62
     0
100
AcDbPoint
 10
969.6294445119887
 20
3255.185864881872
 30
0.0
  0
POINT
  5
2680
330
1B6D
100
AcDbEntity
  8
Defpoints
 62
     0
100
AcDbPoint
 10
1335.655368398912
 20
3412.498706144776
 30
0.0
  0
ENDBLK
  5
1B78
330
1B6D
100
AcDbEntity
  8
0
100
AcDbBlockEnd
  0
BLOCK
  5
1B8B
330
1B85
100
AcDbEntity
  8
0
100
AcDbBlockBegin
  2
*D64
 70
     1
 10
0.0
 20
0.0
 30
0.0
  3
*D64
  1

  0
LINE
  5
2706
330
1B85
100
AcDbEntity
  8
图层3
 62
     0
370
    -2
100
AcDbLine
 10
1079.241472072219
 20
3423.258087078217
 30
0.0
 11
1071.872743387451
 21
3226.89629894832
 31
0.0
  0
MTEXT
  5
2707
330
1B85
100
AcDbEntity
  8
图层3
 62
     0
100
AcDbMText
 10
1065.308242391855
 20
3331.966369980364
 30
0.0
 40
13.0
 41
0.0
 71
     5
 72
     1
  1
R2000 [R78 3/4]
 11
0.037499891525537
 21
0.9992966317043068
 31
0.0
 73
     1
 44
1.0
  0
SOLID
  5
2708
330
1B85
100
AcDbEntity
  8
图层3
 62
     0
100
AcDbTrace
 10
1069.707600685425
 20
3226.977548713292
 30
0.0
 11
1074.037886089477
 21
3226.815049183347
 31
0.0
 12
1071.385244797619
 22
3213.905442736165
 32
0.0
 13
1071.385244797619
 23
3213.905442736165
 33
0.0
  0
POINT
  5
2709
330
1B85
100
AcDbEntity
  8
Defpoints
 62
     0
100
AcDbPoint
 10
1071.385244797619
 20
3213.905442736165
 30
0.0
  0
POINT
  5
270A
330
1B85
100
AcDbEntity
  8
Defpoints
 62
     0
100
AcDbPoint
 10
1146.385027848695
 20
5212.498706144778
 30
0.0
  0
ENDBLK
  5
1B8C
330
1B85
100
AcDbEntity
  8
0
100
AcDbBlockEnd
  0
BLOCK
  5
1E7F
330
1E79
100
AcDbEntity
  8
0
100
AcDbBlockBegin
  2
*D65
 70
     1
 10
0.0
 20
0.0
 30
0.0
  3
*D65
  1

  0
LINE
  5
270B
330
1E79
100
AcDbEntity
  8
图层3
 62
     0
370
    -2
100
AcDbLine
 10
1703.485879300282
 20
2880.164565043365
 30
0.0
 11
1507.358564123048
 21
2868.06802663895
 31
0.0
  0
MTEXT
  5
270C
330
1E79
100
AcDbEntity
  8
图层3
 62
     0
100
AcDbMText
 10
1611.263513800243
 20
2884.996521332199
 30
0.0
 40
13.0
 41
0.0
 71
     5
 72
     1
  1
R2000 [R78 3/4]
 11
0.9981033851258779
 21
0.0615599918799812
 31
0.0
 73
     1
 44
1.0
  0
SOLID
  5
270D
330
1E79
100
AcDbEntity
  8
图层3
 62
     0
100
AcDbTrace
 10
1507.225184140641
 20
2870.230583973389
 30
0.0
 11
1507.491944105454
 21
2865.905469304511
 31
0.0
 12
1494.383220116411
 22
2867.26774674451
 32
0.0
 13
1494.383220116411
 23
2867.26774674451
 33
0.0
  0
POINT
  5
270E
330
1E79
100
AcDbEntity
  8
Defpoints
 62
     0
100
AcDbPoint
 10
1494.383220116411
 20
2867.26774674451
 30
0.0
  0
POINT
  5
270F
330
1E79
100
AcDbEntity
  8
Defpoints
 62
     0
100
AcDbPoint
 10
3490.58999036817
 20
2990.387730504473
 30
0.0
  0
ENDBLK
  5
1E80
330
1E79
100
AcDbEntity
  8
0
100
AcDbBlockEnd
  0
BLOCK
  5
1E91
330
1E89
100
AcDbEntity
  8
0
100
AcDbBlockBegin
  2
*D66
 70
     1
 10
0.0
 20
0.0
 30
0.0
  3
*D66
  1

  0
LINE
  5
2710
330
1E89
100
AcDbEntity
  8
图层3
 62
     0
370
    -2
100
AcDbLine
 10
1351.520180154639
 20
3087.002418923017
 30
0.0
 11
1492.020180154639
 21
3087.002418923016
 31
0.0
  0
LINE
  5
2711
330
1E89
100
AcDbEntity
  8
图层3
 62
     0
370
    -2
100
AcDbLine
 10
1492.020180154639
 20
3087.002418923016
 30
0.0
 11
1499.711950132605
 21
3076.522119566315
 31
0.0
  0
MTEXT
  5
2712
330
1E89
100
AcDbEntity
  8
图层3
 62
     0
100
AcDbMText
 10
1419.77018015464
 20
3097.502418923016
 30
0.0
 40
13.0
 41
0.0
 71
     5
 72
     1
  1
R40 [R1 5/8]
 73
     1
 44
1.0
  0
LINE
  5
2713
330
1E89
100
AcDbEntity
  8
图层3
 62
     0
370
    -2
100
AcDbLine
 10
1531.070704658153
 20
3033.794745265917
 30
0.0
 11
1507.403720110569
 21
3066.041820209614
 31
0.0
  0
SOLID
  5
2714
330
1E89
100
AcDbEntity
  8
图层3
 62
     0
100
AcDbTrace
 10
1501.458666692054
 20
3077.804081229309
 30
0.0
 11
1497.965233573154
 21
3075.240157903321
 31
0.0
 12
1507.403720110569
 22
3066.041820209614
 32
0.0
 13
1507.403720110569
 23
3066.041820209614
 33
0.0
  0
POINT
  5
2715
330
1E89
100
AcDbEntity
  8
Defpoints
 62
     0
100
AcDbPoint
 10
1507.403720110569
 20
3066.041820209614
 30
0.0
  0
POINT
  5
2716
330
1E89
100
AcDbEntity
  8
Defpoints
 62
     0
100
AcDbPoint
 10
1531.070704658153
 20
3033.794745265917
 30
0.0
  0
ENDBLK
  5
1E92
330
1E89
100
AcDbEntity
  8
0
100
AcDbBlockEnd
  0
BLOCK
  5
1EA7
330
1E9D
100
AcDbEntity
  8
0
100
AcDbBlockBegin
  2
*D67
 70
     1
 10
0.0
 20
0.0
 30
0.0
  3
*D67
  1

  0
LINE
  5
2692
330
1E9D
100
AcDbEntity
  8
图层3
 62
     0
370
    -2
100
AcDbLine
 10
1531.070704658153
 20
3058.794745265917
 30
0.0
 11
1531.070704658153
 21
3147.80944912998
 31
0.0
  0
LINE
  5
2693
330
1E9D
100
AcDbEntity
  8
图层3
 62
     0
370
    -2
100
AcDbLine
 10
1690.589990368172
 20
3112.209690622713
 30
0.0
 11
1690.589990368172
 21
3147.80944912998
 31
0.0
  0
LINE
  5
2694
330
1E9D
100
AcDbEntity
  8
图层3
 62
     0
370
    -2
100
AcDbLine
 10
1544.070704658153
 20
3146.55944912998
 30
0.0
 11
1677.589990368171
 21
3146.55944912998
 31
0.0
  0
LINE
  5
2695
330
1E9D
100
AcDbEntity
  8
图层3
 62
     0
370
    -2
100
AcDbLine
 10
1690.589990368172
 20
3146.55944912998
 30
0.0
 11
1863.256657034838
 21
3146.55944912998
 31
0.0
  0
SOLID
  5
2696
330
1E9D
100
AcDbEntity
  8
图层3
 62
     0
100
AcDbTrace
 10
1544.070704658153
 20
3148.726115796647
 30
0.0
 11
1544.070704658153
 21
3144.392782463313
 31
0.0
 12
1531.070704658153
 22
3146.55944912998
 32
0.0
 13
1531.070704658153
 23
3146.55944912998
 33
0.0
  0
SOLID
  5
2697
330
1E9D
100
AcDbEntity
  8
图层3
 62
     0
100
AcDbTrace
 10
1677.589990368171
 20
3148.726115796647
 30
0.0
 11
1677.589990368171
 21
3144.392782463313
 31
0.0
 12
1690.589990368172
 22
3146.55944912998
 32
0.0
 13
1690.589990368172
 23
3146.55944912998
 33
0.0
  0
MTEXT
  5
2698
330
1E9D
100
AcDbEntity
  8
图层3
 62
     0
100
AcDbMText
 10
1783.423323701505
 20
3157.05944912998
 30
0.0
 40
13.0
 41
0.0
 71
     5
 72
     1
  1
159.52 [6 1/4]
 73
     1
 44
1.0
  0
POINT
  5
2699
330
1E9D
100
AcDbEntity
  8
Defpoints
 62
     0
100
AcDbPoint
 10
1531.070704658153
 20
3053.794745265918
 30
0.0
  0
POINT
  5
269A
330
1E9D
100
AcDbEntity
  8
Defpoints
 62
     0
100
AcDbPoint
 10
1690.589990368172
 20
3107.209690622713
 30
0.0
  0
POINT
  5
269B
330
1E9D
100
AcDbEntity
  8
Defpoints
 62
     0
100
AcDbPoint
 10
1690.589990368172
 20
3146.55944912998
 30
0.0
  0
ENDBLK
  5
1EA8
330
1E9D
100
AcDbEntity
  8
0
100
AcDbBlockEnd
  0
BLOCK
  5
1EBF
330
1EB5
100
AcDbEntity
  8
0
100
AcDbBlockBegin
  2
*D68
 70
     1
 10
0.0
 20
0.0
 30
0.0
  3
*D68
  1

  0
LINE
  5
269C
330
1EB5
100
AcDbEntity
  8
图层3
 62
     0
370
    -2
100
AcDbLine
 10
1550.808362649106
 20
2684.590229155955
 30
0.0
 11
1550.808362649106
 21
2610.160291443949
 31
0.0
  0
LINE
  5
269D
330
1EB5
100
AcDbEntity
  8
图层3
 62
     0
370
    -2
100
AcDbLine
 10
1690.589990368172
 20
2632.209690622713
 30
0.0
 11
1690.589990368172
 21
2610.160291443949
 31
0.0
  0
LINE
  5
269E
330
1EB5
100
AcDbEntity
  8
图层3
 62
     0
370
    -2
100
AcDbLine
 10
1563.808362649106
 20
2611.410291443948
 30
0.0
 11
1677.589990368171
 21
2611.410291443948
 31
0.0
  0
LINE
  5
269F
330
1EB5
100
AcDbEntity
  8
图层3
 62
     0
370
    -2
100
AcDbLine
 10
1690.589990368172
 20
2611.410291443948
 30
0.0
 11
1863.256657034838
 21
2611.410291443948
 31
0.0
  0
SOLID
  5
26A0
330
1EB5
100
AcDbEntity
  8
图层3
 62
     0
100
AcDbTrace
 10
1563.808362649106
 20
2613.576958110615
 30
0.0
 11
1563.808362649106
 21
2609.243624777282
 31
0.0
 12
1550.808362649106
 22
2611.410291443948
 32
0.0
 13
1550.808362649106
 23
2611.410291443948
 33
0.0
  0
SOLID
  5
26A1
330
1EB5
100
AcDbEntity
  8
图层3
 62
     0
100
AcDbTrace
 10
1677.589990368171
 20
2613.576958110615
 30
0.0
 11
1677.589990368171
 21
2609.243624777282
 31
0.0
 12
1690.589990368172
 22
2611.410291443948
 32
0.0
 13
1690.589990368172
 23
2611.410291443948
 33
0.0
  0
MTEXT
  5
26A2
330
1EB5
100
AcDbEntity
  8
图层3
 62
     0
100
AcDbMText
 10
1783.423323701505
 20
2621.910291443948
 30
0.0
 40
13.0
 41
0.0
 71
     5
 72
     1
  1
139.78 [5 1/2]
 73
     1
 44
1.0
  0
POINT
  5
26A3
330
1EB5
100
AcDbEntity
  8
Defpoints
 62
     0
100
AcDbPoint
 10
1550.808362649106
 20
2689.590229155955
 30
0.0
  0
POINT
  5
26A4
330
1EB5
100
AcDbEntity
  8
Defpoints
 62
     0
100
AcDbPoint
 10
1690.589990368172
 20
2637.209690622713
 30
0.0
  0
POINT
  5
26A5
330
1EB5
100
AcDbEntity
  8
Defpoints
 62
     0
100
AcDbPoint
 10
1690.589990368172
 20
2611.410291443948
 30
0.0
  0
ENDBLK
  5
1EC0
330
1EB5
100
AcDbEntity
  8
0
100
AcDbBlockEnd
  0
BLOCK
  5
21EB
330
21D8
100
AcDbEntity
  8
0
100
AcDbBlockBegin
  2
a
 70
     0
 10
0.0
 20
0.0
 30
0.0
  3
a
  1

  0
LINE
  5
21D9
330
21D8
100
AcDbEntity
  8
图层3
100
AcDbLine
 10
-51.58183479263425
 20
5.069342261306474
 30
0.0
 11
128.4181652073657
 21
5.069342261306474
 31
0.0
  0
LINE
  5
21DA
330
21D8
100
AcDbEntity
  8
图层3
100
AcDbLine
 10
-51.58183479263425
 20
-4.930657738693525
 30
0.0
 11
128.4181652073657
 21
-4.930657738693525
 31
0.0
  0
LINE
  5
21DB
330
21D8
100
AcDbEntity
  8
图层3
100
AcDbLine
 10
-51.58183479263425
 20
-14.93065773869352
 30
0.0
 11
128.4181652073657
 21
-14.93065773869352
 31
0.0
  0
LINE
  5
21DC
330
21D8
100
AcDbEntity
  8
图层3
100
AcDbLine
 10
-51.58183479263425
 20
-24.93065773869353
 30
0.0
 11
128.4181652073657
 21
-24.93065773869353
 31
0.0
  0
LINE
  5
21DD
330
21D8
100
AcDbEntity
  8
图层3
100
AcDbLine
 10
-51.58183479263425
 20
-34.93065773869353
 30
0.0
 11
128.4181652073657
 21
-34.93065773869353
 31
0.0
  0
LINE
  5
21DE
330
21D8
100
AcDbEntity
  8
图层3
100
AcDbLine
 10
-51.58183479263425
 20
5.069342261306474
 30
0.0
 11
-51.58183479263425
 21
-34.93065773869353
 31
0.0
  0
LINE
  5
21DF
330
21D8
100
AcDbEntity
  8
图层3
100
AcDbLine
 10
128.4181652073657
 20
5.069342261306474
 30
0.0
 11
128.4181652073657
 21
-34.93065773869353
 31
0.0
  0
LINE
  5
21E0
330
21D8
100
AcDbEntity
  8
图层3
100
AcDbLine
 10
-31.58183479263426
 20
-4.930657738693525
 30
0.0
 11
-31.58183479263426
 21
-34.93065773869353
 31
0.0
  0
LINE
  5
21E1
330
21D8
100
AcDbEntity
  8
图层3
100
AcDbLine
 10
78.41816520736575
 20
-4.930657738693469
 30
0.0
 11
78.41816520736575
 21
-24.93065773869353
 31
0.0
  0
LINE
  5
21E2
330
21D8
100
AcDbEntity
  8
图层3
100
AcDbLine
 10
58.41816520736575
 20
-4.930657738693525
 30
0.0
 11
58.41816520736575
 21
-34.93065773869353
 31
0.0
  0
LINE
  5
21E3
330
21D8
100
AcDbEntity
  8
图层3
100
AcDbLine
 10
38.41816520736586
 20
-24.93065773869364
 30
0.0
 11
38.41816520736575
 21
-34.93065773869364
 31
0.0
  0
MTEXT
  5
21E4
330
21D8
100
AcDbEntity
  8
图层3
100
AcDbMText
 10
-7.991267257440085
 20
3.638071533116089
 30
0.0
 40
5.0
 41
129.0054
 71
     1
 72
     5
  1
{\f幼圆|b0|i0|c134|p49;江门市蓬江区荷塘合和五金厂}
 73
     1
 44
1.0
  0
MTEXT
  5
21E5
330
21D8
100
AcDbEntity
  8
图层3
100
AcDbMText
 10
-48.26895764370283
 20
-6.568323419867056
 30
0.0
 40
5.0
 41
16.6364
 71
     1
 72
     5
  1
{\f幼圆|b0|i0|c134|p49;名称}
 73
     1
 44
1.0
  0
MTEXT
  5
21E6
330
21D8
100
AcDbEntity
  8
图层3
100
AcDbMText
 10
-47.9770915309241
 20
-16.19149345429582
 30
0.0
 40
5.0
 41
15.1771
 71
     1
 72
     5
  1
{\f幼圆|b0|i0|c134|p49;材料}
 73
     1
 44
1.0
  0
MTEXT
  5
21E7
330
21D8
100
AcDbEntity
  8
图层3
100
AcDbMText
 10
-48.26895764370283
 20
-26.10627442497457
 30
0.0
 40
5.0
 41
16.3446
 71
     1
 72
     5
  1
{\f幼圆|b0|i0|c134|p49;日期}
 73
     1
 44
1.0
  0
MTEXT
  5
21E8
330
21D8
100
AcDbEntity
  8
图层3
100
AcDbMText
 10
61.76502632027404
 20
-6.276710960589753
 30
0.0
 40
5.0
 41
16.3446
 71
     1
 72
     5
  1
{\f幼圆|b0|i0|c134|p49;型号}
 73
     1
 44
1.0
  0
MTEXT
  5
21E9
330
21D8
100
AcDbEntity
  8
图层3
100
AcDbMText
 10
61.76502632027404
 20
-16.19149193126873
 30
0.0
 40
5.0
 41
16.0527
 71
     1
 72
     5
  1
{\f幼圆|b0|i0|c134|p49;图号}
 73
     1
 44
1.0
  0
MTEXT
  5
21EA
330
21D8
100
AcDbEntity
  8
图层3
100
AcDbMText
 10
41.62617975974217
 20
-26.10627594800144
 30
0.0
 40
5.0
 41
16.9283
 71
     1
 72
     5
  1
{\f幼圆|b0|i0|c134|p49;编号}
 73
     1
 44
1.0
  0
ENDBLK
  5
21EC
330
21D8
100
AcDbEntity
  8
0
100
AcDbBlockEnd
  0
BLOCK
  5
279D
330
2793
100
AcDbEntity
  8
0
100
AcDbBlockBegin
  2
*D78
 70
     1
 10
0.0
 20
0.0
 30
0.0
  3
*D78
  1

  0
LINE
  5
27A0
330
2793
100
AcDbEntity
  8
图层3
 62
     0
370
    -2
100
AcDbLine
 10
2985.963007414598
 20
4526.049671287892
 30
0.0
 11
3262.542179132022
 21
4526.049671287892
 31
0.0
  0
LINE
  5
27A1
330
2793
100
AcDbEntity
  8
图层3
 62
     0
370
    -2
100
AcDbLine
 10
3110.963007414598
 20
4066.049671287893
 30
0.0
 11
3262.542179132022
 21
4066.049671287893
 31
0.0
  0
LINE
  5
27A2
330
2793
100
AcDbEntity
  8
图层3
 62
     0
370
    -2
100
AcDbLine
 10
3261.292179132023
 20
4513.049671287892
 30
0.0
 11
3261.292179132023
 21
4079.049671287893
 31
0.0
  0
SOLID
  5
27A3
330
2793
100
AcDbEntity
  8
图层3
 62
     0
100
AcDbTrace
 10
3259.125512465356
 20
4513.049671287892
 30
0.0
 11
3263.458845798689
 21
4513.049671287892
 31
0.0
 12
3261.292179132023
 22
4526.049671287892
 32
0.0
 13
3261.292179132023
 23
4526.049671287892
 33
0.0
  0
SOLID
  5
27A4
330
2793
100
AcDbEntity
  8
图层3
 62
     0
100
AcDbTrace
 10
3259.125512465356
 20
4079.049671287893
 30
0.0
 11
3263.458845798689
 21
4079.049671287893
 31
0.0
 12
3261.292179132023
 22
4066.049671287893
 32
0.0
 13
3261.292179132023
 23
4066.049671287893
 33
0.0
  0
MTEXT
  5
27A5
330
2793
100
AcDbEntity
  8
图层3
 62
     0
100
AcDbMText
 10
3250.792179132022
 20
4296.049671287894
 30
0.0
 40
13.0
 41
0.0
 71
     5
 72
     1
  1
460 [18 1/8]
 11
0.0000000000000001
 21
1.0
 31
0.0
 73
     1
 44
1.0
  0
POINT
  5
27A6
330
2793
100
AcDbEntity
  8
Defpoints
 62
     0
100
AcDbPoint
 10
2980.963007414598
 20
4526.049671287892
 30
0.0
  0
POINT
  5
27A7
330
2793
100
AcDbEntity
  8
Defpoints
 62
     0
100
AcDbPoint
 10
3105.963007414598
 20
4066.049671287893
 30
0.0
  0
POINT
  5
27A8
330
2793
100
AcDbEntity
  8
Defpoints
 62
     0
100
AcDbPoint
 10
3261.292179132023
 20
4066.049671287893
 30
0.0
  0
ENDBLK
  5
279E
330
2793
100
AcDbEntity
  8
0
100
AcDbBlockEnd
  0
BLOCK
  5
27B5
330
27AB
100
AcDbEntity
  8
0
100
AcDbBlockBegin
  2
*D79
 70
     1
 10
0.0
 20
0.0
 30
0.0
  3
*D79
  1

  0
LINE
  5
27B8
330
27AB
100
AcDbEntity
  8
图层3
 62
     0
370
    -2
100
AcDbLine
 10
2985.963007414598
 20
4536.049671287892
 30
0.0
 11
3303.240972839518
 21
4536.049671287892
 31
0.0
  0
LINE
  5
27B9
330
27AB
100
AcDbEntity
  8
图层3
 62
     0
370
    -2
100
AcDbLine
 10
3110.963007414599
 20
4056.049671287892
 30
0.0
 11
3303.240972839518
 21
4056.049671287892
 31
0.0
  0
LINE
  5
27BA
330
27AB
100
AcDbEntity
  8
图层3
 62
     0
370
    -2
100
AcDbLine
 10
3301.990972839518
 20
4523.049671287892
 30
0.0
 11
3301.990972839518
 21
4069.049671287892
 31
0.0
  0
SOLID
  5
27BB
330
27AB
100
AcDbEntity
  8
图层3
 62
     0
100
AcDbTrace
 10
3299.824306172852
 20
4523.049671287892
 30
0.0
 11
3304.157639506185
 21
4523.049671287892
 31
0.0
 12
3301.990972839518
 22
4536.049671287892
 32
0.0
 13
3301.990972839518
 23
4536.049671287892
 33
0.0
  0
SOLID
  5
27BC
330
27AB
100
AcDbEntity
  8
图层3
 62
     0
100
AcDbTrace
 10
3299.824306172852
 20
4069.049671287892
 30
0.0
 11
3304.157639506185
 21
4069.049671287892
 31
0.0
 12
3301.990972839518
 22
4056.049671287892
 32
0.0
 13
3301.990972839518
 23
4056.049671287892
 33
0.0
  0
MTEXT
  5
27BD
330
27AB
100
AcDbEntity
  8
图层3
 62
     0
100
AcDbMText
 10
3291.490972839517
 20
4296.049671287892
 30
0.0
 40
13.0
 41
0.0
 71
     5
 72
     1
  1
480 [18 7/8]
 11
0.0000000000000001
 21
1.0
 31
0.0
 73
     1
 44
1.0
  0
POINT
  5
27BE
330
27AB
100
AcDbEntity
  8
Defpoints
 62
     0
100
AcDbPoint
 10
2980.963007414598
 20
4536.049671287892
 30
0.0
  0
POINT
  5
27BF
330
27AB
100
AcDbEntity
  8
Defpoints
 62
     0
100
AcDbPoint
 10
3105.963007414599
 20
4056.049671287892
 30
0.0
  0
POINT
  5
27C0
330
27AB
100
AcDbEntity
  8
Defpoints
 62
     0
100
AcDbPoint
 10
3301.990972839518
 20
4056.049671287892
 30
0.0
  0
ENDBLK
  5
27B6
330
27AB
100
AcDbEntity
  8
0
100
AcDbBlockEnd
  0
BLOCK
  5
27CD
330
27C3
100
AcDbEntity
  8
0
100
AcDbBlockBegin
  2
*D80
 70
     1
 10
0.0
 20
0.0
 30
0.0
  3
*D80
  1

  0
LINE
  5
27D0
330
27C3
100
AcDbEntity
  8
图层3
 62
     0
370
    -2
100
AcDbLine
 10
2760.963007414599
 20
4156.049671287892
 30
0.0
 11
2760.963007414599
 21
4015.00801487776
 31
0.0
  0
LINE
  5
27D1
330
27C3
100
AcDbEntity
  8
图层3
 62
     0
370
    -2
100
AcDbLine
 10
3200.963007414599
 20
4156.049671287892
 30
0.0
 11
3200.963007414599
 21
4015.00801487776
 31
0.0
  0
LINE
  5
27D2
330
27C3
100
AcDbEntity
  8
图层3
 62
     0
370
    -2
100
AcDbLine
 10
2773.963007414599
 20
4016.25801487776
 30
0.0
 11
3187.963007414599
 21
4016.25801487776
 31
0.0
  0
SOLID
  5
27D3
330
27C3
100
AcDbEntity
  8
图层3
 62
     0
100
AcDbTrace
 10
2773.963007414599
 20
4018.424681544427
 30
0.0
 11
2773.963007414599
 21
4014.091348211094
 31
0.0
 12
2760.963007414599
 22
4016.25801487776
 32
0.0
 13
2760.963007414599
 23
4016.25801487776
 33
0.0
  0
SOLID
  5
27D4
330
27C3
100
AcDbEntity
  8
图层3
 62
     0
100
AcDbTrace
 10
3187.963007414599
 20
4018.424681544427
 30
0.0
 11
3187.963007414599
 21
4014.091348211094
 31
0.0
 12
3200.963007414599
 22
4016.25801487776
 32
0.0
 13
3200.963007414599
 23
4016.25801487776
 33
0.0
  0
MTEXT
  5
27D5
330
27C3
100
AcDbEntity
  8
图层3
 62
     0
100
AcDbMText
 10
2980.963007414599
 20
4026.75801487776
 30
0.0
 40
13.0
 41
0.0
 71
     5
 72
     1
  1
440 [17 3/8]
 73
     1
 44
1.0
  0
POINT
  5
27D6
330
27C3
100
AcDbEntity
  8
Defpoints
 62
     0
100
AcDbPoint
 10
2760.963007414599
 20
4161.049671287892
 30
0.0
  0
POINT
  5
27D7
330
27C3
100
AcDbEntity
  8
Defpoints
 62
     0
100
AcDbPoint
 10
3200.963007414599
 20
4161.049671287892
 30
0.0
  0
POINT
  5
27D8
330
27C3
100
AcDbEntity
  8
Defpoints
 62
     0
100
AcDbPoint
 10
3200.963007414599
 20
4016.25801487776
 30
0.0
  0
ENDBLK
  5
27CE
330
27C3
100
AcDbEntity
  8
0
100
AcDbBlockEnd
  0
BLOCK
  5
27E5
330
27DB
100
AcDbEntity
  8
0
100
AcDbBlockBegin
  2
*D81
 70
     1
 10
0.0
 20
0.0
 30
0.0
  3
*D81
  1

  0
LINE
  5
27E8
330
27DB
100
AcDbEntity
  8
图层3
 62
     0
370
    -2
100
AcDbLine
 10
2750.963007414599
 20
4156.049671287894
 30
0.0
 11
2750.963007414599
 21
3977.730248453675
 31
0.0
  0
LINE
  5
27E9
330
27DB
100
AcDbEntity
  8
图层3
 62
     0
370
    -2
100
AcDbLine
 10
3210.963007414598
 20
4156.049671287893
 30
0.0
 11
3210.963007414598
 21
3977.730248453675
 31
0.0
  0
LINE
  5
27EA
330
27DB
100
AcDbEntity
  8
图层3
 62
     0
370
    -2
100
AcDbLine
 10
2763.963007414599
 20
3978.980248453675
 30
0.0
 11
3197.963007414598
 21
3978.980248453675
 31
0.0
  0
SOLID
  5
27EB
330
27DB
100
AcDbEntity
  8
图层3
 62
     0
100
AcDbTrace
 10
2763.963007414599
 20
3981.146915120342
 30
0.0
 11
2763.963007414599
 21
3976.813581787008
 31
0.0
 12
2750.963007414599
 22
3978.980248453675
 32
0.0
 13
2750.963007414599
 23
3978.980248453675
 33
0.0
  0
SOLID
  5
27EC
330
27DB
100
AcDbEntity
  8
图层3
 62
     0
100
AcDbTrace
 10
3197.963007414598
 20
3981.146915120342
 30
0.0
 11
3197.963007414598
 21
3976.813581787008
 31
0.0
 12
3210.963007414598
 22
3978.980248453675
 32
0.0
 13
3210.963007414598
 23
3978.980248453675
 33
0.0
  0
MTEXT
  5
27ED
330
27DB
100
AcDbEntity
  8
图层3
 62
     0
100
AcDbMText
 10
2980.963007414599
 20
3989.480248453675
 30
0.0
 40
13.0
 41
0.0
 71
     5
 72
     1
  1
460 [18 1/8]
 73
     1
 44
1.0
  0
POINT
  5
27EE
330
27DB
100
AcDbEntity
  8
Defpoints
 62
     0
100
AcDbPoint
 10
2750.963007414599
 20
4161.049671287893
 30
0.0
  0
POINT
  5
27EF
330
27DB
100
AcDbEntity
  8
Defpoints
 62
     0
100
AcDbPoint
 10
3210.963007414598
 20
4161.049671287893
 30
0.0
  0
POINT
  5
27F0
330
27DB
100
AcDbEntity
  8
Defpoints
 62
     0
100
AcDbPoint
 10
3210.963007414598
 20
3978.980248453675
 30
0.0
  0
ENDBLK
  5
27E6
330
27DB
100
AcDbEntity
  8
0
100
AcDbBlockEnd
  0
ENDSEC
  0
SECTION
  2
ENTITIES
  0
ARC
  5
276A
330
1F
100
AcDbEntity
  8
图层2
100
AcDbCircle
 10
3045.963007414599
 20
4363.671326509145
 30
0.0
 40
165.0
100
AcDbArc
 50
0.0
 51
77.04780940412591
  0
ARC
  5
276B
102
{ACAD_REACTORS
330
27C1
102
}
330
1F
100
AcDbEntity
  8
图层2
100
AcDbCircle
 10
2980.963007414599
 20
4081.049671287892
 30
0.0
 40
455.0
100
AcDbArc
 50
77.04780940412591
 51
102.9521905958741
  0
ARC
  5
276C
330
1F
100
AcDbEntity
  8
图层2
100
AcDbCircle
 10
2915.963007414598
 20
4363.671326509145
 30
0.0
 40
165.0
100
AcDbArc
 50
102.952190595874
 51
180.0
  0
LINE
  5
276D
102
{ACAD_REACTORS
330
27F1
102
}
330
1F
100
AcDbEntity
  8
图层2
100
AcDbLine
 10
2750.963007414599
 20
4363.671326509145
 30
0.0
 11
2750.963007414599
 21
4161.049671287893
 31
0.0
  0
ARC
  5
276E
330
1F
100
AcDbEntity
  8
图层2
100
AcDbCircle
 10
2855.963007414599
 20
4161.049671287892
 30
0.0
 40
105.0
100
AcDbArc
 50
180.0
 51
270.0
  0
LINE
  5
276F
330
1F
100
AcDbEntity
  8
图层2
100
AcDbLine
 10
3105.963007414599
 20
4056.049671287893
 30
0.0
 11
2855.963007414599
 21
4056.049671287893
 31
0.0
  0
ARC
  5
2770
102
{ACAD_REACTORS
330
27C1
102
}
330
1F
100
AcDbEntity
  8
图层2
100
AcDbCircle
 10
3105.963007414599
 20
4161.049671287892
 30
0.0
 40
105.0
100
AcDbArc
 50
270.0
 51
0.0
  0
LINE
  5
2771
102
{ACAD_REACTORS
330
27F1
102
}
330
1F
100
AcDbEntity
  8
图层2
100
AcDbLine
 10
3210.963007414598
 20
4161.049671287893
 30
0.0
 11
3210.963007414598
 21
4363.671326509145
 31
0.0
  0
ARC
  5
2772
102
{ACAD_REACTORS
330
27A9
102
}
330
1F
100
AcDbEntity
  8
图层1
100
AcDbCircle
 10
2980.963007414599
 20
4081.049671287892
 30
0.0
 40
445.0
100
AcDbArc
 50
77.04780940412591
 51
102.9521905958741
  0
ARC
  5
2773
330
1F
100
AcDbEntity
  8
图层1
100
AcDbCircle
 10
3045.963007414599
 20
4363.671326509145
 30
0.0
 40
155.0
100
AcDbArc
 50
0.0
 51
77.04780940412591
  0
LINE
  5
2774
330
1F
100
AcDbEntity
  8
图层1
100
AcDbLine
 10
3200.963007414599
 20
4161.049671287893
 30
0.0
 11
3200.963007414599
 21
4363.671326509145
 31
0.0
  0
ARC
  5
2775
102
{ACAD_REACTORS
330
27A9
330
27D9
102
}
330
1F
100
AcDbEntity
  8
图层1
100
AcDbCircle
 10
3105.963007414599
 20
4161.049671287892
 30
0.0
 40
95.0
100
AcDbArc
 50
270.0
 51
0.0
  0
LINE
  5
2776
102
{ACAD_REACTORS
330
27A9
102
}
330
1F
100
AcDbEntity
  8
图层1
100
AcDbLine
 10
3105.963007414599
 20
4066.049671287893
 30
0.0
 11
2855.963007414599
 21
4066.049671287894
 31
0.0
  0
ARC
  5
2777
102
{ACAD_REACTORS
330
27D9
102
}
330
1F
100
AcDbEntity
  8
图层1
100
AcDbCircle
 10
2855.963007414599
 20
4161.049671287892
 30
0.0
 40
95.0
100
AcDbArc
 50
180.0
 51
270.0
  0
LINE
  5
2778
102
{ACAD_REACTORS
330
27D9
102
}
330
1F
100
AcDbEntity
  8
图层1
100
AcDbLine
 10
2760.963007414599
 20
4363.671326509145
 30
0.0
 11
2760.963007414599
 21
4161.049671287893
 31
0.0
  0
ARC
  5
2779
330
1F
100
AcDbEntity
  8
图层1
100
AcDbCircle
 10
2915.963007414598
 20
4363.671326509145
 30
0.0
 40
155.0
100
AcDbArc
 50
102.952190595874
 51
180.0
  0
DIMENSION
  5
2792
102
{ACAD_XDICTIONARY
360
279F
102
}
102
{ACAD_REACTORS
330
27A9
102
}
330
1F
100
AcDbEntity
  8
图层3
100
AcDbDimension
  2
*D78
 10
3261.292179132023
 20
4066.049671287893
 30
0.0
 11
3250.792179132022
 21
4296.049671287894
 31
0.0
 70
    32
 71
     5
 42
459.999999999999
  3
ISO-25
100
AcDbAlignedDimension
 13
2980.963007414598
 23
4526.049671287892
 33
0.0
 14
3105.963007414598
 24
4066.049671287893
 34
0.0
 50
90.0
100
AcDbRotatedDimension
  0
DIMENSION
  5
27AA
102
{ACAD_XDICTIONARY
360
27B7
102
}
102
{ACAD_REACTORS
330
27C1
102
}
330
1F
100
AcDbEntity
  8
图层3
100
AcDbDimension
  2
*D79
 10
3301.990972839518
 20
4056.049671287892
 30
0.0
 11
3291.490972839517
 21
4296.049671287892
 31
0.0
 70
    32
 71
     5
 42
480.0
  3
ISO-25
100
AcDbAlignedDimension
 13
2980.963007414598
 23
4536.049671287892
 33
0.0
 14
3105.963007414599
 24
4056.049671287892
 34
0.0
 50
90.0
100
AcDbRotatedDimension
  0
DIMENSION
  5
27C2
102
{ACAD_XDICTIONARY
360
27CF
102
}
102
{ACAD_REACTORS
330
27D9
102
}
330
1F
100
AcDbEntity
  8
图层3
100
AcDbDimension
  2
*D80
 10
3200.963007414599
 20
4016.25801487776
 30
0.0
 11
2980.963007414599
 21
4026.75801487776
 31
0.0
 70
    32
 71
     5
 42
439.9999999999995
  3
ISO-25
100
AcDbAlignedDimension
 13
2760.963007414599
 23
4161.049671287892
 33
0.0
 14
3200.963007414599
 24
4161.049671287892
 34
0.0
100
AcDbRotatedDimension
  0
DIMENSION
  5
27DA
102
{ACAD_XDICTIONARY
360
27E7
102
}
102
{ACAD_REACTORS
330
27F1
102
}
330
1F
100
AcDbEntity
  8
图层3
100
AcDbDimension
  2
*D81
 10
3210.963007414598
 20
3978.980248453675
 30
0.0
 11
2980.963007414599
 21
3989.480248453675
 31
0.0
 70
    32
 71
     5
 42
460.0
  3
ISO-25
100
AcDbAlignedDimension
 13
2750.963007414599
 23
4161.049671287893
 33
0.0
 14
3210.963007414598
 24
4161.049671287893
 34
0.0
100
AcDbRotatedDimension
  0
LWPOLYLINE
  5
27F4
330
1F
100
AcDbEntity
  8
图层3
100
AcDbPolyline
 90
        4
 70
     1
 43
0.0
 10
3584.904973753084
 20
3825.78806034492
 10
2381.317783794894
 20
3825.78806034492
 10
2381.317783794894
 20
4648.47923266395
 10
3584.904973753084
 20
4648.47923266395
  0
TEXT
  5
284B
330
1F
100
AcDbEntity
  8
图层1
100
AcDbText
 10
2846.580638216503
 20
3904.611095852777
 30
0.0
 40
42.76517376937772
  1
HU207014
100
AcDbText
  0
ENDSEC
  0
SECTION
  2
OBJECTS
  0
DICTIONARY
  5
C
330
0
100
AcDbDictionary
281
     1
  3
ACAD_COLOR
350
220C
  3
ACAD_GROUP
350
D
  3
ACAD_LAYOUT
350
1A
  3
ACAD_MATERIAL
350
220B
  3
ACAD_MLEADERSTYLE
350
2841
  3
ACAD_MLINESTYLE
350
17
  3
ACAD_PLOTSETTINGS
350
19
  3
ACAD_PLOTSTYLENAME
350
E
  3
ACAD_SCALELIST
350
282F
  3
ACAD_TABLESTYLE
350
220D
  3
ACAD_VISUALSTYLE
350
281B
  3
ACDB_RECOMPOSE_DATA
350
285A
  3
AcDbVariableDictionary
350
5E
  0
DICTIONARY
  5
2754
330
2
100
AcDbDictionary
280
     1
281
     1
  3
ACAD_LAYERFILTERS
360
27F7
  3
ACLYDICTIONARY
360
27F6
  0
DICTIONARY
  5
284C
330
10
100
AcDbDictionary
280
     1
281
     1
  3
ADSK_XREC_LAYER_RECONCILED
360
284D
  0
DICTIONARY
  5
284E
330
BC
100
AcDbDictionary
280
     1
281
     1
  3
ADSK_XREC_LAYER_RECONCILED
360
284F
  0
DICTIONARY
  5
2850
330
BD
100
AcDbDictionary
280
     1
281
     1
  3
ADSK_XREC_LAYER_RECONCILED
360
2851
  0
DICTIONARY
  5
2852
330
BE
100
AcDbDictionary
280
     1
281
     1
  3
ADSK_XREC_LAYER_RECONCILED
360
2853
  0
DICTIONARY
  5
2854
330
2A3
100
AcDbDictionary
280
     1
281
     1
  3
ADSK_XREC_LAYER_RECONCILED
360
2855
  0
DICTIONARY
  5
22DA
330
1F
100
AcDbDictionary
280
     1
281
     1
  3
ACAD_SORTENTS
360
22DB
  0
DICTIONARY
  5
2868
330
2589
100
AcDbDictionary
280
     1
281
     1
  3
ACAD_MTEXT_2008_RT
360
2869
  0
DICTIONARY
  5
286A
330
2592
100
AcDbDictionary
280
     1
281
     1
  3
ACAD_MTEXT_2008_RT
360
286B
  0
DICTIONARY
  5
286C
330
264B
100
AcDbDictionary
280
     1
281
     1
  3
ACAD_MTEXT_2008_RT
360
286D
  0
DICTIONARY
  5
286E
330
2654
100
AcDbDictionary
280
     1
281
     1
  3
ACAD_MTEXT_2008_RT
360
286F
  0
DICTIONARY
  5
2870
330
2672
100
AcDbDictionary
280
     1
281
     1
  3
ACAD_MTEXT_2008_RT
360
2871
  0
DICTIONARY
  5
2872
330
267B
100
AcDbDictionary
280
     1
281
     1
  3
ACAD_MTEXT_2008_RT
360
2873
  0
DICTIONARY
  5
279F
330
2792
100
AcDbDictionary
280
     1
281
     1
  3
ACAD_DIMASSOC
360
27A9
  0
DICTIONARY
  5
27B7
330
27AA
100
AcDbDictionary
280
     1
281
     1
  3
ACAD_DIMASSOC
360
27C1
  0
DICTIONARY
  5
27CF
330
27C2
100
AcDbDictionary
280
     1
281
     1
  3
ACAD_DIMASSOC
360
27D9
  0
DICTIONARY
  5
27E7
330
27DA
100
AcDbDictionary
280
     1
281
     1
  3
ACAD_DIMASSOC
360
27F1
  0
DICTIONARY
  5
220C
102
{ACAD_REACTORS
330
C
102
}
330
C
100
AcDbDictionary
281
     1
  0
DICTIONARY
  5
D
102
{ACAD_REACTORS
330
C
102
}
330
C
100
AcDbDictionary
281
     1
  0
DICTIONARY
  5
1A
102
{ACAD_REACTORS
330
C
102
}
330
C
100
AcDbDictionary
281
     1
  3
Model
350
22
  3
布局1
350
51
  3
布局2
350
56
  0
DICTIONARY
  5
220B
102
{ACAD_REACTORS
330
C
102
}
330
C
100
AcDbDictionary
281
     1
  3
ByBlock
350
280B
  3
ByLayer
350
2803
  3
Global
350
2813
  0
DICTIONARY
  5
2841
102
{ACAD_REACTORS
330
C
102
}
330
C
100
AcDbDictionary
281
     1
  3
Standard
350
2842
  0
DICTIONARY
  5
17
102
{ACAD_REACTORS
330
C
102
}
330
C
100
AcDbDictionary
281
     1
  3
Standard
350
18
  0
DICTIONARY
  5
19
102
{ACAD_REACTORS
330
C
102
}
330
C
100
AcDbDictionary
281
     1
  0
ACDBDICTIONARYWDFLT
  5
E
102
{ACAD_REACTORS
330
C
102
}
330
C
100
AcDbDictionary
281
     1
  3
Normal
350
F
100
AcDbDictionaryWithDefault
340
F
  0
DICTIONARY
  5
282F
102
{ACAD_REACTORS
330
C
102
}
330
C
100
AcDbDictionary
281
     1
  3
A0
350
2830
  3
A1
350
2831
  3
A2
350
2832
  3
A3
350
2833
  3
A4
350
2834
  3
A5
350
2835
  3
A6
350
2836
  3
A7
350
2837
  3
A8
350
2838
  3
A9
350
2839
  3
B0
350
283A
  3
B1
350
283B
  3
B2
350
283C
  3
B3
350
283D
  3
B4
350
283E
  3
B5
350
283F
  3
B6
350
2840
  0
DICTIONARY
  5
220D
102
{ACAD_REACTORS
330
C
102
}
330
C
100
AcDbDictionary
281
     1
  3
Standard
350
220E
  0
DICTIONARY
  5
281B
102
{ACAD_REACTORS
330
C
102
}
330
C
100
AcDbDictionary
281
     1
  3
2dWireframe
350
2821
  3
3D Hidden
350
2823
  3
3dWireframe
350
2822
  3
Basic
350
2820
  3
Brighten
350
2827
  3
ColorChange
350
282B
  3
Conceptual
350
2824
  3
Dim
350
2826
  3
EdgeColorOff
350
282E
  3
Facepattern
350
282A
  3
Flat
350
281C
  3
FlatWithEdges
350
281D
  3
Gouraud
350
281E
  3
GouraudWithEdges
350
281F
  3
JitterOff
350
282C
  3
Linepattern
350
2829
  3
OverhangOff
350
282D
  3
Realistic
350
2825
  3
Thicken
350
2828
  0
XRECORD
  5
285A
102
{ACAD_REACTORS
330
C
102
}
330
C
100
AcDbXrecord
280
     1
 90
        1
330
220E
  0
DICTIONARY
  5
5E
102
{ACAD_REACTORS
330
C
102
}
330
C
100
AcDbDictionary
281
     1
  3
CANNOSCALE
350
2857
  3
CMLEADERSTYLE
350
2856
  3
CTABLESTYLE
350
2215
  3
DIMASSOC
350
5F
  3
HIDETEXT
350
63
  0
DICTIONARY
  5
27F7
102
{ACAD_REACTORS
330
2754
102
}
330
2754
100
AcDbDictionary
281
     1
  0
DICTIONARY
  5
27F6
102
{ACAD_REACTORS
330
2754
102
}
330
2754
100
AcDbDictionary
281
     1
1001
ACAD
1000
<All
  0
XRECORD
  5
284D
102
{ACAD_REACTORS
330
284C
102
}
330
284C
100
AcDbXrecord
280
     1
290
     1
  0
XRECORD
  5
284F
102
{ACAD_REACTORS
330
284E
102
}
330
284E
100
AcDbXrecord
280
     1
290
     1
  0
XRECORD
  5
2851
102
{ACAD_REACTORS
330
2850
102
}
330
2850
100
AcDbXrecord
280
     1
290
     1
  0
XRECORD
  5
2853
102
{ACAD_REACTORS
330
2852
102
}
330
2852
100
AcDbXrecord
280
     1
290
     1
  0
XRECORD
  5
2855
102
{ACAD_REACTORS
330
2854
102
}
330
2854
100
AcDbXrecord
280
     1
290
     1
  0
SORTENTSTABLE
  5
22DB
102
{ACAD_REACTORS
330
22DA
102
}
330
22DA
100
AcDbSortentsTable
330
1F
331
2776
  5
1660
331
2772
  5
1652
331
276E
  5
1667
331
276A
  5
165D
331
2779
  5
164E
331
2775
  5
1666
331
2771
  5
523
331
276D
  5
636
331
2778
  5
786
331
2774
  5
547
331
2770
  5
1665
331
276C
  5
164C
331
2777
  5
1668
331
2773
  5
165E
331
276F
  5
165F
331
276B
  5
1650
  0
XRECORD
  5
2869
102
{ACAD_REACTORS
330
2868
102
}
330
2868
100
AcDbXrecord
280
     1
 40
2581.0
  1
87\U+00B0
  0
XRECORD
  5
286B
102
{ACAD_REACTORS
330
286A
102
}
330
286A
100
AcDbXrecord
280
     1
 40
2581.0
  1
87\U+00B0
  0
XRECORD
  5
286D
102
{ACAD_REACTORS
330
286C
102
}
330
286C
100
AcDbXrecord
280
     1
 40
2581.0
  1
87\U+00B0
  0
XRECORD
  5
286F
102
{ACAD_REACTORS
330
286E
102
}
330
286E
100
AcDbXrecord
280
     1
 40
2581.0
  1
87\U+00B0
  0
XRECORD
  5
2871
102
{ACAD_REACTORS
330
2870
102
}
330
2870
100
AcDbXrecord
280
     1
 40
2581.0
  1
87\U+00B0
  0
XRECORD
  5
2873
102
{ACAD_REACTORS
330
2872
102
}
330
2872
100
AcDbXrecord
280
     1
 40
2581.0
  1
87\U+00B0
  0
DIMASSOC
  5
27A9
102
{ACAD_REACTORS
330
279F
102
}
330
279F
100
AcDbDimAssoc
330
2792
 90
        3
 70
     0
 71
     0
  1
AcDbOsnapPointRef
 72
     2
331
2772
 73
     2
 91
        0
 40
1.570796326794897
 10
0.0
 20
0.0
 30
0.0
 75
     0
  1
AcDbOsnapPointRef
 72
     6
331
2776
 73
     2
 91
        0
 40
0.0000000000000018
 10
0.0
 20
0.0
 30
0.0
332
2775
 74
     2
 92
        0
 75
     0
  0
DIMASSOC
  5
27C1
102
{ACAD_REACTORS
330
27B7
102
}
330
27B7
100
AcDbDimAssoc
330
27AA
 90
        3
 70
     0
 71
     0
  1
AcDbOsnapPointRef
 72
     2
331
276B
 73
     2
 91
        0
 40
1.570796326794897
 10
0.0
 20
0.0
 30
0.0
 75
     0
  1
AcDbOsnapPointRef
 72
    13
331
2770
 73
     2
 91
        0
 40
4.712388980384689
 10
0.0
 20
0.0
 30
2.000000000000000E+50
 75
     0
  0
DIMASSOC
  5
27D9
102
{ACAD_REACTORS
330
27CF
102
}
330
27CF
100
AcDbDimAssoc
330
27C2
 90
        3
 70
     0
 71
     0
  1
AcDbOsnapPointRef
 72
     6
331
2778
 73
     2
 91
        0
 40
1.0
 10
0.0
 20
0.0
 30
0.0
332
2777
 74
     2
 92
        0
 75
     0
  1
AcDbOsnapPointRef
 72
     1
331
2775
 73
     2
 91
        0
 40
6.283185307179586
 10
0.0
 20
0.0
 30
2.000000000000000E+50
 75
     0
  0
DIMASSOC
  5
27F1
102
{ACAD_REACTORS
330
27E7
102
}
330
27E7
100
AcDbDimAssoc
330
27DA
 90
        3
 70
     0
 71
     0
  1
AcDbOsnapPointRef
 72
     1
331
276D
 73
     2
 91
        0
 40
0.9999999999999998
 10
0.0
 20
0.0
 30
2.000000000000000E+50
 75
     0
  1
AcDbOsnapPointRef
 72
    13
331
2771
 73
     2
 91
        0
 40
0.0
 10
0.0
 20
0.0
 30
2.000000000000000E+50
 75
     0
  0
LAYOUT
  5
22
102
{ACAD_REACTORS
330
1A
102
}
330
1A
100
AcDbPlotSettings
  1

  2
SHARP AR-158
  4
A4
  6

 40
5.111750125885009
 41
5.11176061630249
 42
5.111740112304687
 43
5.11175537109375
 44
210.0579986572266
 45
296.9259948730469
 46
3.629999999999999
 47
-21.36
 48
0.0
 49
0.0
140
0.0
141
0.0
142
1.0
143
6.5
 70
 11940
 72
     1
 73
     1
 74
     0
  7

 75
     0
147
0.1538461538461539
 76
     0
 77
     2
 78
   300
148
-1805.348501651959
149
-3629.449044753255
100
AcDbLayout
  1
Model
 70
     1
 71
     0
 10
0.0
 20
0.0
 11
12.0
 21
9.0
 12
0.0
 22
0.0
 32
0.0
 14
0.0
 24
0.0
 34
0.0
 15
0.0
 25
0.0
 35
0.0
146
0.0
 13
0.0
 23
0.0
 33
0.0
 16
1.0
 26
0.0
 36
0.0
 17
0.0
 27
1.0
 37
0.0
 76
     0
330
1F
331
2801
  0
LAYOUT
  5
51
102
{ACAD_REACTORS
330
1A
102
}
330
1A
100
AcDbPlotSettings
  1

  2
None
  4

  6

 40
0.0
 41
0.0
 42
0.0
 43
0.0
 44
0.0
 45
0.0
 46
0.0
 47
0.0
 48
0.0
 49
0.0
140
0.0
141
0.0
142
1.0
143
1.0
 70
   688
 72
     0
 73
     0
 74
     5
  7

 75
    16
147
1.0
 76
     0
 77
     2
 78
   300
148
0.0
149
0.0
100
AcDbLayout
  1
布局1
 70
     1
 71
     1
 10
0.0
 20
0.0
 11
12.0
 21
9.0
 12
0.0
 22
0.0
 32
0.0
 14
0.0
 24
0.0
 34
0.0
 15
0.0
 25
0.0
 35
0.0
146
0.0
 13
0.0
 23
0.0
 33
0.0
 16
1.0
 26
0.0
 36
0.0
 17
0.0
 27
1.0
 37
0.0
 76
     0
330
50
  0
LAYOUT
  5
56
102
{ACAD_REACTORS
330
1A
102
}
330
1A
100
AcDbPlotSettings
  1

  2
None
  4

  6

 40
0.0
 41
0.0
 42
0.0
 43
0.0
 44
0.0
 45
0.0
 46
0.0
 47
0.0
 48
0.0
 49
0.0
140
0.0
141
0.0
142
1.0
143
1.0
 70
   688
 72
     0
 73
     0
 74
     5
  7

 75
    16
147
1.0
 76
     0
 77
     2
 78
   300
148
0.0
149
0.0
100
AcDbLayout
  1
布局2
 70
     1
 71
     2
 10
0.0
 20
0.0
 11
12.0
 21
9.0
 12
0.0
 22
0.0
 32
0.0
 14
0.0
 24
0.0
 34
0.0
 15
0.0
 25
0.0
 35
0.0
146
0.0
 13
0.0
 23
0.0
 33
0.0
 16
1.0
 26
0.0
 36
0.0
 17
0.0
 27
1.0
 37
0.0
 76
     0
330
55
  0
MATERIAL
  5
280B
102
{ACAD_XDICTIONARY
360
280C
102
}
102
{ACAD_REACTORS
330
220B
102
}
330
220B
100
AcDbMaterial
  1
ByBlock
 72
     0
 43
0.0008202099737533
 43
0.0
 43
0.0
 43
0.0
 43
0.0
 43
0.0008202099737533
 43
0.0
 43
0.0
 43
0.0
 43
0.0
 43
1.0
 43
0.0
 43
0.0
 43
0.0
 43
0.0
 43
1.0
 77
     0
 47
0.0008202099737533
 47
0.0
 47
0.0
 47
0.0
 47
0.0
 47
0.0008202099737533
 47
0.0
 47
0.0
 47
0.0
 47
0.0
 47
1.0
 47
0.0
 47
0.0
 47
0.0
 47
0.0
 47
1.0
171
     0
 49
0.0008202099737533
 49
0.0
 49
0.0
 49
0.0
 49
0.0
 49
0.0008202099737533
 49
0.0
 49
0.0
 49
0.0
 49
0.0
 49
1.0
 49
0.0
 49
0.0
 49
0.0
 49
0.0
 49
1.0
175
     0
142
0.0008202099737533
142
0.0
142
0.0
142
0.0
142
0.0
142
0.0008202099737533
142
0.0
142
0.0
142
0.0
142
0.0
142
1.0
142
0.0
142
0.0
142
0.0
142
0.0
142
1.0
179
     0
144
0.0008202099737533
144
0.0
144
0.0
144
0.0
144
0.0
144
0.0008202099737533
144
0.0
144
0.0
144
0.0
144
0.0
144
1.0
144
0.0
144
0.0
144
0.0
144
0.0
144
1.0
147
0.0008202099737533
147
0.0
147
0.0
147
0.0
147
0.0
147
0.0008202099737533
147
0.0
147
0.0
147
0.0
147
0.0
147
1.0
147
0.0
147
0.0
147
0.0
147
0.0
147
1.0
  0
MATERIAL
  5
2803
102
{ACAD_XDICTIONARY
360
2804
102
}
102
{ACAD_REACTORS
330
220B
102
}
330
220B
100
AcDbMaterial
  1
ByLayer
 72
     0
 43
0.0008202099737533
 43
0.0
 43
0.0
 43
0.0
 43
0.0
 43
0.0008202099737533
 43
0.0
 43
0.0
 43
0.0
 43
0.0
 43
1.0
 43
0.0
 43
0.0
 43
0.0
 43
0.0
 43
1.0
 77
     0
 47
0.0008202099737533
 47
0.0
 47
0.0
 47
0.0
 47
0.0
 47
0.0008202099737533
 47
0.0
 47
0.0
 47
0.0
 47
0.0
 47
1.0
 47
0.0
 47
0.0
 47
0.0
 47
0.0
 47
1.0
171
     0
 49
0.0008202099737533
 49
0.0
 49
0.0
 49
0.0
 49
0.0
 49
0.0008202099737533
 49
0.0
 49
0.0
 49
0.0
 49
0.0
 49
1.0
 49
0.0
 49
0.0
 49
0.0
 49
0.0
 49
1.0
175
     0
142
0.0008202099737533
142
0.0
142
0.0
142
0.0
142
0.0
142
0.0008202099737533
142
0.0
142
0.0
142
0.0
142
0.0
142
1.0
142
0.0
142
0.0
142
0.0
142
0.0
142
1.0
179
     0
144
0.0008202099737533
144
0.0
144
0.0
144
0.0
144
0.0
144
0.0008202099737533
144
0.0
144
0.0
144
0.0
144
0.0
144
1.0
144
0.0
144
0.0
144
0.0
144
0.0
144
1.0
147
0.0008202099737533
147
0.0
147
0.0
147
0.0
147
0.0
147
0.0008202099737533
147
0.0
147
0.0
147
0.0
147
0.0
147
1.0
147
0.0
147
0.0
147
0.0
147
0.0
147
1.0
  0
MATERIAL
  5
2813
102
{ACAD_XDICTIONARY
360
2814
102
}
102
{ACAD_REACTORS
330
220B
102
}
330
220B
100
AcDbMaterial
  1
Global
 72
     0
 43
0.0008202099737533
 43
0.0
 43
0.0
 43
0.0
 43
0.0
 43
0.0008202099737533
 43
0.0
 43
0.0
 43
0.0
 43
0.0
 43
1.0
 43
0.0
 43
0.0
 43
0.0
 43
0.0
 43
1.0
 77
     0
 47
0.0008202099737533
 47
0.0
 47
0.0
 47
0.0
 47
0.0
 47
0.0008202099737533
 47
0.0
 47
0.0
 47
0.0
 47
0.0
 47
1.0
 47
0.0
 47
0.0
 47
0.0
 47
0.0
 47
1.0
171
     0
 49
0.0008202099737533
 49
0.0
 49
0.0
 49
0.0
 49
0.0
 49
0.0008202099737533
 49
0.0
 49
0.0
 49
0.0
 49
0.0
 49
1.0
 49
0.0
 49
0.0
 49
0.0
 49
0.0
 49
1.0
175
     0
142
0.0008202099737533
142
0.0
142
0.0
142
0.0
142
0.0
142
0.0008202099737533
142
0.0
142
0.0
142
0.0
142
0.0
142
1.0
142
0.0
142
0.0
142
0.0
142
0.0
142
1.0
179
     0
144
0.0008202099737533
144
0.0
144
0.0
144
0.0
144
0.0
144
0.0008202099737533
144
0.0
144
0.0
144
0.0
144
0.0
144
1.0
144
0.0
144
0.0
144
0.0
144
0.0
144
1.0
147
0.0008202099737533
147
0.0
147
0.0
147
0.0
147
0.0
147
0.0008202099737533
147
0.0
147
0.0
147
0.0
147
0.0
147
1.0
147
0.0
147
0.0
147
0.0
147
0.0
147
1.0
  0
MLEADERSTYLE
  5
2842
102
{ACAD_REACTORS
330
2841
102
}
330
2841
100
AcDbMLeaderStyle
170
     2
171
     1
172
     0
 90
        2
 40
0.0
 41
0.0
173
     1
 91
-1056964608
340
14
 92
       -2
290
     1
 42
2.0
291
     1
 43
0.36
  3
Standard
 44
4.0
300

342
11
174
     1
178
     6
175
     1
176
     0
 93
-1056964608
 45
4.0
292
     0
297
     0
 46
4.0
 94
-1056964608
 47
1.0
 49
1.0
140
1.0
293
     1
141
0.0
294
     1
177
     0
142
1.0
295
     0
296
     0
143
0.125
1001
ACAD_MLEADERVER
1070
     2
  0
MLINESTYLE
  5
18
102
{ACAD_REACTORS
330
17
102
}
330
17
100
AcDbMlineStyle
  2
STANDARD
 70
     0
  3

 62
   256
 51
90.0
 52
90.0
 71
     2
 49
0.5
 62
   256
  6
BYLAYER
 49
-0.5
 62
   256
  6
BYLAYER
  0
ACDBPLACEHOLDER
  5
F
102
{ACAD_REACTORS
330
E
102
}
330
E
  0
SCALE
  5
2830
102
{ACAD_REACTORS
330
282F
102
}
330
282F
100
AcDbScale
 70
     0
300
1:1
140
1.0
141
1.0
290
     1
  0
SCALE
  5
2831
102
{ACAD_REACTORS
330
282F
102
}
330
282F
100
AcDbScale
 70
     0
300
1:2
140
1.0
141
2.0
290
     0
  0
SCALE
  5
2832
102
{ACAD_REACTORS
330
282F
102
}
330
282F
100
AcDbScale
 70
     0
300
1:4
140
1.0
141
4.0
290
     0
  0
SCALE
  5
2833
102
{ACAD_REACTORS
330
282F
102
}
330
282F
100
AcDbScale
 70
     0
300
1:5
140
1.0
141
5.0
290
     0
  0
SCALE
  5
2834
102
{ACAD_REACTORS
330
282F
102
}
330
282F
100
AcDbScale
 70
     0
300
1:8
140
1.0
141
8.0
290
     0
  0
SCALE
  5
2835
102
{ACAD_REACTORS
330
282F
102
}
330
282F
100
AcDbScale
 70
     0
300
1:10
140
1.0
141
10.0
290
     0
  0
SCALE
  5
2836
102
{ACAD_REACTORS
330
282F
102
}
330
282F
100
AcDbScale
 70
     0
300
1:16
140
1.0
141
16.0
290
     0
  0
SCALE
  5
2837
102
{ACAD_REACTORS
330
282F
102
}
330
282F
100
AcDbScale
 70
     0
300
1:20
140
1.0
141
20.0
290
     0
  0
SCALE
  5
2838
102
{ACAD_REACTORS
330
282F
102
}
330
282F
100
AcDbScale
 70
     0
300
1:30
140
1.0
141
30.0
290
     0
  0
SCALE
  5
2839
102
{ACAD_REACTORS
330
282F
102
}
330
282F
100
AcDbScale
 70
     0
300
1:40
140
1.0
141
40.0
290
     0
  0
SCALE
  5
283A
102
{ACAD_REACTORS
330
282F
102
}
330
282F
100
AcDbScale
 70
     0
300
1:50
140
1.0
141
50.0
290
     0
  0
SCALE
  5
283B
102
{ACAD_REACTORS
330
282F
102
}
330
282F
100
AcDbScale
 70
     0
300
1:100
140
1.0
141
100.0
290
     0
  0
SCALE
  5
283C
102
{ACAD_REACTORS
330
282F
102
}
330
282F
100
AcDbScale
 70
     0
300
2:1
140
2.0
141
1.0
290
     0
  0
SCALE
  5
283D
102
{ACAD_REACTORS
330
282F
102
}
330
282F
100
AcDbScale
 70
     0
300
4:1
140
4.0
141
1.0
290
     0
  0
SCALE
  5
283E
102
{ACAD_REACTORS
330
282F
102
}
330
282F
100
AcDbScale
 70
     0
300
8:1
140
8.0
141
1.0
290
     0
  0
SCALE
  5
283F
102
{ACAD_REACTORS
330
282F
102
}
330
282F
100
AcDbScale
 70
     0
300
10:1
140
10.0
141
1.0
290
     0
  0
SCALE
  5
2840
102
{ACAD_REACTORS
330
282F
102
}
330
282F
100
AcDbScale
 70
     0
300
100:1
140
100.0
141
1.0
290
     0
  0
TABLESTYLE
  5
220E
102
{ACAD_XDICTIONARY
360
2858
102
}
102
{ACAD_REACTORS
330
220D
102
}
330
220D
100
AcDbTableStyle
  3
Standard
 70
     0
 71
     0
 40
1.5
 41
1.5
280
     0
281
     0
  7
Standard
140
4.5
170
     2
 62
     0
 63
     7
283
     0
274
    -2
284
     1
 64
     0
275
    -2
285
     1
 65
     0
276
    -2
286
     1
 66
     0
277
    -2
287
     1
 67
     0
278
    -2
288
     1
 68
     0
279
    -2
289
     1
 69
     0
  7
Standard
140
6.0
170
     5
 62
     0
 63
     7
283
     0
274
    -2
284
     1
 64
     0
275
    -2
285
     1
 65
     0
276
    -2
286
     1
 66
     0
277
    -2
287
     1
 67
     0
278
    -2
288
     1
 68
     0
279
    -2
289
     1
 69
     0
  7
Standard
140
4.5
170
     5
 62
     0
 63
     7
283
     0
274
    -2
284
     1
 64
     0
275
    -2
285
     1
 65
     0
276
    -2
286
     1
 66
     0
277
    -2
287
     1
 67
     0
278
    -2
288
     1
 68
     0
279
    -2
289
     1
 69
     0
  0
VISUALSTYLE
  5
2821
102
{ACAD_XDICTIONARY
360
2881
102
}
102
{ACAD_REACTORS
330
281B
102
}
330
281B
100
AcDbVisualStyle
  2
2dWireframe
 70
     4
 71
     0
 72
     2
 73
     0
 90
        0
 40
-0.6
 41
-30.0
 62
     5
 63
     7
421
 16777215
 74
     1
 91
        4
 64
     7
 65
   257
 75
     1
175
     1
 42
1.0
 92
        0
 66
   257
 43
1.0
 76
     1
 77
     6
 78
     2
 67
     7
 79
     5
170
     0
171
     0
290
     0
174
     0
 93
        1
 44
0.0
173
     0
291
     0
 45
0.0
1001
ACAD
1000
AcDbSavedByObjectVersion
1070
     0
  0
VISUALSTYLE
  5
2823
102
{ACAD_XDICTIONARY
360
2885
102
}
102
{ACAD_REACTORS
330
281B
102
}
330
281B
100
AcDbVisualStyle
  2
3D Hidden
 70
     6
 71
     1
 72
     2
 73
     2
 90
        0
 40
-0.6
 41
-30.0
 62
     5
 63
     7
421
 16777215
 74
     2
 91
        2
 64
     7
 65
   257
 75
     2
175
     1
 42
179.0
 92
        0
 66
   257
 43
1.0
 76
     1
 77
     6
 78
     2
 67
     7
 79
     3
170
     0
171
     0
290
     0
174
     0
 93
        1
 44
0.0
173
     0
291
     0
 45
0.0
1001
ACAD
1000
AcDbSavedByObjectVersion
1070
     0
  0
VISUALSTYLE
  5
2822
102
{ACAD_XDICTIONARY
360
2883
102
}
102
{ACAD_REACTORS
330
281B
102
}
330
281B
100
AcDbVisualStyle
  2
3dWireframe
 70
     5
 71
     0
 72
     2
 73
     0
 90
        0
 40
-0.6
 41
-30.0
 62
     5
 63
     7
421
 16777215
 74
     1
 91
        4
 64
     7
 65
   257
 75
     1
175
     1
 42
1.0
 92
        0
 66
   257
 43
1.0
 76
     1
 77
     6
 78
     2
 67
     7
 79
     5
170
     0
171
     0
290
     0
174
     0
 93
        1
 44
0.0
173
     0
291
     0
 45
0.0
1001
ACAD
1000
AcDbSavedByObjectVersion
1070
     0
  0
VISUALSTYLE
  5
2820
102
{ACAD_XDICTIONARY
360
287F
102
}
102
{ACAD_REACTORS
330
281B
102
}
330
281B
100
AcDbVisualStyle
  2
Basic
 70
     7
 71
     1
 72
     0
 73
     1
 90
        0
 40
-0.6
 41
-30.0
 62
     5
 63
     7
421
 16777215
 74
     0
 91
        4
 64
     7
 65
   257
 75
     1
175
     1
 42
1.0
 92
        8
 66
     7
 43
1.0
 76
     1
 77
     6
 78
     2
 67
     7
 79
     5
170
     0
171
     0
290
     0
174
     0
 93
        1
 44
0.0
173
     0
291
     1
 45
0.0
1001
ACAD
1000
AcDbSavedByObjectVersion
1070
     0
  0
VISUALSTYLE
  5
2827
102
{ACAD_XDICTIONARY
360
288D
102
}
102
{ACAD_REACTORS
330
281B
102
}
330
281B
100
AcDbVisualStyle
  2
Brighten
 70
    12
 71
     2
 72
     2
 73
     0
 90
        0
 40
-0.6
 41
-30.0
 62
     5
 63
     7
421
 16777215
 74
     1
 91
        4
 64
     7
 65
   257
 75
     1
175
     1
 42
1.0
 92
        8
 66
     7
 43
1.0
 76
     1
 77
     6
 78
     2
 67
     7
 79
     5
170
     0
171
     0
290
     0
174
     0
 93
        1
 44
50.0
173
     0
291
     1
 45
0.0
1001
ACAD
1000
AcDbSavedByObjectVersion
1070
     0
  0
VISUALSTYLE
  5
282B
102
{ACAD_XDICTIONARY
360
2895
102
}
102
{ACAD_REACTORS
330
281B
102
}
330
281B
100
AcDbVisualStyle
  2
ColorChange
 70
    16
 71
     2
 72
     2
 73
     3
 90
        0
 40
-0.6
 41
-30.0
 62
     5
 63
     8
421
  8421504
 74
     1
 91
        4
 64
     7
 65
   257
 75
     1
175
     1
 42
1.0
 92
        8
 66
     8
424
  8421504
 43
1.0
 76
     1
 77
     6
 78
     2
 67
     7
 79
     5
170
     0
171
     0
290
     0
174
     0
 93
        1
 44
0.0
173
     0
291
     1
 45
0.0
1001
ACAD
1000
AcDbSavedByObjectVersion
1070
     0
  0
VISUALSTYLE
  5
2824
102
{ACAD_XDICTIONARY
360
2887
102
}
102
{ACAD_REACTORS
330
281B
102
}
330
281B
100
AcDbVisualStyle
  2
Conceptual
 70
     9
 71
     3
 72
     2
 73
     0
 90
        0
 40
-0.6
 41
-30.0
 62
     5
 63
     7
421
 16777215
 74
     2
 91
        2
 64
     7
 65
   257
 75
     1
175
     1
 42
179.0
 92
        8
 66
     7
 43
1.0
 76
     1
 77
     6
 78
     2
 67
     7
 79
     3
170
     0
171
     0
290
     0
174
     0
 93
        1
 44
0.0
173
     0
291
     0
 45
0.0
1001
ACAD
1000
AcDbSavedByObjectVersion
1070
     0
  0
VISUALSTYLE
  5
2826
102
{ACAD_XDICTIONARY
360
288B
102
}
102
{ACAD_REACTORS
330
281B
102
}
330
281B
100
AcDbVisualStyle
  2
Dim
 70
    11
 71
     2
 72
     2
 73
     0
 90
        0
 40
-0.6
 41
-30.0
 62
     5
 63
     7
421
 16777215
 74
     1
 91
        4
 64
     7
 65
   257
 75
     1
175
     1
 42
1.0
 92
        8
 66
     7
 43
1.0
 76
     1
 77
     6
 78
     2
 67
     7
 79
     5
170
     0
171
     0
290
     0
174
     0
 93
        1
 44
-50.0
173
     0
291
     1
 45
0.0
1001
ACAD
1000
AcDbSavedByObjectVersion
1070
     0
  0
VISUALSTYLE
  5
282E
102
{ACAD_XDICTIONARY
360
289B
102
}
102
{ACAD_REACTORS
330
281B
102
}
330
281B
100
AcDbVisualStyle
  2
EdgeColorOff
 70
    22
 71
     2
 72
     2
 73
     0
 90
        0
 40
-0.6
 41
-30.0
 62
     5
 63
     7
421
 16777215
 74
     1
 91
        4
 64
     7
 65
   257
 75
     1
175
     1
 42
1.0
 92
        8
 66
     7
 43
1.0
 76
     1
 77
     6
 78
     2
 67
     7
 79
     5
170
     0
171
     0
290
     0
174
     0
 93
        1
 44
0.0
173
     0
291
     1
 45
0.0
1001
ACAD
1000
AcDbSavedByObjectVersion
1070
     0
  0
VISUALSTYLE
  5
282A
102
{ACAD_XDICTIONARY
360
2893
102
}
102
{ACAD_REACTORS
330
281B
102
}
330
281B
100
AcDbVisualStyle
  2
Facepattern
 70
    15
 71
     2
 72
     2
 73
     0
 90
        0
 40
-0.6
 41
-30.0
 62
     5
 63
     7
421
 16777215
 74
     1
 91
        4
 64
     7
 65
   257
 75
     1
175
     1
 42
1.0
 92
        8
 66
     7
 43
1.0
 76
     1
 77
     6
 78
     2
 67
     7
 79
     5
170
     0
171
     0
290
     0
174
     0
 93
        1
 44
0.0
173
     0
291
     1
 45
0.0
1001
ACAD
1000
AcDbSavedByObjectVersion
1070
     0
  0
VISUALSTYLE
  5
281C
102
{ACAD_XDICTIONARY
360
2877
102
}
102
{ACAD_REACTORS
330
281B
102
}
330
281B
100
AcDbVisualStyle
  2
Flat
 70
     0
 71
     2
 72
     1
 73
     1
 90
        2
 40
-0.6
 41
30.0
 62
     5
 63
     7
421
 16777215
 74
     0
 91
        4
 64
     7
 65
   257
 75
     1
175
     1
 42
1.0
 92
        8
 66
     7
 43
1.0
 76
     1
 77
     6
 78
     2
 67
     7
 79
     5
170
     0
171
     0
290
     0
174
     0
 93
       13
 44
0.0
173
     0
291
     1
 45
0.0
1001
ACAD
1000
AcDbSavedByObjectVersion
1070
     0
  0
VISUALSTYLE
  5
281D
102
{ACAD_XDICTIONARY
360
2879
102
}
102
{ACAD_REACTORS
330
281B
102
}
330
281B
100
AcDbVisualStyle
  2
FlatWithEdges
 70
     1
 71
     2
 72
     1
 73
     1
 90
        2
 40
-0.6
 41
30.0
 62
     5
 63
     7
421
 16777215
 74
     1
 91
        4
 64
     7
 65
   257
 75
     1
175
     1
 42
1.0
 92
        0
 66
   257
 43
1.0
 76
     1
 77
     6
 78
     2
 67
     7
 79
     5
170
     0
171
     0
290
     0
174
     0
 93
       13
 44
0.0
173
     0
291
     1
 45
0.0
1001
ACAD
1000
AcDbSavedByObjectVersion
1070
     0
  0
VISUALSTYLE
  5
281E
102
{ACAD_XDICTIONARY
360
287B
102
}
102
{ACAD_REACTORS
330
281B
102
}
330
281B
100
AcDbVisualStyle
  2
Gouraud
 70
     2
 71
     2
 72
     2
 73
     1
 90
        2
 40
-0.6
 41
30.0
 62
     5
 63
     7
421
 16777215
 74
     0
 91
        4
 64
     7
 65
   257
 75
     1
175
     1
 42
1.0
 92
        0
 66
     7
 43
1.0
 76
     1
 77
     6
 78
     2
 67
     7
 79
     5
170
     0
171
     0
290
     0
174
     0
 93
       13
 44
0.0
173
     0
291
     1
 45
0.0
1001
ACAD
1000
AcDbSavedByObjectVersion
1070
     0
  0
VISUALSTYLE
  5
281F
102
{ACAD_XDICTIONARY
360
287D
102
}
102
{ACAD_REACTORS
330
281B
102
}
330
281B
100
AcDbVisualStyle
  2
GouraudWithEdges
 70
     3
 71
     2
 72
     2
 73
     1
 90
        2
 40
-0.6
 41
30.0
 62
     5
 63
     7
421
 16777215
 74
     1
 91
        4
 64
     7
 65
   257
 75
     1
175
     1
 42
1.0
 92
        0
 66
   257
 43
1.0
 76
     1
 77
     6
 78
     2
 67
     7
 79
     5
170
     0
171
     0
290
     0
174
     0
 93
       13
 44
0.0
173
     0
291
     1
 45
0.0
1001
ACAD
1000
AcDbSavedByObjectVersion
1070
     0
  0
VISUALSTYLE
  5
282C
102
{ACAD_XDICTIONARY
360
2897
102
}
102
{ACAD_REACTORS
330
281B
102
}
330
281B
100
AcDbVisualStyle
  2
JitterOff
 70
    20
 71
     2
 72
     2
 73
     0
 90
        0
 40
-0.6
 41
-30.0
 62
     5
 63
     7
421
 16777215
 74
     1
 91
        4
 64
     7
 65
   257
 75
     1
175
     1
 42
1.0
 92
       10
 66
     7
 43
1.0
 76
     1
 77
     6
 78
     2
 67
     7
 79
     5
170
     0
171
     0
290
     0
174
     0
 93
        1
 44
0.0
173
     0
291
     1
 45
0.0
1001
ACAD
1000
AcDbSavedByObjectVersion
1070
     0
  0
VISUALSTYLE
  5
2829
102
{ACAD_XDICTIONARY
360
2891
102
}
102
{ACAD_REACTORS
330
281B
102
}
330
281B
100
AcDbVisualStyle
  2
Linepattern
 70
    14
 71
     2
 72
     2
 73
     0
 90
        0
 40
-0.6
 41
-30.0
 62
     5
 63
     7
421
 16777215
 74
     1
 91
        4
 64
     7
 65
   257
 75
     7
175
     7
 42
1.0
 92
        8
 66
     7
 43
1.0
 76
     1
 77
     6
 78
     2
 67
     7
 79
     5
170
     0
171
     0
290
     0
174
     0
 93
        1
 44
0.0
173
     0
291
     1
 45
0.0
1001
ACAD
1000
AcDbSavedByObjectVersion
1070
     0
  0
VISUALSTYLE
  5
282D
102
{ACAD_XDICTIONARY
360
2899
102
}
102
{ACAD_REACTORS
330
281B
102
}
330
281B
100
AcDbVisualStyle
  2
OverhangOff
 70
    21
 71
     2
 72
     2
 73
     0
 90
        0
 40
-0.6
 41
-30.0
 62
     5
 63
     7
421
 16777215
 74
     1
 91
        4
 64
     7
 65
   257
 75
     1
175
     1
 42
1.0
 92
        9
 66
     7
 43
1.0
 76
     1
 77
     6
 78
     2
 67
     7
 79
     5
170
     0
171
     0
290
     0
174
     0
 93
        1
 44
0.0
173
     0
291
     1
 45
0.0
1001
ACAD
1000
AcDbSavedByObjectVersion
1070
     0
  0
VISUALSTYLE
  5
2825
102
{ACAD_XDICTIONARY
360
2889
102
}
102
{ACAD_REACTORS
330
281B
102
}
330
281B
100
AcDbVisualStyle
  2
Realistic
 70
     8
 71
     2
 72
     2
 73
     0
 90
        0
 40
-0.6
 41
-30.0
 62
     5
 63
     7
421
 16777215
 74
     1
 91
        0
 64
     7
 65
   257
 75
     1
175
     1
 42
1.0
 92
        8
 66
     8
424
  7895160
 43
1.0
 76
     1
 77
     6
 78
     2
 67
     7
 79
     5
170
     0
171
     0
290
     0
174
     0
 93
       13
 44
0.0
173
     0
291
     0
 45
0.0
1001
ACAD
1000
AcDbSavedByObjectVersion
1070
     0
  0
VISUALSTYLE
  5
2828
102
{ACAD_XDICTIONARY
360
288F
102
}
102
{ACAD_REACTORS
330
281B
102
}
330
281B
100
AcDbVisualStyle
  2
Thicken
 70
    13
 71
     2
 72
     2
 73
     0
 90
        0
 40
-0.6
 41
-30.0
 62
     5
 63
     7
421
 16777215
 74
     1
 91
        4
 64
     7
 65
   257
 75
     1
175
     1
 42
1.0
 92
       12
 66
     7
 43
1.0
 76
     1
 77
     6
 78
     2
 67
     7
 79
     5
170
     0
171
     0
290
     0
174
     0
 93
        1
 44
0.0
173
     0
291
     1
 45
0.0
1001
ACAD
1000
AcDbSavedByObjectVersion
1070
     0
  0
DICTIONARYVAR
  5
2857
102
{ACAD_REACTORS
330
5E
102
}
330
5E
100
DictionaryVariables
280
     0
  1
1:1
  0
DICTIONARYVAR
  5
2856
102
{ACAD_REACTORS
330
5E
102
}
330
5E
100
DictionaryVariables
280
     0
  1
STANDARD
  0
DICTIONARYVAR
  5
2215
102
{ACAD_REACTORS
330
5E
102
}
330
5E
100
DictionaryVariables
280
     0
  1
STANDARD
  0
DICTIONARYVAR
  5
5F
102
{ACAD_REACTORS
330
5E
102
}
330
5E
100
DictionaryVariables
280
     0
  1
2
  0
DICTIONARYVAR
  5
63
102
{ACAD_REACTORS
330
5E
102
}
330
5E
100
DictionaryVariables
280
     0
  1
1
  0
DICTIONARY
  5
280C
330
280B
100
AcDbDictionary
280
     1
281
     1
  3
ACAD_XREC_ROUNDTRIP
360
2875
  3
BUMPTILE
360
280E
  3
DIFFUSETILE
360
280D
  3
OPACITYTILE
360
2811
  3
REFLECTIONTILE
360
2810
  3
REFRACTIONTILE
360
2812
  3
SPECULARTILE
360
280F
  0
DICTIONARY
  5
2804
330
2803
100
AcDbDictionary
280
     1
281
     1
  3
ACAD_XREC_ROUNDTRIP
360
2874
  3
BUMPTILE
360
2806
  3
DIFFUSETILE
360
2805
  3
OPACITYTILE
360
2809
  3
REFLECTIONTILE
360
2808
  3
REFRACTIONTILE
360
280A
  3
SPECULARTILE
360
2807
  0
DICTIONARY
  5
2814
330
2813
100
AcDbDictionary
280
     1
281
     1
  3
ACAD_XREC_ROUNDTRIP
360
2876
  3
BUMPTILE
360
2816
  3
DIFFUSETILE
360
2815
  3
OPACITYTILE
360
2819
  3
REFLECTIONTILE
360
2818
  3
REFRACTIONTILE
360
281A
  3
SPECULARTILE
360
2817
  0
DICTIONARY
  5
2858
330
220E
100
AcDbDictionary
280
     1
281
     1
  3
ACAD_ROUNDTRIP_2008_TABLESTYLE_CELLSTYLEMAP
360
2859
  3
ACAD_XREC_ROUNDTRIP
360
2863
  0
DICTIONARY
  5
2881
330
2821
100
AcDbDictionary
280
     1
281
     1
  3
ACAD_XREC_ROUNDTRIP
360
2882
  0
DICTIONARY
  5
2885
330
2823
100
AcDbDictionary
280
     1
281
     1
  3
ACAD_XREC_ROUNDTRIP
360
2886
  0
DICTIONARY
  5
2883
330
2822
100
AcDbDictionary
280
     1
281
     1
  3
ACAD_XREC_ROUNDTRIP
360
2884
  0
DICTIONARY
  5
287F
330
2820
100
AcDbDictionary
280
     1
281
     1
  3
ACAD_XREC_ROUNDTRIP
360
2880
  0
DICTIONARY
  5
288D
330
2827
100
AcDbDictionary
280
     1
281
     1
  3
ACAD_XREC_ROUNDTRIP
360
288E
  0
DICTIONARY
  5
2895
330
282B
100
AcDbDictionary
280
     1
281
     1
  3
ACAD_XREC_ROUNDTRIP
360
2896
  0
DICTIONARY
  5
2887
330
2824
100
AcDbDictionary
280
     1
281
     1
  3
ACAD_XREC_ROUNDTRIP
360
2888
  0
DICTIONARY
  5
288B
330
2826
100
AcDbDictionary
280
     1
281
     1
  3
ACAD_XREC_ROUNDTRIP
360
288C
  0
DICTIONARY
  5
289B
330
282E
100
AcDbDictionary
280
     1
281
     1
  3
ACAD_XREC_ROUNDTRIP
360
289C
  0
DICTIONARY
  5
2893
330
282A
100
AcDbDictionary
280
     1
281
     1
  3
ACAD_XREC_ROUNDTRIP
360
2894
  0
DICTIONARY
  5
2877
330
281C
100
AcDbDictionary
280
     1
281
     1
  3
ACAD_XREC_ROUNDTRIP
360
2878
  0
DICTIONARY
  5
2879
330
281D
100
AcDbDictionary
280
     1
281
     1
  3
ACAD_XREC_ROUNDTRIP
360
287A
  0
DICTIONARY
  5
287B
330
281E
100
AcDbDictionary
280
     1
281
     1
  3
ACAD_XREC_ROUNDTRIP
360
287C
  0
DICTIONARY
  5
287D
330
281F
100
AcDbDictionary
280
     1
281
     1
  3
ACAD_XREC_ROUNDTRIP
360
287E
  0
DICTIONARY
  5
2897
330
282C
100
AcDbDictionary
280
     1
281
     1
  3
ACAD_XREC_ROUNDTRIP
360
2898
  0
DICTIONARY
  5
2891
330
2829
100
AcDbDictionary
280
     1
281
     1
  3
ACAD_XREC_ROUNDTRIP
360
2892
  0
DICTIONARY
  5
2899
330
282D
100
AcDbDictionary
280
     1
281
     1
  3
ACAD_XREC_ROUNDTRIP
360
289A
  0
DICTIONARY
  5
2889
330
2825
100
AcDbDictionary
280
     1
281
     1
  3
ACAD_XREC_ROUNDTRIP
360
288A
  0
DICTIONARY
  5
288F
330
2828
100
AcDbDictionary
280
     1
281
     1
  3
ACAD_XREC_ROUNDTRIP
360
2890
  0
XRECORD
  5
2875
102
{ACAD_REACTORS
330
280C
102
}
330
280C
100
AcDbXrecord
280
     1
102
MATERIAL
148
0.0
149
0.0
149
0.0
 93
        0
 94
      127
282
     0
 72
     0
 77
     0
171
     0
175
     0
179
     0
273
     0
  0
XRECORD
  5
280E
102
{ACAD_REACTORS
330
280C
102
}
330
280C
100
AcDbXrecord
280
     1
270
     1
271
     1
  0
XRECORD
  5
280D
102
{ACAD_REACTORS
330
280C
102
}
330
280C
100
AcDbXrecord
280
     1
270
     1
271
     1
  0
XRECORD
  5
2811
102
{ACAD_REACTORS
330
280C
102
}
330
280C
100
AcDbXrecord
280
     1
270
     1
271
     1
  0
XRECORD
  5
2810
102
{ACAD_REACTORS
330
280C
102
}
330
280C
100
AcDbXrecord
280
     1
270
     1
271
     1
  0
XRECORD
  5
2812
102
{ACAD_REACTORS
330
280C
102
}
330
280C
100
AcDbXrecord
280
     1
270
     1
271
     1
  0
XRECORD
  5
280F
102
{ACAD_REACTORS
330
280C
102
}
330
280C
100
AcDbXrecord
280
     1
270
     1
271
     1
  0
XRECORD
  5
2874
102
{ACAD_REACTORS
330
2804
102
}
330
2804
100
AcDbXrecord
280
     1
102
MATERIAL
148
0.0
149
0.0
149
0.0
 93
        0
 94
      127
282
     0
 72
     0
 77
     0
171
     0
175
     0
179
     0
273
     0
  0
XRECORD
  5
2806
102
{ACAD_REACTORS
330
2804
102
}
330
2804
100
AcDbXrecord
280
     1
270
     1
271
     1
  0
XRECORD
  5
2805
102
{ACAD_REACTORS
330
2804
102
}
330
2804
100
AcDbXrecord
280
     1
270
     1
271
     1
  0
XRECORD
  5
2809
102
{ACAD_REACTORS
330
2804
102
}
330
2804
100
AcDbXrecord
280
     1
270
     1
271
     1
  0
XRECORD
  5
2808
102
{ACAD_REACTORS
330
2804
102
}
330
2804
100
AcDbXrecord
280
     1
270
     1
271
     1
  0
XRECORD
  5
280A
102
{ACAD_REACTORS
330
2804
102
}
330
2804
100
AcDbXrecord
280
     1
270
     1
271
     1
  0
XRECORD
  5
2807
102
{ACAD_REACTORS
330
2804
102
}
330
2804
100
AcDbXrecord
280
     1
270
     1
271
     1
  0
XRECORD
  5
2876
102
{ACAD_REACTORS
330
2814
102
}
330
2814
100
AcDbXrecord
280
     1
102
MATERIAL
148
0.0
149
0.0
149
0.0
 93
        0
 94
      127
282
     0
 72
     0
 77
     0
171
     0
175
     0
179
     0
273
     0
  0
XRECORD
  5
2816
102
{ACAD_REACTORS
330
2814
102
}
330
2814
100
AcDbXrecord
280
     1
270
     1
271
     1
  0
XRECORD
  5
2815
102
{ACAD_REACTORS
330
2814
102
}
330
2814
100
AcDbXrecord
280
     1
270
     1
271
     1
  0
XRECORD
  5
2819
102
{ACAD_REACTORS
330
2814
102
}
330
2814
100
AcDbXrecord
280
     1
270
     1
271
     1
  0
XRECORD
  5
2818
102
{ACAD_REACTORS
330
2814
102
}
330
2814
100
AcDbXrecord
280
     1
270
     1
271
     1
  0
XRECORD
  5
281A
102
{ACAD_REACTORS
330
2814
102
}
330
2814
100
AcDbXrecord
280
     1
270
     1
271
     1
  0
XRECORD
  5
2817
102
{ACAD_REACTORS
330
2814
102
}
330
2814
100
AcDbXrecord
280
     1
270
     1
271
     1
  0
CELLSTYLEMAP
  5
2859
102
{ACAD_REACTORS
330
2858
102
}
330
2858
100
AcDbCellStyleMap
 90
        3
300
CELLSTYLE
  1
TABLEFORMAT_BEGIN
 90
        5
170
     1
 91
        0
 92
    32768
 62
   257
 93
        1
300
CONTENTFORMAT
  1
CONTENTFORMAT_BEGIN
 90
        0
 91
        0
 92
        4
 93
        0
300

 40
0.0
140
1.0
 94
        5
 62
     0
340
11
144
6.0
309
CONTENTFORMAT_END
171
     1
301
MARGIN
  1
CELLMARGIN_BEGIN
 40
1.5
 40
1.5
 40
1.5
 40
1.5
 40
0.18
 40
0.18
309
CELLMARGIN_END
 94
        6
 95
        1
302
GRIDFORMAT
  1
GRIDFORMAT_BEGIN
 90
        0
 91
        1
 62
     0
 92
       -2
340
0
 93
        0
 40
0.045
309
GRIDFORMAT_END
 95
        2
302
GRIDFORMAT
  1
GRIDFORMAT_BEGIN
 90
        0
 91
        1
 62
     0
 92
       -2
340
0
 93
        0
 40
0.045
309
GRIDFORMAT_END
 95
        4
302
GRIDFORMAT
  1
GRIDFORMAT_BEGIN
 90
        0
 91
        1
 62
     0
 92
       -2
340
0
 93
        0
 40
0.045
309
GRIDFORMAT_END
 95
        8
302
GRIDFORMAT
  1
GRIDFORMAT_BEGIN
 90
        0
 91
        1
 62
     0
 92
       -2
340
0
 93
        0
 40
0.045
309
GRIDFORMAT_END
 95
       16
302
GRIDFORMAT
  1
GRIDFORMAT_BEGIN
 90
        0
 91
        1
 62
     0
 92
       -2
340
0
 93
        0
 40
0.045
309
GRIDFORMAT_END
 95
       32
302
GRIDFORMAT
  1
GRIDFORMAT_BEGIN
 90
        0
 91
        1
 62
     0
 92
       -2
340
0
 93
        0
 40
0.045
309
GRIDFORMAT_END
309
TABLEFORMAT_END
  1
CELLSTYLE_BEGIN
 90
        1
 91
        1
300
_TITLE
309
CELLSTYLE_END
300
CELLSTYLE
  1
TABLEFORMAT_BEGIN
 90
        5
170
     1
 91
        0
 92
        0
 62
   257
 93
        1
300
CONTENTFORMAT
  1
CONTENTFORMAT_BEGIN
 90
        0
 91
        0
 92
        4
 93
        0
300

 40
0.0
140
1.0
 94
        5
 62
     0
340
11
144
4.5
309
CONTENTFORMAT_END
171
     1
301
MARGIN
  1
CELLMARGIN_BEGIN
 40
1.5
 40
1.5
 40
1.5
 40
1.5
 40
0.18
 40
0.18
309
CELLMARGIN_END
 94
        6
 95
        1
302
GRIDFORMAT
  1
GRIDFORMAT_BEGIN
 90
        0
 91
        1
 62
     0
 92
       -2
340
0
 93
        0
 40
0.045
309
GRIDFORMAT_END
 95
        2
302
GRIDFORMAT
  1
GRIDFORMAT_BEGIN
 90
        0
 91
        1
 62
     0
 92
       -2
340
0
 93
        0
 40
0.045
309
GRIDFORMAT_END
 95
        4
302
GRIDFORMAT
  1
GRIDFORMAT_BEGIN
 90
        0
 91
        1
 62
     0
 92
       -2
340
0
 93
        0
 40
0.045
309
GRIDFORMAT_END
 95
        8
302
GRIDFORMAT
  1
GRIDFORMAT_BEGIN
 90
        0
 91
        1
 62
     0
 92
       -2
340
0
 93
        0
 40
0.045
309
GRIDFORMAT_END
 95
       16
302
GRIDFORMAT
  1
GRIDFORMAT_BEGIN
 90
        0
 91
        1
 62
     0
 92
       -2
340
0
 93
        0
 40
0.045
309
GRIDFORMAT_END
 95
       32
302
GRIDFORMAT
  1
GRIDFORMAT_BEGIN
 90
        0
 91
        1
 62
     0
 92
       -2
340
0
 93
        0
 40
0.045
309
GRIDFORMAT_END
309
TABLEFORMAT_END
  1
CELLSTYLE_BEGIN
 90
        2
 91
        1
300
_HEADER
309
CELLSTYLE_END
300
CELLSTYLE
  1
TABLEFORMAT_BEGIN
 90
        5
170
     1
 91
        0
 92
        0
 62
   257
 93
        1
300
CONTENTFORMAT
  1
CONTENTFORMAT_BEGIN
 90
        0
 91
        0
 92
        4
 93
        0
300

 40
0.0
140
1.0
 94
        2
 62
     0
340
11
144
4.5
309
CONTENTFORMAT_END
171
     1
301
MARGIN
  1
CELLMARGIN_BEGIN
 40
1.5
 40
1.5
 40
1.5
 40
1.5
 40
0.18
 40
0.18
309
CELLMARGIN_END
 94
        6
 95
        1
302
GRIDFORMAT
  1
GRIDFORMAT_BEGIN
 90
        0
 91
        1
 62
     0
 92
       -2
340
0
 93
        0
 40
0.045
309
GRIDFORMAT_END
 95
        2
302
GRIDFORMAT
  1
GRIDFORMAT_BEGIN
 90
        0
 91
        1
 62
     0
 92
       -2
340
0
 93
        0
 40
0.045
309
GRIDFORMAT_END
 95
        4
302
GRIDFORMAT
  1
GRIDFORMAT_BEGIN
 90
        0
 91
        1
 62
     0
 92
       -2
340
0
 93
        0
 40
0.045
309
GRIDFORMAT_END
 95
        8
302
GRIDFORMAT
  1
GRIDFORMAT_BEGIN
 90
        0
 91
        1
 62
     0
 92
       -2
340
0
 93
        0
 40
0.045
309
GRIDFORMAT_END
 95
       16
302
GRIDFORMAT
  1
GRIDFORMAT_BEGIN
 90
        0
 91
        1
 62
     0
 92
       -2
340
0
 93
        0
 40
0.045
309
GRIDFORMAT_END
 95
       32
302
GRIDFORMAT
  1
GRIDFORMAT_BEGIN
 90
        0
 91
        1
 62
     0
 92
       -2
340
0
 93
        0
 40
0.045
309
GRIDFORMAT_END
309
TABLEFORMAT_END
  1
CELLSTYLE_BEGIN
 90
        3
 91
        2
300
_DATA
309
CELLSTYLE_END
  0
XRECORD
  5
2863
102
{ACAD_REACTORS
330
2858
102
}
330
2858
100
AcDbXrecord
280
     1
102
ACAD_ROUNDTRIP_PRE2007_TABLESTYLE
 90
        4
 91
        0
  1

 92
        4
 93
        0
  2

 94
        4
 95
        0
  3

  0
XRECORD
  5
2882
102
{ACAD_REACTORS
330
2881
102
}
330
2881
100
AcDbXrecord
280
     1
102
RTVSPropertyOp0
 70
     1
102
RTVSPropertyOp1
 70
     1
102
RTVSPropertyOp2
 70
     1
102
RTVSPropertyOp3
 70
     1
102
RTVSPropertyOp4
 70
     1
102
RTVSPropertyOp5
 70
     1
102
RTVSPropertyOp6
 70
     1
102
RTVSPropertyOp7
 70
     1
102
RTVSPropertyOp8
 70
     1
102
RTVSPropertyOp9
 70
     1
102
RTVSPropertyOp10
 70
     1
102
RTVSPropertyOp11
 70
     1
102
RTVSPropertyOp12
 70
     1
102
RTVSPropertyOp13
 70
     1
102
RTVSPropertyOp14
 70
     1
102
RTVSPropertyOp15
 70
     1
102
RTVSPropertyOp16
 70
     1
102
RTVSPropertyOp17
 70
     1
102
RTVSPropertyOp18
 70
     1
102
RTVSPropertyOp19
 70
     1
102
RTVSPropertyOp20
 70
     1
102
RTVSPropertyOp21
 70
     1
102
RTVSPropertyOp22
 70
     1
102
RTVSPropertyOp23
 70
     1
102
RTVSPropertyOp24
 70
     1
102
RTVSPropertyOp25
 70
     1
102
RTVSPropertyOp26
 70
     1
102
RTVSPropertyOp27
 70
     1
  0
XRECORD
  5
2886
102
{ACAD_REACTORS
330
2885
102
}
330
2885
100
AcDbXrecord
280
     1
102
RTVSPropertyOp0
 70
     1
102
RTVSPropertyOp1
 70
     1
102
RTVSPropertyOp2
 70
     1
102
RTVSPropertyOp3
 70
     1
102
RTVSPropertyOp4
 70
     1
102
RTVSPropertyOp5
 70
     1
102
RTVSPropertyOp6
 70
     1
102
RTVSPropertyOp7
 70
     1
102
RTVSPropertyOp8
 70
     1
102
RTVSPropertyOp9
 70
     1
102
RTVSPropertyOp10
 70
     1
102
RTVSPropertyOp11
 70
     1
102
RTVSPropertyOp12
 70
     1
102
RTVSPropertyOp13
 70
     1
102
RTVSPropertyOp14
 70
     1
102
RTVSPropertyOp15
 70
     1
102
RTVSPropertyOp16
 70
     1
102
RTVSPropertyOp17
 70
     1
102
RTVSPropertyOp18
 70
     1
102
RTVSPropertyOp19
 70
     1
102
RTVSPropertyOp20
 70
     1
102
RTVSPropertyOp21
 70
     1
102
RTVSPropertyOp22
 70
     1
102
RTVSPropertyOp23
 70
     1
102
RTVSPropertyOp24
 70
     1
102
RTVSPropertyOp25
 70
     1
102
RTVSPropertyOp26
 70
     1
102
RTVSPropertyOp27
 70
     1
  0
XRECORD
  5
2884
102
{ACAD_REACTORS
330
2883
102
}
330
2883
100
AcDbXrecord
280
     1
102
RTVSPropertyOp0
 70
     1
102
RTVSPropertyOp1
 70
     1
102
RTVSPropertyOp2
 70
     1
102
RTVSPropertyOp3
 70
     1
102
RTVSPropertyOp4
 70
     1
102
RTVSPropertyOp5
 70
     1
102
RTVSPropertyOp6
 70
     1
102
RTVSPropertyOp7
 70
     1
102
RTVSPropertyOp8
 70
     1
102
RTVSPropertyOp9
 70
     1
102
RTVSPropertyOp10
 70
     1
102
RTVSPropertyOp11
 70
     1
102
RTVSPropertyOp12
 70
     1
102
RTVSPropertyOp13
 70
     1
102
RTVSPropertyOp14
 70
     1
102
RTVSPropertyOp15
 70
     1
102
RTVSPropertyOp16
 70
     1
102
RTVSPropertyOp17
 70
     1
102
RTVSPropertyOp18
 70
     1
102
RTVSPropertyOp19
 70
     1
102
RTVSPropertyOp20
 70
     1
102
RTVSPropertyOp21
 70
     1
102
RTVSPropertyOp22
 70
     1
102
RTVSPropertyOp23
 70
     1
102
RTVSPropertyOp24
 70
     1
102
RTVSPropertyOp25
 70
     1
102
RTVSPropertyOp26
 70
     1
102
RTVSPropertyOp27
 70
     1
  0
XRECORD
  5
2880
102
{ACAD_REACTORS
330
287F
102
}
330
287F
100
AcDbXrecord
280
     1
102
RTVSPropertyOp0
 70
     1
102
RTVSPropertyOp1
 70
     1
102
RTVSPropertyOp2
 70
     1
102
RTVSPropertyOp3
 70
     1
102
RTVSPropertyOp4
 70
     1
102
RTVSPropertyOp5
 70
     1
102
RTVSPropertyOp6
 70
     1
102
RTVSPropertyOp7
 70
     1
102
RTVSPropertyOp8
 70
     1
102
RTVSPropertyOp9
 70
     1
102
RTVSPropertyOp10
 70
     1
102
RTVSPropertyOp11
 70
     1
102
RTVSPropertyOp12
 70
     1
102
RTVSPropertyOp13
 70
     1
102
RTVSPropertyOp14
 70
     1
102
RTVSPropertyOp15
 70
     1
102
RTVSPropertyOp16
 70
     1
102
RTVSPropertyOp17
 70
     1
102
RTVSPropertyOp18
 70
     1
102
RTVSPropertyOp19
 70
     1
102
RTVSPropertyOp20
 70
     1
102
RTVSPropertyOp21
 70
     1
102
RTVSPropertyOp22
 70
     1
102
RTVSPropertyOp23
 70
     1
102
RTVSPropertyOp24
 70
     1
102
RTVSPropertyOp25
 70
     1
102
RTVSPropertyOp26
 70
     1
102
RTVSPropertyOp27
 70
     1
  0
XRECORD
  5
288E
102
{ACAD_REACTORS
330
288D
102
}
330
288D
100
AcDbXrecord
280
     1
102
RTVSPropertyOp0
 70
     1
102
RTVSPropertyOp1
 70
     1
102
RTVSPropertyOp2
 70
     1
102
RTVSPropertyOp3
 70
     1
102
RTVSPropertyOp4
 70
     1
102
RTVSPropertyOp5
 70
     1
102
RTVSPropertyOp6
 70
     1
102
RTVSPropertyOp7
 70
     1
102
RTVSPropertyOp8
 70
     1
102
RTVSPropertyOp9
 70
     1
102
RTVSPropertyOp10
 70
     1
102
RTVSPropertyOp11
 70
     1
102
RTVSPropertyOp12
 70
     1
102
RTVSPropertyOp13
 70
     1
102
RTVSPropertyOp14
 70
     1
102
RTVSPropertyOp15
 70
     1
102
RTVSPropertyOp16
 70
     1
102
RTVSPropertyOp17
 70
     1
102
RTVSPropertyOp18
 70
     1
102
RTVSPropertyOp19
 70
     1
102
RTVSPropertyOp20
 70
     1
102
RTVSPropertyOp21
 70
     1
102
RTVSPropertyOp22
 70
     1
102
RTVSPropertyOp23
 70
     1
102
RTVSPropertyOp24
 70
     1
102
RTVSPropertyOp25
 70
     1
102
RTVSPropertyOp26
 70
     1
102
RTVSPropertyOp27
 70
     1
  0
XRECORD
  5
2896
102
{ACAD_REACTORS
330
2895
102
}
330
2895
100
AcDbXrecord
280
     1
102
RTVSPropertyOp0
 70
     1
102
RTVSPropertyOp1
 70
     1
102
RTVSPropertyOp2
 70
     1
102
RTVSPropertyOp3
 70
     1
102
RTVSPropertyOp4
 70
     1
102
RTVSPropertyOp5
 70
     1
102
RTVSPropertyOp6
 70
     1
102
RTVSPropertyOp7
 70
     1
102
RTVSPropertyOp8
 70
     1
102
RTVSPropertyOp9
 70
     1
102
RTVSPropertyOp10
 70
     1
102
RTVSPropertyOp11
 70
     1
102
RTVSPropertyOp12
 70
     1
102
RTVSPropertyOp13
 70
     1
102
RTVSPropertyOp14
 70
     1
102
RTVSPropertyOp15
 70
     1
102
RTVSPropertyOp16
 70
     1
102
RTVSPropertyOp17
 70
     1
102
RTVSPropertyOp18
 70
     1
102
RTVSPropertyOp19
 70
     1
102
RTVSPropertyOp20
 70
     1
102
RTVSPropertyOp21
 70
     1
102
RTVSPropertyOp22
 70
     1
102
RTVSPropertyOp23
 70
     1
102
RTVSPropertyOp24
 70
     1
102
RTVSPropertyOp25
 70
     1
102
RTVSPropertyOp26
 70
     1
102
RTVSPropertyOp27
 70
     1
  0
XRECORD
  5
2888
102
{ACAD_REACTORS
330
2887
102
}
330
2887
100
AcDbXrecord
280
     1
102
RTVSPropertyOp0
 70
     1
102
RTVSPropertyOp1
 70
     1
102
RTVSPropertyOp2
 70
     1
102
RTVSPropertyOp3
 70
     1
102
RTVSPropertyOp4
 70
     1
102
RTVSPropertyOp5
 70
     1
102
RTVSPropertyOp6
 70
     1
102
RTVSPropertyOp7
 70
     1
102
RTVSPropertyOp8
 70
     1
102
RTVSPropertyOp9
 70
     1
102
RTVSPropertyOp10
 70
     1
102
RTVSPropertyOp11
 70
     1
102
RTVSPropertyOp12
 70
     1
102
RTVSPropertyOp13
 70
     1
102
RTVSPropertyOp14
 70
     1
102
RTVSPropertyOp15
 70
     1
102
RTVSPropertyOp16
 70
     1
102
RTVSPropertyOp17
 70
     1
102
RTVSPropertyOp18
 70
     1
102
RTVSPropertyOp19
 70
     1
102
RTVSPropertyOp20
 70
     1
102
RTVSPropertyOp21
 70
     1
102
RTVSPropertyOp22
 70
     1
102
RTVSPropertyOp23
 70
     1
102
RTVSPropertyOp24
 70
     1
102
RTVSPropertyOp25
 70
     1
102
RTVSPropertyOp26
 70
     1
102
RTVSPropertyOp27
 70
     1
  0
XRECORD
  5
288C
102
{ACAD_REACTORS
330
288B
102
}
330
288B
100
AcDbXrecord
280
     1
102
RTVSPropertyOp0
 70
     1
102
RTVSPropertyOp1
 70
     1
102
RTVSPropertyOp2
 70
     1
102
RTVSPropertyOp3
 70
     1
102
RTVSPropertyOp4
 70
     1
102
RTVSPropertyOp5
 70
     1
102
RTVSPropertyOp6
 70
     1
102
RTVSPropertyOp7
 70
     1
102
RTVSPropertyOp8
 70
     1
102
RTVSPropertyOp9
 70
     1
102
RTVSPropertyOp10
 70
     1
102
RTVSPropertyOp11
 70
     1
102
RTVSPropertyOp12
 70
     1
102
RTVSPropertyOp13
 70
     1
102
RTVSPropertyOp14
 70
     1
102
RTVSPropertyOp15
 70
     1
102
RTVSPropertyOp16
 70
     1
102
RTVSPropertyOp17
 70
     1
102
RTVSPropertyOp18
 70
     1
102
RTVSPropertyOp19
 70
     1
102
RTVSPropertyOp20
 70
     1
102
RTVSPropertyOp21
 70
     1
102
RTVSPropertyOp22
 70
     1
102
RTVSPropertyOp23
 70
     1
102
RTVSPropertyOp24
 70
     1
102
RTVSPropertyOp25
 70
     1
102
RTVSPropertyOp26
 70
     1
102
RTVSPropertyOp27
 70
     1
  0
XRECORD
  5
289C
102
{ACAD_REACTORS
330
289B
102
}
330
289B
100
AcDbXrecord
280
     1
102
RTVSPropertyOp0
 70
     0
102
RTVSPropertyOp1
 70
     0
102
RTVSPropertyOp2
 70
     0
102
RTVSPropertyOp3
 70
     0
102
RTVSPropertyOp4
 70
     0
102
RTVSPropertyOp5
 70
     0
102
RTVSPropertyOp6
 70
     0
102
RTVSPropertyOp7
 70
     0
102
RTVSPropertyOp8
 70
     0
102
RTVSPropertyOp9
 70
     0
102
RTVSPropertyOp10
 70
     0
102
RTVSPropertyOp11
 70
     0
102
RTVSPropertyOp12
 70
     0
102
RTVSPropertyOp13
 70
     0
102
RTVSPropertyOp14
 70
     2
102
RTVSPropertyOp15
 70
     0
102
RTVSPropertyOp16
 70
     0
102
RTVSPropertyOp17
 70
     0
102
RTVSPropertyOp18
 70
     0
102
RTVSPropertyOp19
 70
     0
102
RTVSPropertyOp20
 70
     0
102
RTVSPropertyOp21
 70
     0
102
RTVSPropertyOp22
 70
     0
102
RTVSPropertyOp23
 70
     0
102
RTVSPropertyOp24
 70
     0
102
RTVSPropertyOp25
 70
     0
102
RTVSPropertyOp26
 70
     0
102
RTVSPropertyOp27
 70
     0
  0
XRECORD
  5
2894
102
{ACAD_REACTORS
330
2893
102
}
330
2893
100
AcDbXrecord
280
     1
102
RTVSPropertyOp0
 70
     1
102
RTVSPropertyOp1
 70
     1
102
RTVSPropertyOp2
 70
     1
102
RTVSPropertyOp3
 70
     1
102
RTVSPropertyOp4
 70
     1
102
RTVSPropertyOp5
 70
     1
102
RTVSPropertyOp6
 70
     1
102
RTVSPropertyOp7
 70
     1
102
RTVSPropertyOp8
 70
     1
102
RTVSPropertyOp9
 70
     1
102
RTVSPropertyOp10
 70
     1
102
RTVSPropertyOp11
 70
     1
102
RTVSPropertyOp12
 70
     1
102
RTVSPropertyOp13
 70
     1
102
RTVSPropertyOp14
 70
     1
102
RTVSPropertyOp15
 70
     1
102
RTVSPropertyOp16
 70
     1
102
RTVSPropertyOp17
 70
     1
102
RTVSPropertyOp18
 70
     1
102
RTVSPropertyOp19
 70
     1
102
RTVSPropertyOp20
 70
     1
102
RTVSPropertyOp21
 70
     1
102
RTVSPropertyOp22
 70
     1
102
RTVSPropertyOp23
 70
     1
102
RTVSPropertyOp24
 70
     1
102
RTVSPropertyOp25
 70
     1
102
RTVSPropertyOp26
 70
     1
102
RTVSPropertyOp27
 70
     1
  0
XRECORD
  5
2878
102
{ACAD_REACTORS
330
2877
102
}
330
2877
100
AcDbXrecord
280
     1
102
RTVSPropertyOp0
 70
     1
102
RTVSPropertyOp1
 70
     1
102
RTVSPropertyOp2
 70
     1
102
RTVSPropertyOp3
 70
     1
102
RTVSPropertyOp4
 70
     1
102
RTVSPropertyOp5
 70
     1
102
RTVSPropertyOp6
 70
     1
102
RTVSPropertyOp7
 70
     1
102
RTVSPropertyOp8
 70
     1
102
RTVSPropertyOp9
 70
     1
102
RTVSPropertyOp10
 70
     1
102
RTVSPropertyOp11
 70
     1
102
RTVSPropertyOp12
 70
     1
102
RTVSPropertyOp13
 70
     1
102
RTVSPropertyOp14
 70
     1
102
RTVSPropertyOp15
 70
     1
102
RTVSPropertyOp16
 70
     1
102
RTVSPropertyOp17
 70
     1
102
RTVSPropertyOp18
 70
     1
102
RTVSPropertyOp19
 70
     1
102
RTVSPropertyOp20
 70
     1
102
RTVSPropertyOp21
 70
     1
102
RTVSPropertyOp22
 70
     1
102
RTVSPropertyOp23
 70
     1
102
RTVSPropertyOp24
 70
     1
102
RTVSPropertyOp25
 70
     1
102
RTVSPropertyOp26
 70
     1
102
RTVSPropertyOp27
 70
     1
  0
XRECORD
  5
287A
102
{ACAD_REACTORS
330
2879
102
}
330
2879
100
AcDbXrecord
280
     1
102
RTVSPropertyOp0
 70
     1
102
RTVSPropertyOp1
 70
     1
102
RTVSPropertyOp2
 70
     1
102
RTVSPropertyOp3
 70
     1
102
RTVSPropertyOp4
 70
     1
102
RTVSPropertyOp5
 70
     1
102
RTVSPropertyOp6
 70
     1
102
RTVSPropertyOp7
 70
     1
102
RTVSPropertyOp8
 70
     1
102
RTVSPropertyOp9
 70
     1
102
RTVSPropertyOp10
 70
     1
102
RTVSPropertyOp11
 70
     1
102
RTVSPropertyOp12
 70
     1
102
RTVSPropertyOp13
 70
     1
102
RTVSPropertyOp14
 70
     1
102
RTVSPropertyOp15
 70
     1
102
RTVSPropertyOp16
 70
     1
102
RTVSPropertyOp17
 70
     1
102
RTVSPropertyOp18
 70
     1
102
RTVSPropertyOp19
 70
     1
102
RTVSPropertyOp20
 70
     1
102
RTVSPropertyOp21
 70
     1
102
RTVSPropertyOp22
 70
     1
102
RTVSPropertyOp23
 70
     1
102
RTVSPropertyOp24
 70
     1
102
RTVSPropertyOp25
 70
     1
102
RTVSPropertyOp26
 70
     1
102
RTVSPropertyOp27
 70
     1
  0
XRECORD
  5
287C
102
{ACAD_REACTORS
330
287B
102
}
330
287B
100
AcDbXrecord
280
     1
102
RTVSPropertyOp0
 70
     1
102
RTVSPropertyOp1
 70
     1
102
RTVSPropertyOp2
 70
     1
102
RTVSPropertyOp3
 70
     1
102
RTVSPropertyOp4
 70
     1
102
RTVSPropertyOp5
 70
     1
102
RTVSPropertyOp6
 70
     1
102
RTVSPropertyOp7
 70
     1
102
RTVSPropertyOp8
 70
     1
102
RTVSPropertyOp9
 70
     1
102
RTVSPropertyOp10
 70
     1
102
RTVSPropertyOp11
 70
     1
102
RTVSPropertyOp12
 70
     1
102
RTVSPropertyOp13
 70
     1
102
RTVSPropertyOp14
 70
     1
102
RTVSPropertyOp15
 70
     1
102
RTVSPropertyOp16
 70
     1
102
RTVSPropertyOp17
 70
     1
102
RTVSPropertyOp18
 70
     1
102
RTVSPropertyOp19
 70
     1
102
RTVSPropertyOp20
 70
     1
102
RTVSPropertyOp21
 70
     1
102
RTVSPropertyOp22
 70
     1
102
RTVSPropertyOp23
 70
     1
102
RTVSPropertyOp24
 70
     1
102
RTVSPropertyOp25
 70
     1
102
RTVSPropertyOp26
 70
     1
102
RTVSPropertyOp27
 70
     1
  0
XRECORD
  5
287E
102
{ACAD_REACTORS
330
287D
102
}
330
287D
100
AcDbXrecord
280
     1
102
RTVSPropertyOp0
 70
     1
102
RTVSPropertyOp1
 70
     1
102
RTVSPropertyOp2
 70
     1
102
RTVSPropertyOp3
 70
     1
102
RTVSPropertyOp4
 70
     1
102
RTVSPropertyOp5
 70
     1
102
RTVSPropertyOp6
 70
     1
102
RTVSPropertyOp7
 70
     1
102
RTVSPropertyOp8
 70
     1
102
RTVSPropertyOp9
 70
     1
102
RTVSPropertyOp10
 70
     1
102
RTVSPropertyOp11
 70
     1
102
RTVSPropertyOp12
 70
     1
102
RTVSPropertyOp13
 70
     1
102
RTVSPropertyOp14
 70
     1
102
RTVSPropertyOp15
 70
     1
102
RTVSPropertyOp16
 70
     1
102
RTVSPropertyOp17
 70
     1
102
RTVSPropertyOp18
 70
     1
102
RTVSPropertyOp19
 70
     1
102
RTVSPropertyOp20
 70
     1
102
RTVSPropertyOp21
 70
     1
102
RTVSPropertyOp22
 70
     1
102
RTVSPropertyOp23
 70
     1
102
RTVSPropertyOp24
 70
     1
102
RTVSPropertyOp25
 70
     1
102
RTVSPropertyOp26
 70
     1
102
RTVSPropertyOp27
 70
     1
  0
XRECORD
  5
2898
102
{ACAD_REACTORS
330
2897
102
}
330
2897
100
AcDbXrecord
280
     1
102
RTVSPropertyOp0
 70
     0
102
RTVSPropertyOp1
 70
     0
102
RTVSPropertyOp2
 70
     0
102
RTVSPropertyOp3
 70
     0
102
RTVSPropertyOp4
 70
     0
102
RTVSPropertyOp5
 70
     0
102
RTVSPropertyOp6
 70
     0
102
RTVSPropertyOp7
 70
     0
102
RTVSPropertyOp8
 70
     0
102
RTVSPropertyOp9
 70
     0
102
RTVSPropertyOp10
 70
     0
102
RTVSPropertyOp11
 70
     0
102
RTVSPropertyOp12
 70
     0
102
RTVSPropertyOp13
 70
     0
102
RTVSPropertyOp14
 70
     2
102
RTVSPropertyOp15
 70
     0
102
RTVSPropertyOp16
 70
     0
102
RTVSPropertyOp17
 70
     0
102
RTVSPropertyOp18
 70
     0
102
RTVSPropertyOp19
 70
     0
102
RTVSPropertyOp20
 70
     0
102
RTVSPropertyOp21
 70
     0
102
RTVSPropertyOp22
 70
     0
102
RTVSPropertyOp23
 70
     0
102
RTVSPropertyOp24
 70
     0
102
RTVSPropertyOp25
 70
     0
102
RTVSPropertyOp26
 70
     0
102
RTVSPropertyOp27
 70
     0
  0
XRECORD
  5
2892
102
{ACAD_REACTORS
330
2891
102
}
330
2891
100
AcDbXrecord
280
     1
102
RTVSPropertyOp0
 70
     1
102
RTVSPropertyOp1
 70
     1
102
RTVSPropertyOp2
 70
     1
102
RTVSPropertyOp3
 70
     1
102
RTVSPropertyOp4
 70
     1
102
RTVSPropertyOp5
 70
     1
102
RTVSPropertyOp6
 70
     1
102
RTVSPropertyOp7
 70
     1
102
RTVSPropertyOp8
 70
     1
102
RTVSPropertyOp9
 70
     1
102
RTVSPropertyOp10
 70
     1
102
RTVSPropertyOp11
 70
     1
102
RTVSPropertyOp12
 70
     1
102
RTVSPropertyOp13
 70
     1
102
RTVSPropertyOp14
 70
     1
102
RTVSPropertyOp15
 70
     1
102
RTVSPropertyOp16
 70
     1
102
RTVSPropertyOp17
 70
     1
102
RTVSPropertyOp18
 70
     1
102
RTVSPropertyOp19
 70
     1
102
RTVSPropertyOp20
 70
     1
102
RTVSPropertyOp21
 70
     1
102
RTVSPropertyOp22
 70
     1
102
RTVSPropertyOp23
 70
     1
102
RTVSPropertyOp24
 70
     1
102
RTVSPropertyOp25
 70
     1
102
RTVSPropertyOp26
 70
     1
102
RTVSPropertyOp27
 70
     1
  0
XRECORD
  5
289A
102
{ACAD_REACTORS
330
2899
102
}
330
2899
100
AcDbXrecord
280
     1
102
RTVSPropertyOp0
 70
     0
102
RTVSPropertyOp1
 70
     0
102
RTVSPropertyOp2
 70
     0
102
RTVSPropertyOp3
 70
     0
102
RTVSPropertyOp4
 70
     0
102
RTVSPropertyOp5
 70
     0
102
RTVSPropertyOp6
 70
     0
102
RTVSPropertyOp7
 70
     0
102
RTVSPropertyOp8
 70
     0
102
RTVSPropertyOp9
 70
     0
102
RTVSPropertyOp10
 70
     0
102
RTVSPropertyOp11
 70
     0
102
RTVSPropertyOp12
 70
     0
102
RTVSPropertyOp13
 70
     0
102
RTVSPropertyOp14
 70
     2
102
RTVSPropertyOp15
 70
     0
102
RTVSPropertyOp16
 70
     0
102
RTVSPropertyOp17
 70
     0
102
RTVSPropertyOp18
 70
     0
102
RTVSPropertyOp19
 70
     0
102
RTVSPropertyOp20
 70
     0
102
RTVSPropertyOp21
 70
     0
102
RTVSPropertyOp22
 70
     0
102
RTVSPropertyOp23
 70
     0
102
RTVSPropertyOp24
 70
     0
102
RTVSPropertyOp25
 70
     0
102
RTVSPropertyOp26
 70
     0
102
RTVSPropertyOp27
 70
     0
  0
XRECORD
  5
288A
102
{ACAD_REACTORS
330
2889
102
}
330
2889
100
AcDbXrecord
280
     1
102
RTVSPropertyOp0
 70
     1
102
RTVSPropertyOp1
 70
     1
102
RTVSPropertyOp2
 70
     1
102
RTVSPropertyOp3
 70
     1
102
RTVSPropertyOp4
 70
     1
102
RTVSPropertyOp5
 70
     1
102
RTVSPropertyOp6
 70
     1
102
RTVSPropertyOp7
 70
     1
102
RTVSPropertyOp8
 70
     1
102
RTVSPropertyOp9
 70
     1
102
RTVSPropertyOp10
 70
     1
102
RTVSPropertyOp11
 70
     1
102
RTVSPropertyOp12
 70
     1
102
RTVSPropertyOp13
 70
     1
102
RTVSPropertyOp14
 70
     1
102
RTVSPropertyOp15
 70
     1
102
RTVSPropertyOp16
 70
     1
102
RTVSPropertyOp17
 70
     1
102
RTVSPropertyOp18
 70
     1
102
RTVSPropertyOp19
 70
     1
102
RTVSPropertyOp20
 70
     1
102
RTVSPropertyOp21
 70
     1
102
RTVSPropertyOp22
 70
     1
102
RTVSPropertyOp23
 70
     1
102
RTVSPropertyOp24
 70
     1
102
RTVSPropertyOp25
 70
     1
102
RTVSPropertyOp26
 70
     1
102
RTVSPropertyOp27
 70
     1
  0
XRECORD
  5
2890
102
{ACAD_REACTORS
330
288F
102
}
330
288F
100
AcDbXrecord
280
     1
102
RTVSPropertyOp0
 70
     1
102
RTVSPropertyOp1
 70
     1
102
RTVSPropertyOp2
 70
     1
102
RTVSPropertyOp3
 70
     1
102
RTVSPropertyOp4
 70
     1
102
RTVSPropertyOp5
 70
     1
102
RTVSPropertyOp6
 70
     1
102
RTVSPropertyOp7
 70
     1
102
RTVSPropertyOp8
 70
     1
102
RTVSPropertyOp9
 70
     1
102
RTVSPropertyOp10
 70
     1
102
RTVSPropertyOp11
 70
     1
102
RTVSPropertyOp12
 70
     1
102
RTVSPropertyOp13
 70
     1
102
RTVSPropertyOp14
 70
     1
102
RTVSPropertyOp15
 70
     1
102
RTVSPropertyOp16
 70
     1
102
RTVSPropertyOp17
 70
     1
102
RTVSPropertyOp18
 70
     1
102
RTVSPropertyOp19
 70
     1
102
RTVSPropertyOp20
 70
     1
102
RTVSPropertyOp21
 70
     1
102
RTVSPropertyOp22
 70
     1
102
RTVSPropertyOp23
 70
     1
102
RTVSPropertyOp24
 70
     1
102
RTVSPropertyOp25
 70
     1
102
RTVSPropertyOp26
 70
     1
102
RTVSPropertyOp27
 70
     1
  0
ENDSEC
  0
EOF
