  0
SECTION
  2
HEADER
  9
$ACADVER
  1
AC1018
  9
$ACADMAINTVER
 70
   104
  9
$DWGCODEPAGE
  3
ANSI_936
  9
$LASTSAVEDBY
  1
sibin
  9
$INSBASE
 10
0.0
 20
0.0
 30
0.0
  9
$EXTMIN
 10
453.9126484571879
 20
236.885967624582
 30
0.0
  9
$EXTMAX
 10
1626.639980804352
 20
1041.54296130018
 30
0.0
  9
$LIMMIN
 10
0.0
 20
0.0
  9
$LIMMAX
 10
420.0
 20
297.0
  9
$ORTHOMODE
 70
     0
  9
$REGENMODE
 70
     1
  9
$FILLMODE
 70
     1
  9
$QTEXTMODE
 70
     0
  9
$MIRRTEXT
 70
     0
  9
$LTSCALE
 40
1.0
  9
$ATTMODE
 70
     1
  9
$TEXTSIZE
 40
33.69409863958936
  9
$TRACEWID
 40
1.0
  9
$TEXTSTYLE
  7
Standard
  9
$CLAYER
  8
图层3
  9
$CELTYPE
  6
ByLayer
  9
$CECOLOR
 62
   256
  9
$CELTSCALE
 40
1.0
  9
$DISPSILH
 70
     0
  9
$DIMSCALE
 40
1.0
  9
$DIMASZ
 40
10.0
  9
$DIMEXO
 40
8.0
  9
$DIMDLI
 40
3.75
  9
$DIMRND
 40
0.0
  9
$DIMDLE
 40
0.0
  9
$DIMEXE
 40
1.25
  9
$DIMTP
 40
0.0
  9
$DIMTM
 40
0.0
  9
$DIMTXT
 40
11.0
  9
$DIMCEN
 40
70.0
  9
$DIMTSZ
 40
0.0
  9
$DIMTOL
 70
     0
  9
$DIMLIM
 70
     0
  9
$DIMTIH
 70
     0
  9
$DIMTOH
 70
     1
  9
$DIMSE1
 70
     0
  9
$DIMSE2
 70
     0
  9
$DIMTAD
 70
     1
  9
$DIMZIN
 70
     8
  9
$DIMBLK
  1

  9
$DIMASO
 70
     1
  9
$DIMSHO
 70
     1
  9
$DIMPOST
  1

  9
$DIMAPOST
  1

  9
$DIMALT
 70
     1
  9
$DIMALTD
 70
     3
  9
$DIMALTF
 40
0.03937007874016
  9
$DIMLFAC
 40
1.0
  9
$DIMTOFL
 70
     1
  9
$DIMTVP
 40
0.0
  9
$DIMTIX
 70
     0
  9
$DIMSOXD
 70
     0
  9
$DIMSAH
 70
     0
  9
$DIMBLK1
  1

  9
$DIMBLK2
  1

  9
$DIMSTYLE
  2
ISO-25
  9
$DIMCLRD
 70
     0
  9
$DIMCLRE
 70
     0
  9
$DIMCLRT
 70
     0
  9
$DIMTFAC
 40
1.0
  9
$DIMGAP
 40
5.0
  9
$DIMJUST
 70
     0
  9
$DIMSD1
 70
     0
  9
$DIMSD2
 70
     0
  9
$DIMTOLJ
 70
     0
  9
$DIMTZIN
 70
     8
  9
$DIMALTZ
 70
     0
  9
$DIMALTTZ
 70
     0
  9
$DIMUPT
 70
     0
  9
$DIMDEC
 70
     2
  9
$DIMTDEC
 70
     2
  9
$DIMALTU
 70
     7
  9
$DIMALTTD
 70
     3
  9
$DIMTXSTY
  7
Standard
  9
$DIMAUNIT
 70
     0
  9
$DIMADEC
 70
     0
  9
$DIMALTRND
 40
0.0
  9
$DIMAZIN
 70
     0
  9
$DIMDSEP
 70
    46
  9
$DIMATFIT
 70
     3
  9
$DIMFRAC
 70
     0
  9
$DIMLDRBLK
  1

  9
$DIMLUNIT
 70
     2
  9
$DIMLWD
 70
    -2
  9
$DIMLWE
 70
    -2
  9
$DIMTMOVE
 70
     0
  9
$LUNITS
 70
     2
  9
$LUPREC
 70
     4
  9
$SKETCHINC
 40
1.0
  9
$FILLETRAD
 40
80.0
  9
$AUNITS
 70
     0
  9
$AUPREC
 70
     0
  9
$MENU
  1
.
  9
$ELEVATION
 40
0.0
  9
$PELEVATION
 40
0.0
  9
$THICKNESS
 40
0.0
  9
$LIMCHECK
 70
     0
  9
$CHAMFERA
 40
0.0
  9
$CHAMFERB
 40
0.0
  9
$CHAMFERC
 40
0.0
  9
$CHAMFERD
 40
0.0
  9
$SKPOLY
 70
     0
  9
$TDCREATE
 40
2455254.643518518
  9
$TDUCREATE
 40
2455254.310196574
  9
$TDUPDATE
 40
2458198.661354166
  9
$TDUUPDATE
 40
2458198.328020834
  9
$TDINDWG
 40
0.3498317940
  9
$TDUSRTIMER
 40
0.3498292361
  9
$USRTIMER
 70
     1
  9
$ANGBASE
 50
0.0
  9
$ANGDIR
 70
     0
  9
$PDMODE
 70
     0
  9
$PDSIZE
 40
0.0
  9
$PLINEWID
 40
0.0
  9
$SPLFRAME
 70
     0
  9
$SPLINETYPE
 70
     6
  9
$SPLINESEGS
 70
     8
  9
$HANDSEED
  5
10A9
  9
$SURFTAB1
 70
     6
  9
$SURFTAB2
 70
     6
  9
$SURFTYPE
 70
     6
  9
$SURFU
 70
     6
  9
$SURFV
 70
     6
  9
$UCSBASE
  2

  9
$UCSNAME
  2

  9
$UCSORG
 10
0.0
 20
0.0
 30
0.0
  9
$UCSXDIR
 10
1.0
 20
0.0
 30
0.0
  9
$UCSYDIR
 10
0.0
 20
1.0
 30
0.0
  9
$UCSORTHOREF
  2

  9
$UCSORTHOVIEW
 70
     0
  9
$UCSORGTOP
 10
0.0
 20
0.0
 30
0.0
  9
$UCSORGBOTTOM
 10
0.0
 20
0.0
 30
0.0
  9
$UCSORGLEFT
 10
0.0
 20
0.0
 30
0.0
  9
$UCSORGRIGHT
 10
0.0
 20
0.0
 30
0.0
  9
$UCSORGFRONT
 10
0.0
 20
0.0
 30
0.0
  9
$UCSORGBACK
 10
0.0
 20
0.0
 30
0.0
  9
$PUCSBASE
  2

  9
$PUCSNAME
  2

  9
$PUCSORG
 10
0.0
 20
0.0
 30
0.0
  9
$PUCSXDIR
 10
1.0
 20
0.0
 30
0.0
  9
$PUCSYDIR
 10
0.0
 20
1.0
 30
0.0
  9
$PUCSORTHOREF
  2

  9
$PUCSORTHOVIEW
 70
     0
  9
$PUCSORGTOP
 10
0.0
 20
0.0
 30
0.0
  9
$PUCSORGBOTTOM
 10
0.0
 20
0.0
 30
0.0
  9
$PUCSORGLEFT
 10
0.0
 20
0.0
 30
0.0
  9
$PUCSORGRIGHT
 10
0.0
 20
0.0
 30
0.0
  9
$PUCSORGFRONT
 10
0.0
 20
0.0
 30
0.0
  9
$PUCSORGBACK
 10
0.0
 20
0.0
 30
0.0
  9
$USERI1
 70
     0
  9
$USERI2
 70
     0
  9
$USERI3
 70
     0
  9
$USERI4
 70
     0
  9
$USERI5
 70
     0
  9
$USERR1
 40
0.0
  9
$USERR2
 40
0.0
  9
$USERR3
 40
0.0
  9
$USERR4
 40
0.0
  9
$USERR5
 40
0.0
  9
$WORLDVIEW
 70
     1
  9
$SHADEDGE
 70
     3
  9
$SHADEDIF
 70
    70
  9
$TILEMODE
 70
     1
  9
$MAXACTVP
 70
    64
  9
$PINSBASE
 10
0.0
 20
0.0
 30
0.0
  9
$PLIMCHECK
 70
     0
  9
$PEXTMIN
 10
0.0
 20
0.0
 30
0.0
  9
$PEXTMAX
 10
0.0
 20
0.0
 30
0.0
  9
$PLIMMIN
 10
0.0
 20
0.0
  9
$PLIMMAX
 10
12.0
 20
9.0
  9
$UNITMODE
 70
     0
  9
$VISRETAIN
 70
     1
  9
$PLINEGEN
 70
     0
  9
$PSLTSCALE
 70
     1
  9
$TREEDEPTH
 70
  3020
  9
$CMLSTYLE
  2
Standard
  9
$CMLJUST
 70
     0
  9
$CMLSCALE
 40
20.0
  9
$PROXYGRAPHICS
 70
     1
  9
$MEASUREMENT
 70
     1
  9
$CELWEIGHT
370
    -1
  9
$ENDCAPS
280
     0
  9
$JOINSTYLE
280
     0
  9
$LWDISPLAY
290
     0
  9
$INSUNITS
 70
     4
  9
$HYPERLINKBASE
  1

  9
$STYLESHEET
  1

  9
$XEDIT
290
     1
  9
$CEPSNTYPE
380
     0
  9
$PSTYLEMODE
290
     1
  9
$FINGERPRINTGUID
  2
{B51140FA-23FA-4215-AAC0-22FCFB676836}
  9
$VERSIONGUID
  2
{F9A07282-EAA8-8F48-BDFA-46B8B11D15C1}
  9
$EXTNAMES
290
     1
  9
$PSVPSCALE
 40
0.0
  9
$OLESTARTUP
290
     0
  9
$SORTENTS
280
   127
  9
$INDEXCTL
280
     0
  9
$HIDETEXT
280
     1
  9
$XCLIPFRAME
290
     0
  9
$HALOGAP
280
     0
  9
$OBSCOLOR
 70
   257
  9
$OBSLTYPE
280
     0
  9
$INTERSECTIONDISPLAY
280
     0
  9
$INTERSECTIONCOLOR
 70
   257
  9
$DIMASSOC
280
     2
  9
$PROJECTNAME
  1

  0
ENDSEC
  0
SECTION
  2
CLASSES
  0
CLASS
  1
ACDBDICTIONARYWDFLT
  2
AcDbDictionaryWithDefault
  3
ObjectDBX Classes
 90
        0
 91
        1
280
     0
281
     0
  0
CLASS
  1
DICTIONARYVAR
  2
AcDbDictionaryVar
  3
ObjectDBX Classes
 90
        0
 91
       14
280
     0
281
     0
  0
CLASS
  1
TABLESTYLE
  2
AcDbTableStyle
  3
ObjectDBX Classes
 90
     4095
 91
        1
280
     0
281
     0
  0
CLASS
  1
SORTENTSTABLE
  2
AcDbSortentsTable
  3
ObjectDBX Classes
 90
        0
 91
        1
280
     0
281
     0
  0
CLASS
  1
DIMASSOC
  2
AcDbDimAssoc
  3
"AcDbDimAssoc|Product Desc:     AcDim ARX App For Dimension|Company:          Autodesk, Inc.|WEB Address:      www.autodesk.com"
 90
        0
 91
        9
280
     0
281
     0
  0
CLASS
  1
MATERIAL
  2
AcDbMaterial
  3
ObjectDBX Classes
 90
     1153
 91
        3
280
     0
281
     0
  0
CLASS
  1
VISUALSTYLE
  2
AcDbVisualStyle
  3
ObjectDBX Classes
 90
     4095
 91
       24
280
     0
281
     0
  0
CLASS
  1
SCALE
  2
AcDbScale
  3
ObjectDBX Classes
 90
     1153
 91
       17
280
     0
281
     0
  0
CLASS
  1
MLEADERSTYLE
  2
AcDbMLeaderStyle
  3
ACDB_MLEADERSTYLE_CLASS
 90
     4095
 91
        1
280
     0
281
     0
  0
CLASS
  1
ACDBSECTIONVIEWSTYLE
  2
AcDbSectionViewStyle
  3
ObjectDBX Classes
 90
     1025
 91
        1
280
     0
281
     0
  0
CLASS
  1
ACDBDETAILVIEWSTYLE
  2
AcDbDetailViewStyle
  3
ObjectDBX Classes
 90
     1025
 91
        1
280
     0
281
     0
  0
CLASS
  1
CELLSTYLEMAP
  2
AcDbCellStyleMap
  3
ObjectDBX Classes
 90
     1152
 91
        2
280
     0
281
     0
  0
CLASS
  1
EXACXREFPANELOBJECT
  2
ExAcXREFPanelObject
  3
EXAC_ESW
 90
     1025
 91
        1
280
     0
281
     0
  0
CLASS
  1
NPOCOLLECTION
  2
AcDbImpNonPersistentObjectsCollection
  3
ObjectDBX Classes
 90
     1153
 91
        1
280
     0
281
     0
  0
ENDSEC
  0
SECTION
  2
TABLES
  0
TABLE
  2
VPORT
  5
8
330
0
100
AcDbSymbolTable
 70
     1
  0
VPORT
  5
764
330
8
100
AcDbSymbolTableRecord
100
AcDbViewportTableRecord
  2
*Active
 70
     0
 10
0.0
 20
0.0
 11
1.0
 21
1.0
 12
991.6800820687612
 22
747.469197198859
 13
0.0
 23
0.0
 14
10.0
 24
10.0
 15
10.0
 25
10.0
 16
0.0
 26
0.0
 36
1.0
 17
0.0
 27
0.0
 37
0.0
 40
1075.526788984719
 41
2.748191027496381
 42
50.0
 43
0.0
 44
0.0
 50
0.0
 51
0.0
 71
     0
 72
  1000
 73
     1
 74
     3
 75
     0
 76
     0
 77
     0
 78
     0
281
     0
 65
     1
110
0.0
120
0.0
130
0.0
111
1.0
121
0.0
131
0.0
112
0.0
122
1.0
132
0.0
 79
     0
146
0.0
1001
ACAD_NAV_VCDISPLAY
1070
     3
  0
ENDTAB
  0
TABLE
  2
LTYPE
  5
5
330
0
100
AcDbSymbolTable
 70
     4
  0
LTYPE
  5
14
330
5
100
AcDbSymbolTableRecord
100
AcDbLinetypeTableRecord
  2
ByBlock
 70
     0
  3

 72
    65
 73
     0
 40
0.0
  0
LTYPE
  5
15
330
5
100
AcDbSymbolTableRecord
100
AcDbLinetypeTableRecord
  2
ByLayer
 70
     0
  3

 72
    65
 73
     0
 40
0.0
  0
LTYPE
  5
16
330
5
100
AcDbSymbolTableRecord
100
AcDbLinetypeTableRecord
  2
Continuous
 70
     0
  3
Solid line
 72
    65
 73
     0
 40
0.0
  0
LTYPE
  5
AAC
330
5
100
AcDbSymbolTableRecord
100
AcDbLinetypeTableRecord
  2
CENTER
 70
     0
  3
Center ____ _ ____ _ ____ _ ____ _ ____ _ ____
 72
    65
 73
     4
 40
50.8
 49
31.75
 74
     0
 49
-6.349999999999997
 74
     0
 49
6.349999999999997
 74
     0
 49
-6.349999999999997
 74
     0
  0
LTYPE
  5
BF1
330
5
100
AcDbSymbolTableRecord
100
AcDbLinetypeTableRecord
  2
DASHED2
 70
     0
  3
Dashed (.5x) _ _ _ _ _ _ _ _ _ _ _ _ _ _ _ _ _
 72
    65
 73
     2
 40
9.524999999999996
 49
6.349999999999997
 74
     0
 49
-3.174999999999998
 74
     0
  0
ENDTAB
  0
TABLE
  2
LAYER
  5
2
102
{ACAD_XDICTIONARY
360
FB
102
}
330
0
100
AcDbSymbolTable
 70
     5
  0
LAYER
  5
10
102
{ACAD_XDICTIONARY
360
9EE
102
}
330
2
100
AcDbSymbolTableRecord
100
AcDbLayerTableRecord
  2
0
 70
     0
 62
     7
  6
Continuous
370
    -3
390
F
  0
LAYER
  5
F7
102
{ACAD_XDICTIONARY
360
9F0
102
}
330
2
100
AcDbSymbolTableRecord
100
AcDbLayerTableRecord
  2
图层1
 70
     0
 62
     6
  6
Continuous
370
    18
390
F
1001
AcAecLayerStandard
1000

1000

  0
LAYER
  5
F9
102
{ACAD_XDICTIONARY
360
9F2
102
}
330
2
100
AcDbSymbolTableRecord
100
AcDbLayerTableRecord
  2
图层2
 70
     0
 62
     7
  6
Continuous
370
    30
390
F
1001
AcAecLayerStandard
1000

1000

  0
LAYER
  5
FA
102
{ACAD_XDICTIONARY
360
9F4
102
}
330
2
100
AcDbSymbolTableRecord
100
AcDbLayerTableRecord
  2
图层3
 70
     0
 62
     7
  6
Continuous
370
    18
390
F
1001
AcAecLayerStandard
1000

1000

  0
LAYER
  5
11B
330
2
100
AcDbSymbolTableRecord
100
AcDbLayerTableRecord
  2
Defpoints
 70
     0
 62
     7
  6
Continuous
290
     0
370
    -3
390
F
  0
ENDTAB
  0
TABLE
  2
STYLE
  5
3
330
0
100
AcDbSymbolTable
 70
     2
  0
STYLE
  5
11
330
3
100
AcDbSymbolTableRecord
100
AcDbTextStyleTableRecord
  2
Standard
 70
     0
 40
0.0
 41
1.0
 50
0.0
 71
     0
 42
33.69409863958936
  3
txt
  4
gbcbig.shx
  0
STYLE
  5
BF0
330
3
100
AcDbSymbolTableRecord
100
AcDbTextStyleTableRecord
  2

 70
     1
 40
0.0
 41
1.0
 50
0.0
 71
     0
 42
33.69409863958936
  3
ltypeshp.shx
  4

  0
ENDTAB
  0
TABLE
  2
VIEW
  5
6
330
0
100
AcDbSymbolTable
 70
     0
  0
ENDTAB
  0
TABLE
  2
UCS
  5
7
330
0
100
AcDbSymbolTable
 70
     0
  0
ENDTAB
  0
TABLE
  2
APPID
  5
9
330
0
100
AcDbSymbolTable
 70
    10
  0
APPID
  5
12
330
9
100
AcDbSymbolTableRecord
100
AcDbRegAppTableRecord
  2
ACAD
 70
     0
  0
APPID
  5
9E
330
9
100
AcDbSymbolTableRecord
100
AcDbRegAppTableRecord
  2
ACAD_PSEXT
 70
     0
  0
APPID
  5
F8
330
9
100
AcDbSymbolTableRecord
100
AcDbRegAppTableRecord
  2
AcAecLayerStandard
 70
     0
  0
APPID
  5
137
330
9
100
AcDbSymbolTableRecord
100
AcDbRegAppTableRecord
  2
ACAD_DSTYLE_DIMTEXT_FILL
 70
     0
  0
APPID
  5
827
330
9
100
AcDbSymbolTableRecord
100
AcDbRegAppTableRecord
  2
ACAD_NAV_VCDISPLAY
 70
     0
  0
APPID
  5
9BA
330
9
100
AcDbSymbolTableRecord
100
AcDbRegAppTableRecord
  2
ACAD_DSTYLE_DIMRADIAL_EXTENSION
 70
     0
  0
APPID
  5
9EB
330
9
100
AcDbSymbolTableRecord
100
AcDbRegAppTableRecord
  2
ACAD_EXEMPT_FROM_CAD_STANDARDS
 70
     0
  0
APPID
  5
AAD
330
9
100
AcDbSymbolTableRecord
100
AcDbRegAppTableRecord
  2
ACAD_DSTYLE_DIMJAG
 70
     0
  0
APPID
  5
AAE
330
9
100
AcDbSymbolTableRecord
100
AcDbRegAppTableRecord
  2
ACAD_DSTYLE_DIMTALN
 70
     0
  0
APPID
  5
CE0
330
9
100
AcDbSymbolTableRecord
100
AcDbRegAppTableRecord
  2
ACAD_MLEADERVER
 70
     0
  0
ENDTAB
  0
TABLE
  2
DIMSTYLE
  5
A
330
0
100
AcDbSymbolTable
 70
     1
100
AcDbDimStyleTable
 71
     1
340
27
  0
DIMSTYLE
105
27
102
{ACAD_REACTORS
330
F3B
330
F3E
330
F41
330
F44
330
F47
330
F4A
330
F4D
330
F50
330
F53
102
}
330
A
100
AcDbSymbolTableRecord
100
AcDbDimStyleTableRecord
  2
ISO-25
 70
     0
 41
10.0
 42
8.0
 43
3.75
 44
1.25
 73
     0
 77
     1
 78
     8
140
11.0
141
70.0
143
0.03937007874016
147
5.0
170
     1
171
     3
172
     1
271
     2
272
     2
273
     7
274
     3
283
     0
284
     8
340
11
  0
ENDTAB
  0
TABLE
  2
BLOCK_RECORD
  5
1
330
0
100
AcDbSymbolTable
 70
    87
  0
BLOCK_RECORD
  5
1F
102
{ACAD_XDICTIONARY
360
107
102
}
330
1
100
AcDbSymbolTableRecord
100
AcDbBlockTableRecord
  2
*Model_Space
340
22
  0
BLOCK_RECORD
  5
D2
330
1
100
AcDbSymbolTableRecord
100
AcDbBlockTableRecord
  2
*Paper_Space
340
D3
  0
BLOCK_RECORD
  5
D6
330
1
100
AcDbSymbolTableRecord
100
AcDbBlockTableRecord
  2
*Paper_Space0
340
D7
  0
BLOCK_RECORD
  5
719
330
1
100
AcDbSymbolTableRecord
100
AcDbBlockTableRecord
  2
*D1
340
0
  0
BLOCK_RECORD
  5
731
330
1
100
AcDbSymbolTableRecord
100
AcDbBlockTableRecord
  2
*D2
340
0
  0
BLOCK_RECORD
  5
749
330
1
100
AcDbSymbolTableRecord
100
AcDbBlockTableRecord
  2
*D3
340
0
  0
BLOCK_RECORD
  5
7B5
330
1
100
AcDbSymbolTableRecord
100
AcDbBlockTableRecord
  2
*D4
340
0
  0
BLOCK_RECORD
  5
7BE
330
1
100
AcDbSymbolTableRecord
100
AcDbBlockTableRecord
  2
*D5
340
0
  0
BLOCK_RECORD
  5
7CA
330
1
100
AcDbSymbolTableRecord
100
AcDbBlockTableRecord
  2
*D6
340
0
  0
BLOCK_RECORD
  5
7D6
330
1
100
AcDbSymbolTableRecord
100
AcDbBlockTableRecord
  2
*D7
340
0
  0
BLOCK_RECORD
  5
7E2
330
1
100
AcDbSymbolTableRecord
100
AcDbBlockTableRecord
  2
*D8
340
0
  0
BLOCK_RECORD
  5
7EE
330
1
100
AcDbSymbolTableRecord
100
AcDbBlockTableRecord
  2
*D9
340
0
  0
BLOCK_RECORD
  5
7FA
330
1
100
AcDbSymbolTableRecord
100
AcDbBlockTableRecord
  2
*D10
340
0
  0
BLOCK_RECORD
  5
806
330
1
100
AcDbSymbolTableRecord
100
AcDbBlockTableRecord
  2
*D11
340
0
  0
BLOCK_RECORD
  5
812
330
1
100
AcDbSymbolTableRecord
100
AcDbBlockTableRecord
  2
*D12
340
0
  0
BLOCK_RECORD
  5
81E
330
1
100
AcDbSymbolTableRecord
100
AcDbBlockTableRecord
  2
*D13
340
0
  0
BLOCK_RECORD
  5
8AC
330
1
100
AcDbSymbolTableRecord
100
AcDbBlockTableRecord
  2
*D14
340
0
  0
BLOCK_RECORD
  5
8B5
330
1
100
AcDbSymbolTableRecord
100
AcDbBlockTableRecord
  2
*D15
340
0
  0
BLOCK_RECORD
  5
8C1
330
1
100
AcDbSymbolTableRecord
100
AcDbBlockTableRecord
  2
*D16
340
0
  0
BLOCK_RECORD
  5
8CD
330
1
100
AcDbSymbolTableRecord
100
AcDbBlockTableRecord
  2
*D17
340
0
  0
BLOCK_RECORD
  5
8D9
330
1
100
AcDbSymbolTableRecord
100
AcDbBlockTableRecord
  2
*D18
340
0
  0
BLOCK_RECORD
  5
8E5
330
1
100
AcDbSymbolTableRecord
100
AcDbBlockTableRecord
  2
*D19
340
0
  0
BLOCK_RECORD
  5
8F1
330
1
100
AcDbSymbolTableRecord
100
AcDbBlockTableRecord
  2
*D20
340
0
  0
BLOCK_RECORD
  5
8FD
330
1
100
AcDbSymbolTableRecord
100
AcDbBlockTableRecord
  2
*D21
340
0
  0
BLOCK_RECORD
  5
909
330
1
100
AcDbSymbolTableRecord
100
AcDbBlockTableRecord
  2
*D22
340
0
  0
BLOCK_RECORD
  5
915
330
1
100
AcDbSymbolTableRecord
100
AcDbBlockTableRecord
  2
*D23
340
0
  0
BLOCK_RECORD
  5
98B
330
1
100
AcDbSymbolTableRecord
100
AcDbBlockTableRecord
  2
*D24
340
0
  0
BLOCK_RECORD
  5
9A3
330
1
100
AcDbSymbolTableRecord
100
AcDbBlockTableRecord
  2
*D25
340
0
  0
BLOCK_RECORD
  5
9BC
330
1
100
AcDbSymbolTableRecord
100
AcDbBlockTableRecord
  2
*D26
340
0
  0
BLOCK_RECORD
  5
9CC
330
1
100
AcDbSymbolTableRecord
100
AcDbBlockTableRecord
  2
*D27
340
0
  0
BLOCK_RECORD
  5
9DC
330
1
100
AcDbSymbolTableRecord
100
AcDbBlockTableRecord
  2
*D28
340
0
  0
BLOCK_RECORD
  5
A38
330
1
100
AcDbSymbolTableRecord
100
AcDbBlockTableRecord
  2
*D29
340
0
  0
BLOCK_RECORD
  5
A44
330
1
100
AcDbSymbolTableRecord
100
AcDbBlockTableRecord
  2
*D30
340
0
  0
BLOCK_RECORD
  5
A50
330
1
100
AcDbSymbolTableRecord
100
AcDbBlockTableRecord
  2
*D31
340
0
  0
BLOCK_RECORD
  5
A5C
330
1
100
AcDbSymbolTableRecord
100
AcDbBlockTableRecord
  2
*D32
340
0
  0
BLOCK_RECORD
  5
A68
330
1
100
AcDbSymbolTableRecord
100
AcDbBlockTableRecord
  2
*D33
340
0
  0
BLOCK_RECORD
  5
A74
330
1
100
AcDbSymbolTableRecord
100
AcDbBlockTableRecord
  2
*D34
340
0
  0
BLOCK_RECORD
  5
A7C
330
1
100
AcDbSymbolTableRecord
100
AcDbBlockTableRecord
  2
*D35
340
0
  0
BLOCK_RECORD
  5
A84
330
1
100
AcDbSymbolTableRecord
100
AcDbBlockTableRecord
  2
*D36
340
0
  0
BLOCK_RECORD
  5
A8C
330
1
100
AcDbSymbolTableRecord
100
AcDbBlockTableRecord
  2
*D37
340
0
  0
BLOCK_RECORD
  5
A94
330
1
100
AcDbSymbolTableRecord
100
AcDbBlockTableRecord
  2
*D38
340
0
  0
BLOCK_RECORD
  5
AA0
330
1
100
AcDbSymbolTableRecord
100
AcDbBlockTableRecord
  2
*D39
340
0
  0
BLOCK_RECORD
  5
B43
330
1
100
AcDbSymbolTableRecord
100
AcDbBlockTableRecord
  2
*D40
340
0
  0
BLOCK_RECORD
  5
B4F
330
1
100
AcDbSymbolTableRecord
100
AcDbBlockTableRecord
  2
*D41
340
0
  0
BLOCK_RECORD
  5
B5B
330
1
100
AcDbSymbolTableRecord
100
AcDbBlockTableRecord
  2
*D42
340
0
  0
BLOCK_RECORD
  5
B67
330
1
100
AcDbSymbolTableRecord
100
AcDbBlockTableRecord
  2
*D43
340
0
  0
BLOCK_RECORD
  5
B73
330
1
100
AcDbSymbolTableRecord
100
AcDbBlockTableRecord
  2
*D44
340
0
  0
BLOCK_RECORD
  5
B7F
330
1
100
AcDbSymbolTableRecord
100
AcDbBlockTableRecord
  2
*D45
340
0
  0
BLOCK_RECORD
  5
B87
330
1
100
AcDbSymbolTableRecord
100
AcDbBlockTableRecord
  2
*D46
340
0
  0
BLOCK_RECORD
  5
B8F
330
1
100
AcDbSymbolTableRecord
100
AcDbBlockTableRecord
  2
*D47
340
0
  0
BLOCK_RECORD
  5
B97
330
1
100
AcDbSymbolTableRecord
100
AcDbBlockTableRecord
  2
*D48
340
0
  0
BLOCK_RECORD
  5
B9F
330
1
100
AcDbSymbolTableRecord
100
AcDbBlockTableRecord
  2
*D49
340
0
  0
BLOCK_RECORD
  5
BAD
330
1
100
AcDbSymbolTableRecord
100
AcDbBlockTableRecord
  2
*D50
340
0
  0
BLOCK_RECORD
  5
BF3
330
1
100
AcDbSymbolTableRecord
100
AcDbBlockTableRecord
  2
*D51
340
0
  0
BLOCK_RECORD
  5
C0B
330
1
100
AcDbSymbolTableRecord
100
AcDbBlockTableRecord
  2
*D52
340
0
  0
BLOCK_RECORD
  5
C23
330
1
100
AcDbSymbolTableRecord
100
AcDbBlockTableRecord
  2
*D53
340
0
  0
BLOCK_RECORD
  5
C3B
330
1
100
AcDbSymbolTableRecord
100
AcDbBlockTableRecord
  2
*D54
340
0
  0
BLOCK_RECORD
  5
C53
330
1
100
AcDbSymbolTableRecord
100
AcDbBlockTableRecord
  2
*D55
340
0
  0
BLOCK_RECORD
  5
C64
330
1
100
AcDbSymbolTableRecord
100
AcDbBlockTableRecord
  2
*D56
340
0
  0
BLOCK_RECORD
  5
D04
330
1
100
AcDbSymbolTableRecord
100
AcDbBlockTableRecord
  2
*D57
340
0
  0
BLOCK_RECORD
  5
D1C
330
1
100
AcDbSymbolTableRecord
100
AcDbBlockTableRecord
  2
*D58
340
0
  0
BLOCK_RECORD
  5
D34
330
1
100
AcDbSymbolTableRecord
100
AcDbBlockTableRecord
  2
*D59
340
0
  0
BLOCK_RECORD
  5
D4C
330
1
100
AcDbSymbolTableRecord
100
AcDbBlockTableRecord
  2
*D60
340
0
  0
BLOCK_RECORD
  5
D7A
330
1
100
AcDbSymbolTableRecord
100
AcDbBlockTableRecord
  2
*D61
340
0
  0
BLOCK_RECORD
  5
D92
330
1
100
AcDbSymbolTableRecord
100
AcDbBlockTableRecord
  2
*D62
340
0
  0
BLOCK_RECORD
  5
DAA
330
1
100
AcDbSymbolTableRecord
100
AcDbBlockTableRecord
  2
*D63
340
0
  0
BLOCK_RECORD
  5
DC2
330
1
100
AcDbSymbolTableRecord
100
AcDbBlockTableRecord
  2
*D64
340
0
  0
BLOCK_RECORD
  5
DDA
330
1
100
AcDbSymbolTableRecord
100
AcDbBlockTableRecord
  2
*D65
340
0
  0
BLOCK_RECORD
  5
E30
330
1
100
AcDbSymbolTableRecord
100
AcDbBlockTableRecord
  2
*D66
340
0
  0
BLOCK_RECORD
  5
E41
330
1
100
AcDbSymbolTableRecord
100
AcDbBlockTableRecord
  2
*D67
340
0
  0
BLOCK_RECORD
  5
E52
330
1
100
AcDbSymbolTableRecord
100
AcDbBlockTableRecord
  2
*D68
340
0
  0
BLOCK_RECORD
  5
E62
330
1
100
AcDbSymbolTableRecord
100
AcDbBlockTableRecord
  2
*D69
340
0
  0
BLOCK_RECORD
  5
E6E
330
1
100
AcDbSymbolTableRecord
100
AcDbBlockTableRecord
  2
*D70
340
0
  0
BLOCK_RECORD
  5
E7A
330
1
100
AcDbSymbolTableRecord
100
AcDbBlockTableRecord
  2
*D71
340
0
  0
BLOCK_RECORD
  5
E86
330
1
100
AcDbSymbolTableRecord
100
AcDbBlockTableRecord
  2
*D72
340
0
  0
BLOCK_RECORD
  5
E92
330
1
100
AcDbSymbolTableRecord
100
AcDbBlockTableRecord
  2
*D73
340
0
  0
BLOCK_RECORD
  5
E9E
330
1
100
AcDbSymbolTableRecord
100
AcDbBlockTableRecord
  2
*D74
340
0
  0
BLOCK_RECORD
  5
EAA
330
1
100
AcDbSymbolTableRecord
100
AcDbBlockTableRecord
  2
*D75
340
0
  0
BLOCK_RECORD
  5
EB3
330
1
100
AcDbSymbolTableRecord
100
AcDbBlockTableRecord
  2
*D76
340
0
  0
BLOCK_RECORD
  5
EBC
330
1
100
AcDbSymbolTableRecord
100
AcDbBlockTableRecord
  2
*D77
340
0
  0
BLOCK_RECORD
  5
F56
330
1
100
AcDbSymbolTableRecord
100
AcDbBlockTableRecord
  2
*D78
340
0
  0
BLOCK_RECORD
  5
F62
330
1
100
AcDbSymbolTableRecord
100
AcDbBlockTableRecord
  2
*D79
340
0
  0
BLOCK_RECORD
  5
F6E
330
1
100
AcDbSymbolTableRecord
100
AcDbBlockTableRecord
  2
*D80
340
0
  0
BLOCK_RECORD
  5
F7A
330
1
100
AcDbSymbolTableRecord
100
AcDbBlockTableRecord
  2
*D81
340
0
  0
BLOCK_RECORD
  5
F86
330
1
100
AcDbSymbolTableRecord
100
AcDbBlockTableRecord
  2
*D82
340
0
  0
BLOCK_RECORD
  5
F92
330
1
100
AcDbSymbolTableRecord
100
AcDbBlockTableRecord
  2
*D83
340
0
  0
BLOCK_RECORD
  5
F9E
330
1
100
AcDbSymbolTableRecord
100
AcDbBlockTableRecord
  2
*D84
340
0
  0
BLOCK_RECORD
  5
FA7
330
1
100
AcDbSymbolTableRecord
100
AcDbBlockTableRecord
  2
*D85
340
0
  0
BLOCK_RECORD
  5
FB0
330
1
100
AcDbSymbolTableRecord
100
AcDbBlockTableRecord
  2
*D86
340
0
  0
ENDTAB
  0
ENDSEC
  0
SECTION
  2
BLOCKS
  0
BLOCK
  5
20
330
1F
100
AcDbEntity
  8
0
100
AcDbBlockBegin
  2
*Model_Space
 70
     0
 10
0.0
 20
0.0
 30
0.0
  3
*Model_Space
  1

  0
ENDBLK
  5
21
330
1F
100
AcDbEntity
  8
0
100
AcDbBlockEnd
  0
BLOCK
  5
D4
330
D2
100
AcDbEntity
 67
     1
  8
0
100
AcDbBlockBegin
  2
*Paper_Space
 70
     0
 10
0.0
 20
0.0
 30
0.0
  3
*Paper_Space
  1

  0
ENDBLK
  5
D5
330
D2
100
AcDbEntity
 67
     1
  8
0
100
AcDbBlockEnd
  0
BLOCK
  5
D8
330
D6
100
AcDbEntity
 67
     1
  8
0
100
AcDbBlockBegin
  2
*Paper_Space0
 70
     0
 10
0.0
 20
0.0
 30
0.0
  3
*Paper_Space0
  1

  0
ENDBLK
  5
D9
330
D6
100
AcDbEntity
 67
     1
  8
0
100
AcDbBlockEnd
  0
BLOCK
  5
723
330
719
100
AcDbEntity
  8
0
100
AcDbBlockBegin
  2
*D1
 70
     1
 10
0.0
 20
0.0
 30
0.0
  3
*D1
  1

  0
LINE
  5
96C
330
719
100
AcDbEntity
  8
图层3
 62
     0
440
 16777216
370
    -2
100
AcDbLine
 10
2631.09838556899
 20
789.6562486920075
 30
0.0
 11
2631.09838556899
 21
958.2107024185384
 31
0.0
  0
LINE
  5
96D
330
719
100
AcDbEntity
  8
图层3
 62
     0
440
 16777216
370
    -2
100
AcDbLine
 10
3106.098385568989
 20
789.6562486920072
 30
0.0
 11
3106.098385568989
 21
958.2107024185384
 31
0.0
  0
LINE
  5
96E
330
719
100
AcDbEntity
  8
图层3
 62
     0
440
 16777216
370
    -2
100
AcDbLine
 10
2641.09838556899
 20
956.9607024185383
 30
0.0
 11
3096.09838556899
 21
956.9607024185383
 31
0.0
  0
SOLID
  5
96F
330
719
100
AcDbEntity
  8
图层3
 62
     0
440
 16777216
100
AcDbTrace
 10
2641.09838556899
 20
958.6273690852053
 30
0.0
 11
2641.09838556899
 21
955.2940357518718
 31
0.0
 12
2631.09838556899
 22
956.9607024185383
 32
0.0
 13
2631.09838556899
 23
956.9607024185383
 33
0.0
  0
SOLID
  5
970
330
719
100
AcDbEntity
  8
图层3
 62
     0
440
 16777216
100
AcDbTrace
 10
3096.09838556899
 20
958.6273690852053
 30
0.0
 11
3096.09838556899
 21
955.2940357518718
 31
0.0
 12
3106.098385568989
 22
956.9607024185383
 32
0.0
 13
3106.098385568989
 23
956.9607024185383
 33
0.0
  0
MTEXT
  5
971
330
719
100
AcDbEntity
  8
图层3
 62
     0
440
 16777216
100
AcDbMText
 10
2868.59838556899
 20
967.4607024185384
 30
0.0
 40
11.0
 41
0.0
 71
     5
 72
     1
  1
475 [18 3/4]
 73
     1
 44
1.0
  0
POINT
  5
972
330
719
100
AcDbEntity
  8
Defpoints
 62
     0
440
 16777216
100
AcDbPoint
 10
2631.09838556899
 20
781.6562486920075
 30
0.0
  0
POINT
  5
973
330
719
100
AcDbEntity
  8
Defpoints
 62
     0
440
 16777216
100
AcDbPoint
 10
3106.098385568989
 20
781.6562486920072
 30
0.0
  0
POINT
  5
974
330
719
100
AcDbEntity
  8
Defpoints
 62
     0
440
 16777216
100
AcDbPoint
 10
3106.098385568989
 20
956.9607024185383
 30
0.0
  0
ENDBLK
  5
724
330
719
100
AcDbEntity
  8
0
100
AcDbBlockEnd
  0
BLOCK
  5
73B
330
731
100
AcDbEntity
  8
0
100
AcDbBlockBegin
  2
*D2
 70
     1
 10
0.0
 20
0.0
 30
0.0
  3
*D2
  1

  0
LINE
  5
975
330
731
100
AcDbEntity
  8
图层3
 62
     0
440
 16777216
370
    -2
100
AcDbLine
 10
2703.098385568989
 20
861.6562486920074
 30
0.0
 11
2522.607122545484
 21
861.6562486920074
 31
0.0
  0
LINE
  5
976
330
731
100
AcDbEntity
  8
图层3
 62
     0
440
 16777216
370
    -2
100
AcDbLine
 10
2703.098385568989
 20
437.6562486920072
 30
0.0
 11
2522.607122545484
 21
437.6562486920072
 31
0.0
  0
LINE
  5
977
330
731
100
AcDbEntity
  8
图层3
 62
     0
440
 16777216
370
    -2
100
AcDbLine
 10
2523.857122545483
 20
851.6562486920074
 30
0.0
 11
2523.857122545483
 21
447.6562486920072
 31
0.0
  0
SOLID
  5
978
330
731
100
AcDbEntity
  8
图层3
 62
     0
440
 16777216
100
AcDbTrace
 10
2522.190455878817
 20
851.6562486920074
 30
0.0
 11
2525.52378921215
 21
851.6562486920074
 31
0.0
 12
2523.857122545483
 22
861.6562486920074
 32
0.0
 13
2523.857122545483
 23
861.6562486920074
 33
0.0
  0
SOLID
  5
979
330
731
100
AcDbEntity
  8
图层3
 62
     0
440
 16777216
100
AcDbTrace
 10
2522.190455878817
 20
447.6562486920072
 30
0.0
 11
2525.52378921215
 21
447.6562486920072
 31
0.0
 12
2523.857122545483
 22
437.6562486920072
 32
0.0
 13
2523.857122545483
 23
437.6562486920072
 33
0.0
  0
MTEXT
  5
97A
330
731
100
AcDbEntity
  8
图层3
 62
     0
440
 16777216
100
AcDbMText
 10
2513.357122545484
 20
649.6562486920079
 30
0.0
 40
11.0
 41
0.0
 71
     5
 72
     1
  1
424 [16 3/4]
 11
0.0000000000000001
 21
1.0
 31
0.0
 73
     1
 44
1.0
  0
POINT
  5
97B
330
731
100
AcDbEntity
  8
Defpoints
 62
     0
440
 16777216
100
AcDbPoint
 10
2711.098385568989
 20
861.6562486920074
 30
0.0
  0
POINT
  5
97C
330
731
100
AcDbEntity
  8
Defpoints
 62
     0
440
 16777216
100
AcDbPoint
 10
2711.098385568989
 20
437.6562486920072
 30
0.0
  0
POINT
  5
97D
330
731
100
AcDbEntity
  8
Defpoints
 62
     0
440
 16777216
100
AcDbPoint
 10
2523.857122545483
 20
437.6562486920072
 30
0.0
  0
ENDBLK
  5
73C
330
731
100
AcDbEntity
  8
0
100
AcDbBlockEnd
  0
BLOCK
  5
74F
330
749
100
AcDbEntity
  8
0
100
AcDbBlockBegin
  2
*D3
 70
     1
 10
0.0
 20
0.0
 30
0.0
  3
*D3
  1

  0
LINE
  5
984
330
749
100
AcDbEntity
  8
图层3
 62
     0
440
 16777216
370
    -2
100
AcDbLine
 10
2903.627723099167
 20
519.5743178852417
 30
0.0
 11
3024.127723099168
 21
519.5743178852417
 31
0.0
  0
LINE
  5
985
330
749
100
AcDbEntity
  8
图层3
 62
     0
440
 16777216
370
    -2
100
AcDbLine
 10
3024.127723099168
 20
519.5743178852417
 30
0.0
 11
3076.26070298264
 21
468.8326692278575
 31
0.0
  0
MTEXT
  5
986
330
749
100
AcDbEntity
  8
图层3
 62
     0
440
 16777216
100
AcDbMText
 10
2961.377723099167
 20
530.0743178852415
 30
0.0
 40
11.0
 41
0.0
 71
     5
 72
     1
  1
R80 [R3 1/8]
 73
     1
 44
1.0
  0
SOLID
  5
987
330
749
100
AcDbEntity
  8
图层3
 62
     0
440
 16777216
100
AcDbTrace
 10
3077.423169160358
 20
470.0270101186585
 30
0.0
 11
3075.098236804923
 21
467.6383283370562
 31
0.0
 12
3083.426748327448
 22
461.8578721615505
 32
0.0
 13
3083.426748327448
 23
461.8578721615505
 33
0.0
  0
POINT
  5
988
330
749
100
AcDbEntity
  8
Defpoints
 62
     0
440
 16777216
100
AcDbPoint
 10
3083.426748327448
 20
461.8578721615505
 30
0.0
  0
POINT
  5
989
330
749
100
AcDbEntity
  8
Defpoints
 62
     0
440
 16777216
100
AcDbPoint
 10
3026.098385568989
 20
517.6562486920072
 30
0.0
  0
ENDBLK
  5
750
330
749
100
AcDbEntity
  8
0
100
AcDbBlockEnd
  0
BLOCK
  5
7B6
330
7B5
100
AcDbEntity
  8
0
100
AcDbBlockBegin
  2
*D4
 70
     1
 10
0.0
 20
0.0
 30
0.0
  3
*D4
  1

  0
LINE
  5
7B7
330
7B5
100
AcDbEntity
  8
图层3
 62
     0
440
 16777216
370
    -2
100
AcDbLine
 10
933.5944004673114
 20
569.5897876888827
 30
0.0
 11
778.5944004673114
 21
569.589787688883
 31
0.0
  0
LINE
  5
7B8
330
7B5
100
AcDbEntity
  8
图层3
 62
     0
440
 16777216
370
    -2
100
AcDbLine
 10
778.5944004673114
 20
569.589787688883
 30
0.0
 11
705.0308971026144
 21
496.8903569733521
 31
0.0
  0
MTEXT
  5
7B9
330
7B5
100
AcDbEntity
  8
图层3
 62
     0
440
 16777216
100
AcDbMText
 10
858.5944004673114
 20
580.5897876888828
 30
0.0
 40
12.0
 41
0.0
 71
     5
 72
     1
  1
4-R80 [R3 1/8]
 73
     1
 44
1.0
  0
SOLID
  5
7BA
330
7B5
100
AcDbEntity
  8
图层3
 62
     0
440
 16777216
100
AcDbTrace
 10
703.8593684957857
 20
498.0758098408925
 30
0.0
 11
706.2024257094431
 21
495.7049041058117
 31
0.0
 12
697.9181798973718
 22
489.8611853323798
 32
0.0
 13
697.9181798973718
 23
489.8611853323798
 33
0.0
  0
POINT
  5
7BB
330
7B5
100
AcDbEntity
  8
Defpoints
 62
     0
440
 16777216
100
AcDbPoint
 10
697.9181798973718
 20
489.8611853323798
 30
0.0
  0
POINT
  5
7BC
330
7B5
100
AcDbEntity
  8
Defpoints
 62
     0
440
 16777216
100
AcDbPoint
 10
754.8199175393111
 20
546.0945584601565
 30
0.0
  0
ENDBLK
  5
7BD
330
7B5
100
AcDbEntity
  8
0
100
AcDbBlockEnd
  0
BLOCK
  5
7BF
330
7BE
100
AcDbEntity
  8
0
100
AcDbBlockBegin
  2
*D5
 70
     1
 10
0.0
 20
0.0
 30
0.0
  3
*D5
  1

  0
LINE
  5
7C0
330
7BE
100
AcDbEntity
  8
图层3
 62
     0
440
 16777216
370
    -2
100
AcDbLine
 10
668.5371816948245
 20
664.1313151062312
 30
0.0
 11
668.5371816948245
 21
913.5701295886892
 31
0.0
  0
LINE
  5
7C1
330
7BE
100
AcDbEntity
  8
图层3
 62
     0
440
 16777216
370
    -2
100
AcDbLine
 10
1125.537181694824
 20
664.1313151062307
 30
0.0
 11
1125.537181694824
 21
913.5701295886892
 31
0.0
  0
LINE
  5
7C2
330
7BE
100
AcDbEntity
  8
图层3
 62
     0
440
 16777216
370
    -2
100
AcDbLine
 10
678.5371816948245
 20
912.3201295886893
 30
0.0
 11
1115.537181694824
 21
912.3201295886893
 31
0.0
  0
SOLID
  5
7C3
330
7BE
100
AcDbEntity
  8
图层3
 62
     0
440
 16777216
100
AcDbTrace
 10
678.5371816948245
 20
913.9867962553561
 30
0.0
 11
678.5371816948245
 21
910.6534629220226
 31
0.0
 12
668.5371816948245
 22
912.3201295886893
 32
0.0
 13
668.5371816948245
 23
912.3201295886893
 33
0.0
  0
SOLID
  5
7C4
330
7BE
100
AcDbEntity
  8
图层3
 62
     0
440
 16777216
100
AcDbTrace
 10
1115.537181694824
 20
913.9867962553561
 30
0.0
 11
1115.537181694824
 21
910.6534629220226
 31
0.0
 12
1125.537181694824
 22
912.3201295886893
 32
0.0
 13
1125.537181694824
 23
912.3201295886893
 33
0.0
  0
MTEXT
  5
7C5
330
7BE
100
AcDbEntity
  8
图层3
 62
     0
440
 16777216
100
AcDbMText
 10
897.0371816948246
 20
923.3201295886892
 30
0.0
 40
12.0
 41
0.0
 71
     5
 72
     1
  1
457 [18]
 73
     1
 44
1.0
  0
POINT
  5
7C6
330
7BE
100
AcDbEntity
  8
Defpoints
 62
     0
440
 16777216
100
AcDbPoint
 10
668.5371816948245
 20
659.1313151062312
 30
0.0
  0
POINT
  5
7C7
330
7BE
100
AcDbEntity
  8
Defpoints
 62
     0
440
 16777216
100
AcDbPoint
 10
1125.537181694824
 20
659.1313151062307
 30
0.0
  0
POINT
  5
7C8
330
7BE
100
AcDbEntity
  8
Defpoints
 62
     0
440
 16777216
100
AcDbPoint
 10
1125.537181694824
 20
912.3201295886893
 30
0.0
  0
ENDBLK
  5
7C9
330
7BE
100
AcDbEntity
  8
0
100
AcDbBlockEnd
  0
BLOCK
  5
7CB
330
7CA
100
AcDbEntity
  8
0
100
AcDbBlockBegin
  2
*D6
 70
     1
 10
0.0
 20
0.0
 30
0.0
  3
*D6
  1

  0
LINE
  5
7CC
330
7CA
100
AcDbEntity
  8
图层3
 62
     0
440
 16777216
370
    -2
100
AcDbLine
 10
642.5371816948245
 20
859.6313151062309
 30
0.0
 11
642.5371816948245
 21
986.1684136814574
 31
0.0
  0
LINE
  5
7CD
330
7CA
100
AcDbEntity
  8
图层3
 62
     0
440
 16777216
370
    -2
100
AcDbLine
 10
1151.537181694824
 20
859.6313151062307
 30
0.0
 11
1151.537181694824
 21
986.1684136814574
 31
0.0
  0
LINE
  5
7CE
330
7CA
100
AcDbEntity
  8
图层3
 62
     0
440
 16777216
370
    -2
100
AcDbLine
 10
652.5371816948245
 20
984.9184136814574
 30
0.0
 11
1141.537181694824
 21
984.9184136814574
 31
0.0
  0
SOLID
  5
7CF
330
7CA
100
AcDbEntity
  8
图层3
 62
     0
440
 16777216
100
AcDbTrace
 10
652.5371816948245
 20
986.5850803481238
 30
0.0
 11
652.5371816948245
 21
983.2517470147907
 31
0.0
 12
642.5371816948245
 22
984.9184136814574
 32
0.0
 13
642.5371816948245
 23
984.9184136814574
 33
0.0
  0
SOLID
  5
7D0
330
7CA
100
AcDbEntity
  8
图层3
 62
     0
440
 16777216
100
AcDbTrace
 10
1141.537181694824
 20
986.5850803481238
 30
0.0
 11
1141.537181694824
 21
983.2517470147907
 31
0.0
 12
1151.537181694824
 22
984.9184136814574
 32
0.0
 13
1151.537181694824
 23
984.9184136814574
 33
0.0
  0
MTEXT
  5
7D1
330
7CA
100
AcDbEntity
  8
图层3
 62
     0
440
 16777216
100
AcDbMText
 10
894.2970893759536
 20
995.9184136814574
 30
0.0
 40
12.0
 41
0.0
 71
     5
 72
     1
  1
509 [20]
 73
     1
 44
1.0
  0
POINT
  5
7D2
330
7CA
100
AcDbEntity
  8
Defpoints
 62
     0
440
 16777216
100
AcDbPoint
 10
642.5371816948245
 20
854.6313151062307
 30
0.0
  0
POINT
  5
7D3
330
7CA
100
AcDbEntity
  8
Defpoints
 62
     0
440
 16777216
100
AcDbPoint
 10
1151.537181694824
 20
854.6313151062307
 30
0.0
  0
POINT
  5
7D4
330
7CA
100
AcDbEntity
  8
Defpoints
 62
     0
440
 16777216
100
AcDbPoint
 10
1151.537181694824
 20
984.9184136814574
 30
0.0
  0
ENDBLK
  5
7D5
330
7CA
100
AcDbEntity
  8
0
100
AcDbBlockEnd
  0
BLOCK
  5
7D7
330
7D6
100
AcDbEntity
  8
0
100
AcDbBlockBegin
  2
*D7
 70
     1
 10
0.0
 20
0.0
 30
0.0
  3
*D7
  1

  0
LINE
  5
7D8
330
7D6
100
AcDbEntity
  8
图层3
 62
     0
440
 16777216
370
    -2
100
AcDbLine
 10
822.0371816948246
 20
732.1313151062309
 30
0.0
 11
613.4331732258541
 21
732.1313151062309
 31
0.0
  0
LINE
  5
7D9
330
7D6
100
AcDbEntity
  8
图层3
 62
     0
440
 16777216
370
    -2
100
AcDbLine
 10
892.0371816948247
 20
862.1313151062308
 30
0.0
 11
613.4331732258543
 21
862.1313151062308
 31
0.0
  0
LINE
  5
7DA
330
7D6
100
AcDbEntity
  8
图层3
 62
     0
440
 16777216
370
    -2
100
AcDbLine
 10
614.6831732258541
 20
742.1313151062308
 30
0.0
 11
614.6831732258542
 21
852.1313151062308
 31
0.0
  0
SOLID
  5
7DB
330
7D6
100
AcDbEntity
  8
图层3
 62
     0
440
 16777216
100
AcDbTrace
 10
613.0165065591874
 20
742.1313151062308
 30
0.0
 11
616.3498398925208
 21
742.1313151062308
 31
0.0
 12
614.6831732258541
 22
732.1313151062309
 32
0.0
 13
614.6831732258541
 23
732.1313151062309
 33
0.0
  0
SOLID
  5
7DC
330
7D6
100
AcDbEntity
  8
图层3
 62
     0
440
 16777216
100
AcDbTrace
 10
613.0165065591876
 20
852.1313151062308
 30
0.0
 11
616.3498398925209
 21
852.1313151062308
 31
0.0
 12
614.6831732258542
 22
862.1313151062308
 32
0.0
 13
614.6831732258542
 23
862.1313151062308
 33
0.0
  0
MTEXT
  5
7DD
330
7D6
100
AcDbEntity
  8
图层3
 62
     0
440
 16777216
100
AcDbMText
 10
603.683173225854
 20
797.1313151062311
 30
0.0
 40
12.0
 41
0.0
 71
     5
 72
     1
  1
130 [5 1/8]
 11
0.0000000000000001
 21
1.0
 31
0.0
 73
     1
 44
1.0
  0
POINT
  5
7DE
330
7D6
100
AcDbEntity
  8
Defpoints
 62
     0
440
 16777216
100
AcDbPoint
 10
827.0371816948246
 20
732.1313151062309
 30
0.0
  0
POINT
  5
7DF
330
7D6
100
AcDbEntity
  8
Defpoints
 62
     0
440
 16777216
100
AcDbPoint
 10
897.0371816948246
 20
862.1313151062308
 30
0.0
  0
POINT
  5
7E0
330
7D6
100
AcDbEntity
  8
Defpoints
 62
     0
440
 16777216
100
AcDbPoint
 10
614.6831732258542
 20
862.1313151062308
 30
0.0
  0
ENDBLK
  5
7E1
330
7D6
100
AcDbEntity
  8
0
100
AcDbBlockEnd
  0
BLOCK
  5
7E3
330
7E2
100
AcDbEntity
  8
0
100
AcDbBlockBegin
  2
*D8
 70
     1
 10
0.0
 20
0.0
 30
0.0
  3
*D8
  1

  0
LINE
  5
7E4
330
7E2
100
AcDbEntity
  8
图层3
 62
     0
440
 16777216
370
    -2
100
AcDbLine
 10
892.0371816948232
 20
456.1313151062308
 30
0.0
 11
577.5102329533281
 21
456.131315106231
 31
0.0
  0
LINE
  5
7E5
330
7E2
100
AcDbEntity
  8
图层3
 62
     0
440
 16777216
370
    -2
100
AcDbLine
 10
663.5371816948245
 20
862.1313151062308
 30
0.0
 11
577.5102329533281
 21
862.1313151062308
 31
0.0
  0
LINE
  5
7E6
330
7E2
100
AcDbEntity
  8
图层3
 62
     0
440
 16777216
370
    -2
100
AcDbLine
 10
578.7602329533282
 20
466.131315106231
 30
0.0
 11
578.7602329533282
 21
852.1313151062308
 31
0.0
  0
SOLID
  5
7E7
330
7E2
100
AcDbEntity
  8
图层3
 62
     0
440
 16777216
100
AcDbTrace
 10
577.0935662866616
 20
466.131315106231
 30
0.0
 11
580.4268996199947
 21
466.131315106231
 31
0.0
 12
578.7602329533282
 22
456.131315106231
 32
0.0
 13
578.7602329533282
 23
456.131315106231
 33
0.0
  0
SOLID
  5
7E8
330
7E2
100
AcDbEntity
  8
图层3
 62
     0
440
 16777216
100
AcDbTrace
 10
577.0935662866617
 20
852.1313151062308
 30
0.0
 11
580.4268996199947
 21
852.1313151062308
 31
0.0
 12
578.7602329533282
 22
862.1313151062308
 32
0.0
 13
578.7602329533282
 23
862.1313151062308
 33
0.0
  0
MTEXT
  5
7E9
330
7E2
100
AcDbEntity
  8
图层3
 62
     0
440
 16777216
100
AcDbMText
 10
567.760232953328
 20
659.1313151062311
 30
0.0
 40
12.0
 41
0.0
 71
     5
 72
     1
  1
406 [16]
 11
0.0000000000000001
 21
1.0
 31
0.0
 73
     1
 44
1.0
  0
POINT
  5
7EA
330
7E2
100
AcDbEntity
  8
Defpoints
 62
     0
440
 16777216
100
AcDbPoint
 10
897.0371816948233
 20
456.1313151062308
 30
0.0
  0
POINT
  5
7EB
330
7E2
100
AcDbEntity
  8
Defpoints
 62
     0
440
 16777216
100
AcDbPoint
 10
668.5371816948245
 20
862.1313151062308
 30
0.0
  0
POINT
  5
7EC
330
7E2
100
AcDbEntity
  8
Defpoints
 62
     0
440
 16777216
100
AcDbPoint
 10
578.7602329533282
 20
862.1313151062308
 30
0.0
  0
ENDBLK
  5
7ED
330
7E2
100
AcDbEntity
  8
0
100
AcDbBlockEnd
  0
BLOCK
  5
7EF
330
7EE
100
AcDbEntity
  8
0
100
AcDbBlockBegin
  2
*D9
 70
     1
 10
0.0
 20
0.0
 30
0.0
  3
*D9
  1

  0
LINE
  5
7F0
330
7EE
100
AcDbEntity
  8
图层3
 62
     0
440
 16777216
370
    -2
100
AcDbLine
 10
671.0371816948244
 20
430.1313151062308
 30
0.0
 11
510.1727292514889
 21
430.1313151062308
 31
0.0
  0
LINE
  5
7F1
330
7EE
100
AcDbEntity
  8
图层3
 62
     0
440
 16777216
370
    -2
100
AcDbLine
 10
671.0371816948245
 20
888.1313151062309
 30
0.0
 11
510.1727292514889
 21
888.1313151062309
 31
0.0
  0
LINE
  5
7F2
330
7EE
100
AcDbEntity
  8
图层3
 62
     0
440
 16777216
370
    -2
100
AcDbLine
 10
511.4227292514889
 20
440.1313151062308
 30
0.0
 11
511.4227292514889
 21
878.1313151062308
 31
0.0
  0
SOLID
  5
7F3
330
7EE
100
AcDbEntity
  8
图层3
 62
     0
440
 16777216
100
AcDbTrace
 10
509.7560625848221
 20
440.1313151062308
 30
0.0
 11
513.0893959181555
 21
440.1313151062308
 31
0.0
 12
511.4227292514889
 22
430.1313151062308
 32
0.0
 13
511.4227292514889
 23
430.1313151062308
 33
0.0
  0
SOLID
  5
7F4
330
7EE
100
AcDbEntity
  8
图层3
 62
     0
440
 16777216
100
AcDbTrace
 10
509.7560625848221
 20
878.1313151062308
 30
0.0
 11
513.0893959181555
 21
878.1313151062308
 31
0.0
 12
511.4227292514889
 22
888.1313151062309
 32
0.0
 13
511.4227292514889
 23
888.1313151062309
 33
0.0
  0
MTEXT
  5
7F5
330
7EE
100
AcDbEntity
  8
图层3
 62
     0
440
 16777216
100
AcDbMText
 10
500.4227292514888
 20
657.6707928868045
 30
0.0
 40
12.0
 41
0.0
 71
     5
 72
     1
  1
458 [18]
 11
0.0000000000000001
 21
1.0
 31
0.0
 73
     1
 44
1.0
  0
POINT
  5
7F6
330
7EE
100
AcDbEntity
  8
Defpoints
 62
     0
440
 16777216
100
AcDbPoint
 10
676.0371816948244
 20
430.1313151062308
 30
0.0
  0
POINT
  5
7F7
330
7EE
100
AcDbEntity
  8
Defpoints
 62
     0
440
 16777216
100
AcDbPoint
 10
676.0371816948245
 20
888.1313151062309
 30
0.0
  0
POINT
  5
7F8
330
7EE
100
AcDbEntity
  8
Defpoints
 62
     0
440
 16777216
100
AcDbPoint
 10
511.4227292514889
 20
888.1313151062309
 30
0.0
  0
ENDBLK
  5
7F9
330
7EE
100
AcDbEntity
  8
0
100
AcDbBlockEnd
  0
BLOCK
  5
7FB
330
7FA
100
AcDbEntity
  8
0
100
AcDbBlockBegin
  2
*D10
 70
     1
 10
0.0
 20
0.0
 30
0.0
  3
*D10
  1

  0
LINE
  5
7FC
330
7FA
100
AcDbEntity
  8
图层3
 62
     0
440
 16777216
370
    -2
100
AcDbLine
 10
1114.974615005444
 20
661.4394487636875
 30
0.0
 11
967.9746150054446
 21
661.4394487636878
 31
0.0
  0
LINE
  5
7FD
330
7FA
100
AcDbEntity
  8
图层3
 62
     0
440
 16777216
370
    -2
100
AcDbLine
 10
967.9746150054446
 20
661.4394487636878
 30
0.0
 11
936.06626104048
 21
693.2373442954414
 31
0.0
  0
LINE
  5
7FE
330
7FA
100
AcDbEntity
  8
图层3
 62
     0
440
 16777216
370
    -2
100
AcDbLine
 10
858.0081023491691
 20
771.0252859170203
 30
0.0
 11
850.9247848635691
 21
778.0840827973812
 31
0.0
  0
MTEXT
  5
7FF
102
{ACAD_XDICTIONARY
360
10A5
102
}
330
7FA
100
AcDbEntity
  8
图层3
 62
     0
440
 16777216
100
AcDbMText
 10
1043.974615005445
 20
672.4394487636877
 30
0.0
 40
12.0
 41
0.0
 71
     5
 72
     1
  1
\U+220590.2 [\U+22053 1/2]
 73
     1
 44
1.0
  0
LINE
  5
800
330
7FA
100
AcDbEntity
  8
图层3
 62
     0
440
 16777216
370
    -2
100
AcDbLine
 10
865.091419834769
 20
763.9664890366592
 30
0.0
 11
928.9829435548801
 21
700.2961411758023
 31
0.0
  0
SOLID
  5
801
330
7FA
100
AcDbEntity
  8
图层3
 62
     0
440
 16777216
100
AcDbTrace
 10
859.1845684958961
 20
772.2058388312867
 30
0.0
 11
856.8316362024422
 21
769.8447330027534
 31
0.0
 12
865.091419834769
 22
763.9664890366592
 32
0.0
 13
865.091419834769
 23
763.9664890366592
 33
0.0
  0
SOLID
  5
802
330
7FA
100
AcDbEntity
  8
图层3
 62
     0
440
 16777216
100
AcDbTrace
 10
937.2427271872068
 20
694.4178972097082
 30
0.0
 11
934.8897948937532
 21
692.0567913811748
 31
0.0
 12
928.9829435548801
 22
700.2961411758023
 32
0.0
 13
928.9829435548801
 23
700.2961411758023
 33
0.0
  0
POINT
  5
803
330
7FA
100
AcDbEntity
  8
Defpoints
 62
     0
440
 16777216
100
AcDbPoint
 10
928.9829435548801
 20
700.2961411758023
 30
0.0
  0
POINT
  5
804
330
7FA
100
AcDbEntity
  8
Defpoints
 62
     0
440
 16777216
100
AcDbPoint
 10
865.091419834769
 20
763.9664890366592
 30
0.0
  0
ENDBLK
  5
805
330
7FA
100
AcDbEntity
  8
0
100
AcDbBlockEnd
  0
BLOCK
  5
807
330
806
100
AcDbEntity
  8
0
100
AcDbBlockBegin
  2
*D11
 70
     1
 10
0.0
 20
0.0
 30
0.0
  3
*D11
  1

  0
LINE
  5
808
330
806
100
AcDbEntity
  8
图层3
 62
     0
440
 16777216
370
    -2
100
AcDbLine
 10
648.5371816948246
 20
859.6313151062309
 30
0.0
 11
648.5371816948246
 21
951.8546514688614
 31
0.0
  0
LINE
  5
809
330
806
100
AcDbEntity
  8
图层3
 62
     0
440
 16777216
370
    -2
100
AcDbLine
 10
1145.537181694824
 20
859.6313151062307
 30
0.0
 11
1145.537181694824
 21
951.8546514688614
 31
0.0
  0
LINE
  5
80A
330
806
100
AcDbEntity
  8
图层3
 62
     0
440
 16777216
370
    -2
100
AcDbLine
 10
658.5371816948246
 20
950.6046514688613
 30
0.0
 11
1135.537181694824
 21
950.6046514688613
 31
0.0
  0
SOLID
  5
80B
330
806
100
AcDbEntity
  8
图层3
 62
     0
440
 16777216
100
AcDbTrace
 10
658.5371816948246
 20
952.271318135528
 30
0.0
 11
658.5371816948246
 21
948.9379848021949
 31
0.0
 12
648.5371816948246
 22
950.6046514688613
 32
0.0
 13
648.5371816948246
 23
950.6046514688613
 33
0.0
  0
SOLID
  5
80C
330
806
100
AcDbEntity
  8
图层3
 62
     0
440
 16777216
100
AcDbTrace
 10
1135.537181694824
 20
952.271318135528
 30
0.0
 11
1135.537181694824
 21
948.9379848021949
 31
0.0
 12
1145.537181694824
 22
950.6046514688613
 32
0.0
 13
1145.537181694824
 23
950.6046514688613
 33
0.0
  0
MTEXT
  5
80D
330
806
100
AcDbEntity
  8
图层3
 62
     0
440
 16777216
100
AcDbMText
 10
897.0371816948246
 20
961.6046514688614
 30
0.0
 40
12.0
 41
0.0
 71
     5
 72
     1
  1
497 [19 5/8]
 73
     1
 44
1.0
  0
POINT
  5
80E
330
806
100
AcDbEntity
  8
Defpoints
 62
     0
440
 16777216
100
AcDbPoint
 10
648.5371816948246
 20
854.6313151062307
 30
0.0
  0
POINT
  5
80F
330
806
100
AcDbEntity
  8
Defpoints
 62
     0
440
 16777216
100
AcDbPoint
 10
1145.537181694824
 20
854.6313151062307
 30
0.0
  0
POINT
  5
810
330
806
100
AcDbEntity
  8
Defpoints
 62
     0
440
 16777216
100
AcDbPoint
 10
1145.537181694824
 20
950.6046514688613
 30
0.0
  0
ENDBLK
  5
811
330
806
100
AcDbEntity
  8
0
100
AcDbBlockEnd
  0
BLOCK
  5
813
330
812
100
AcDbEntity
  8
0
100
AcDbBlockBegin
  2
*D12
 70
     1
 10
0.0
 20
0.0
 30
0.0
  3
*D12
  1

  0
LINE
  5
814
330
812
100
AcDbEntity
  8
图层3
 62
     0
440
 16777216
370
    -2
100
AcDbLine
 10
671.0371816948245
 20
882.1313151062309
 30
0.0
 11
540.7322657918759
 21
882.1313151062309
 31
0.0
  0
LINE
  5
815
330
812
100
AcDbEntity
  8
图层3
 62
     0
440
 16777216
370
    -2
100
AcDbLine
 10
671.0371816948244
 20
436.1313151062308
 30
0.0
 11
540.7322657918756
 21
436.1313151062308
 31
0.0
  0
LINE
  5
816
330
812
100
AcDbEntity
  8
图层3
 62
     0
440
 16777216
370
    -2
100
AcDbLine
 10
541.9822657918758
 20
872.1313151062309
 30
0.0
 11
541.9822657918756
 21
446.1313151062308
 31
0.0
  0
SOLID
  5
817
330
812
100
AcDbEntity
  8
图层3
 62
     0
440
 16777216
100
AcDbTrace
 10
540.3155991252092
 20
872.1313151062309
 30
0.0
 11
543.6489324585425
 21
872.1313151062309
 31
0.0
 12
541.9822657918758
 22
882.1313151062309
 32
0.0
 13
541.9822657918758
 23
882.1313151062309
 33
0.0
  0
SOLID
  5
818
330
812
100
AcDbEntity
  8
图层3
 62
     0
440
 16777216
100
AcDbTrace
 10
540.3155991252091
 20
446.1313151062308
 30
0.0
 11
543.6489324585424
 21
446.1313151062308
 31
0.0
 12
541.9822657918756
 22
436.1313151062308
 32
0.0
 13
541.9822657918756
 23
436.1313151062308
 33
0.0
  0
MTEXT
  5
819
330
812
100
AcDbEntity
  8
图层3
 62
     0
440
 16777216
100
AcDbMText
 10
530.9822657918756
 20
659.1313151062307
 30
0.0
 40
12.0
 41
0.0
 71
     5
 72
     1
  1
446 [17 1/2]
 11
0.0000000000000001
 21
1.0
 31
0.0
 73
     1
 44
1.0
  0
POINT
  5
81A
330
812
100
AcDbEntity
  8
Defpoints
 62
     0
440
 16777216
100
AcDbPoint
 10
676.0371816948245
 20
882.1313151062309
 30
0.0
  0
POINT
  5
81B
330
812
100
AcDbEntity
  8
Defpoints
 62
     0
440
 16777216
100
AcDbPoint
 10
676.0371816948244
 20
436.1313151062308
 30
0.0
  0
POINT
  5
81C
330
812
100
AcDbEntity
  8
Defpoints
 62
     0
440
 16777216
100
AcDbPoint
 10
541.9822657918756
 20
436.1313151062308
 30
0.0
  0
ENDBLK
  5
81D
330
812
100
AcDbEntity
  8
0
100
AcDbBlockEnd
  0
BLOCK
  5
81F
330
81E
100
AcDbEntity
  8
0
100
AcDbBlockBegin
  2
*D13
 70
     1
 10
0.0
 20
0.0
 30
0.0
  3
*D13
  1

  0
LINE
  5
820
330
81E
100
AcDbEntity
  8
图层3
 62
     0
440
 16777216
370
    -2
100
AcDbLine
 10
917.3802381179626
 20
523.5453901127978
 30
0.0
 11
1062.380238117963
 21
523.5453901127978
 31
0.0
  0
LINE
  5
821
330
81E
100
AcDbEntity
  8
图层3
 62
     0
440
 16777216
370
    -2
100
AcDbLine
 10
1062.380238117963
 20
523.5453901127978
 30
0.0
 11
1129.947654978177
 21
450.8098243127797
 31
0.0
  0
MTEXT
  5
822
330
81E
100
AcDbEntity
  8
图层3
 62
     0
440
 16777216
100
AcDbMText
 10
987.3802381179627
 20
534.545390112798
 30
0.0
 40
12.0
 41
0.0
 71
     5
 72
     1
  1
R27.5 [R1 1/8]
 73
     1
 44
1.0
  0
SOLID
  5
823
330
81E
100
AcDbEntity
  8
图层3
 62
     0
440
 16777216
100
AcDbTrace
 10
1131.168749339457
 20
451.9441551016702
 30
0.0
 11
1128.726560616895
 21
449.675493523889
 31
0.0
 12
1136.75363971152
 22
443.4832581450928
 32
0.0
 13
1136.75363971152
 23
443.4832581450928
 33
0.0
  0
POINT
  5
824
330
81E
100
AcDbEntity
  8
Defpoints
 62
     0
440
 16777216
100
AcDbPoint
 10
1136.75363971152
 20
443.4832581450928
 30
0.0
  0
POINT
  5
825
330
81E
100
AcDbEntity
  8
Defpoints
 62
     0
440
 16777216
100
AcDbPoint
 10
1118.037181694825
 20
463.6313151062315
 30
0.0
  0
ENDBLK
  5
826
330
81E
100
AcDbEntity
  8
0
100
AcDbBlockEnd
  0
BLOCK
  5
8AD
330
8AC
100
AcDbEntity
  8
0
100
AcDbBlockBegin
  2
*D14
 70
     1
 10
0.0
 20
0.0
 30
0.0
  3
*D14
  1

  0
LINE
  5
930
330
8AC
100
AcDbEntity
  8
图层3
 62
     0
440
 16777216
370
    -2
100
AcDbLine
 10
2209.345550653079
 20
508.9496854050842
 30
0.0
 11
2066.845550653079
 21
508.9496854050845
 31
0.0
  0
LINE
  5
931
330
8AC
100
AcDbEntity
  8
图层3
 62
     0
440
 16777216
370
    -2
100
AcDbLine
 10
2066.845550653079
 20
508.9496854050845
 30
0.0
 11
1993.282047288382
 21
436.2502546895539
 31
0.0
  0
MTEXT
  5
932
330
8AC
100
AcDbEntity
  8
图层3
 62
     0
440
 16777216
100
AcDbMText
 10
2140.595550653079
 20
519.4496854050844
 30
0.0
 40
11.0
 41
0.0
 71
     5
 72
     1
  1
4-R80 [R3 1/8]
 73
     1
 44
1.0
  0
SOLID
  5
933
330
8AC
100
AcDbEntity
  8
图层3
 62
     0
440
 16777216
100
AcDbTrace
 10
1992.110518681553
 20
437.4357075570943
 30
0.0
 11
1994.45357589521
 21
435.0648018220136
 31
0.0
 12
1986.169330083139
 22
429.2210830485818
 32
0.0
 13
1986.169330083139
 23
429.2210830485818
 33
0.0
  0
POINT
  5
934
330
8AC
100
AcDbEntity
  8
Defpoints
 62
     0
440
 16777216
100
AcDbPoint
 10
1986.169330083139
 20
429.2210830485818
 30
0.0
  0
POINT
  5
935
330
8AC
100
AcDbEntity
  8
Defpoints
 62
     0
440
 16777216
100
AcDbPoint
 10
2043.071067725079
 20
485.4544561763583
 30
0.0
  0
ENDBLK
  5
8AE
330
8AC
100
AcDbEntity
  8
0
100
AcDbBlockEnd
  0
BLOCK
  5
8B6
330
8B5
100
AcDbEntity
  8
0
100
AcDbBlockBegin
  2
*D15
 70
     1
 10
0.0
 20
0.0
 30
0.0
  3
*D15
  1

  0
LINE
  5
91E
330
8B5
100
AcDbEntity
  8
图层3
 62
     0
440
 16777216
370
    -2
100
AcDbLine
 10
1956.788331880591
 20
606.4912128224317
 30
0.0
 11
1956.788331880591
 21
852.9300273048896
 31
0.0
  0
LINE
  5
91F
330
8B5
100
AcDbEntity
  8
图层3
 62
     0
440
 16777216
370
    -2
100
AcDbLine
 10
2413.788331880591
 20
606.4912128224313
 30
0.0
 11
2413.788331880591
 21
852.9300273048896
 31
0.0
  0
LINE
  5
920
330
8B5
100
AcDbEntity
  8
图层3
 62
     0
440
 16777216
370
    -2
100
AcDbLine
 10
1966.78833188059
 20
851.6800273048897
 30
0.0
 11
2403.788331880591
 21
851.6800273048897
 31
0.0
  0
SOLID
  5
921
330
8B5
100
AcDbEntity
  8
图层3
 62
     0
440
 16777216
100
AcDbTrace
 10
1966.78833188059
 20
853.3466939715562
 30
0.0
 11
1966.78833188059
 21
850.0133606382231
 31
0.0
 12
1956.788331880591
 22
851.6800273048897
 32
0.0
 13
1956.788331880591
 23
851.6800273048897
 33
0.0
  0
SOLID
  5
922
330
8B5
100
AcDbEntity
  8
图层3
 62
     0
440
 16777216
100
AcDbTrace
 10
2403.788331880591
 20
853.3466939715562
 30
0.0
 11
2403.788331880591
 21
850.0133606382231
 31
0.0
 12
2413.788331880591
 22
851.6800273048897
 32
0.0
 13
2413.788331880591
 23
851.6800273048897
 33
0.0
  0
MTEXT
  5
923
330
8B5
100
AcDbEntity
  8
图层3
 62
     0
440
 16777216
100
AcDbMText
 10
2185.288331880591
 20
862.1800273048897
 30
0.0
 40
11.0
 41
0.0
 71
     5
 72
     1
  1
457 [18]
 73
     1
 44
1.0
  0
POINT
  5
924
330
8B5
100
AcDbEntity
  8
Defpoints
 62
     0
440
 16777216
100
AcDbPoint
 10
1956.788331880591
 20
598.4912128224317
 30
0.0
  0
POINT
  5
925
330
8B5
100
AcDbEntity
  8
Defpoints
 62
     0
440
 16777216
100
AcDbPoint
 10
2413.788331880591
 20
598.4912128224313
 30
0.0
  0
POINT
  5
926
330
8B5
100
AcDbEntity
  8
Defpoints
 62
     0
440
 16777216
100
AcDbPoint
 10
2413.788331880591
 20
851.6800273048897
 30
0.0
  0
ENDBLK
  5
8B7
330
8B5
100
AcDbEntity
  8
0
100
AcDbBlockEnd
  0
BLOCK
  5
8C2
330
8C1
100
AcDbEntity
  8
0
100
AcDbBlockBegin
  2
*D16
 70
     1
 10
0.0
 20
0.0
 30
0.0
  3
*D16
  1

  0
LINE
  5
8C4
330
8C1
100
AcDbEntity
  8
图层3
 62
     0
440
 16777216
370
    -2
100
AcDbLine
 10
1930.788331880591
 20
801.9912128224325
 30
0.0
 11
1930.788331880591
 21
925.5283113976593
 31
0.0
  0
LINE
  5
8C5
330
8C1
100
AcDbEntity
  8
图层3
 62
     0
440
 16777216
370
    -2
100
AcDbLine
 10
2439.788331880591
 20
801.9912128224325
 30
0.0
 11
2439.788331880591
 21
925.5283113976593
 31
0.0
  0
LINE
  5
8C6
330
8C1
100
AcDbEntity
  8
图层3
 62
     0
440
 16777216
370
    -2
100
AcDbLine
 10
1940.788331880591
 20
924.2783113976592
 30
0.0
 11
2429.788331880591
 21
924.2783113976592
 31
0.0
  0
SOLID
  5
8C7
330
8C1
100
AcDbEntity
  8
图层3
 62
     0
440
 16777216
100
AcDbTrace
 10
1940.788331880591
 20
925.944978064326
 30
0.0
 11
1940.788331880591
 21
922.6116447309928
 31
0.0
 12
1930.788331880591
 22
924.2783113976592
 32
0.0
 13
1930.788331880591
 23
924.2783113976592
 33
0.0
  0
SOLID
  5
8C8
330
8C1
100
AcDbEntity
  8
图层3
 62
     0
440
 16777216
100
AcDbTrace
 10
2429.788331880591
 20
925.944978064326
 30
0.0
 11
2429.788331880591
 21
922.6116447309928
 31
0.0
 12
2439.788331880591
 22
924.2783113976592
 32
0.0
 13
2439.788331880591
 23
924.2783113976592
 33
0.0
  0
MTEXT
  5
8C9
330
8C1
100
AcDbEntity
  8
图层3
 62
     0
440
 16777216
100
AcDbMText
 10
2182.54823956172
 20
934.7783113976593
 30
0.0
 40
11.0
 41
0.0
 71
     5
 72
     1
  1
509 [20]
 73
     1
 44
1.0
  0
POINT
  5
8CA
330
8C1
100
AcDbEntity
  8
Defpoints
 62
     0
440
 16777216
100
AcDbPoint
 10
1930.788331880591
 20
793.9912128224325
 30
0.0
  0
POINT
  5
8CB
330
8C1
100
AcDbEntity
  8
Defpoints
 62
     0
440
 16777216
100
AcDbPoint
 10
2439.788331880591
 20
793.9912128224325
 30
0.0
  0
POINT
  5
8CC
330
8C1
100
AcDbEntity
  8
Defpoints
 62
     0
440
 16777216
100
AcDbPoint
 10
2439.788331880591
 20
924.2783113976592
 30
0.0
  0
ENDBLK
  5
8C3
330
8C1
100
AcDbEntity
  8
0
100
AcDbBlockEnd
  0
BLOCK
  5
8CE
330
8CD
100
AcDbEntity
  8
0
100
AcDbBlockBegin
  2
*D17
 70
     1
 10
0.0
 20
0.0
 30
0.0
  3
*D17
  1

  0
LINE
  5
8D0
330
8CD
100
AcDbEntity
  8
图层3
 62
     0
440
 16777216
370
    -2
100
AcDbLine
 10
2107.288331880591
 20
671.4912128224328
 30
0.0
 11
1901.68432341162
 21
671.4912128224328
 31
0.0
  0
LINE
  5
8D1
330
8CD
100
AcDbEntity
  8
图层3
 62
     0
440
 16777216
370
    -2
100
AcDbLine
 10
2177.288331880591
 20
801.4912128224326
 30
0.0
 11
1901.68432341162
 21
801.4912128224326
 31
0.0
  0
LINE
  5
8D2
330
8CD
100
AcDbEntity
  8
图层3
 62
     0
440
 16777216
370
    -2
100
AcDbLine
 10
1902.93432341162
 20
681.4912128224327
 30
0.0
 11
1902.93432341162
 21
791.4912128224325
 31
0.0
  0
SOLID
  5
8D3
330
8CD
100
AcDbEntity
  8
图层3
 62
     0
440
 16777216
100
AcDbTrace
 10
1901.267656744954
 20
681.4912128224327
 30
0.0
 11
1904.600990078287
 21
681.4912128224327
 31
0.0
 12
1902.93432341162
 22
671.4912128224328
 32
0.0
 13
1902.93432341162
 23
671.4912128224328
 33
0.0
  0
SOLID
  5
8D4
330
8CD
100
AcDbEntity
  8
图层3
 62
     0
440
 16777216
100
AcDbTrace
 10
1901.267656744954
 20
791.4912128224325
 30
0.0
 11
1904.600990078287
 21
791.4912128224325
 31
0.0
 12
1902.93432341162
 22
801.4912128224326
 32
0.0
 13
1902.93432341162
 23
801.4912128224326
 33
0.0
  0
MTEXT
  5
8D5
330
8CD
100
AcDbEntity
  8
图层3
 62
     0
440
 16777216
100
AcDbMText
 10
1892.43432341162
 20
736.4912128224331
 30
0.0
 40
11.0
 41
0.0
 71
     5
 72
     1
  1
130 [5 1/8]
 11
0.0000000000000001
 21
1.0
 31
0.0
 73
     1
 44
1.0
  0
POINT
  5
8D6
330
8CD
100
AcDbEntity
  8
Defpoints
 62
     0
440
 16777216
100
AcDbPoint
 10
2115.288331880591
 20
671.4912128224328
 30
0.0
  0
POINT
  5
8D7
330
8CD
100
AcDbEntity
  8
Defpoints
 62
     0
440
 16777216
100
AcDbPoint
 10
2185.288331880591
 20
801.4912128224326
 30
0.0
  0
POINT
  5
8D8
330
8CD
100
AcDbEntity
  8
Defpoints
 62
     0
440
 16777216
100
AcDbPoint
 10
1902.93432341162
 20
801.4912128224326
 30
0.0
  0
ENDBLK
  5
8CF
330
8CD
100
AcDbEntity
  8
0
100
AcDbBlockEnd
  0
BLOCK
  5
8DA
330
8D9
100
AcDbEntity
  8
0
100
AcDbBlockBegin
  2
*D18
 70
     1
 10
0.0
 20
0.0
 30
0.0
  3
*D18
  1

  0
LINE
  5
927
330
8D9
100
AcDbEntity
  8
图层3
 62
     0
440
 16777216
370
    -2
100
AcDbLine
 10
2177.28833188059
 20
395.4912128224328
 30
0.0
 11
1865.761383139096
 21
395.4912128224329
 31
0.0
  0
LINE
  5
928
330
8D9
100
AcDbEntity
  8
图层3
 62
     0
440
 16777216
370
    -2
100
AcDbLine
 10
1948.78833188059
 20
801.4912128224329
 30
0.0
 11
1865.761383139096
 21
801.4912128224329
 31
0.0
  0
LINE
  5
929
330
8D9
100
AcDbEntity
  8
图层3
 62
     0
440
 16777216
370
    -2
100
AcDbLine
 10
1867.011383139096
 20
405.4912128224327
 30
0.0
 11
1867.011383139096
 21
791.4912128224329
 31
0.0
  0
SOLID
  5
92A
330
8D9
100
AcDbEntity
  8
图层3
 62
     0
440
 16777216
100
AcDbTrace
 10
1865.344716472429
 20
405.4912128224327
 30
0.0
 11
1868.678049805763
 21
405.4912128224327
 31
0.0
 12
1867.011383139096
 22
395.4912128224329
 32
0.0
 13
1867.011383139096
 23
395.4912128224329
 33
0.0
  0
SOLID
  5
92B
330
8D9
100
AcDbEntity
  8
图层3
 62
     0
440
 16777216
100
AcDbTrace
 10
1865.344716472429
 20
791.4912128224329
 30
0.0
 11
1868.678049805763
 21
791.4912128224329
 31
0.0
 12
1867.011383139096
 22
801.4912128224329
 32
0.0
 13
1867.011383139096
 23
801.4912128224329
 33
0.0
  0
MTEXT
  5
92C
330
8D9
100
AcDbEntity
  8
图层3
 62
     0
440
 16777216
100
AcDbMText
 10
1856.511383139096
 20
598.4912128224332
 30
0.0
 40
11.0
 41
0.0
 71
     5
 72
     1
  1
406 [16]
 11
0.0000000000000001
 21
1.0
 31
0.0
 73
     1
 44
1.0
  0
POINT
  5
92D
330
8D9
100
AcDbEntity
  8
Defpoints
 62
     0
440
 16777216
100
AcDbPoint
 10
2185.28833188059
 20
395.4912128224328
 30
0.0
  0
POINT
  5
92E
330
8D9
100
AcDbEntity
  8
Defpoints
 62
     0
440
 16777216
100
AcDbPoint
 10
1956.788331880591
 20
801.4912128224329
 30
0.0
  0
POINT
  5
92F
330
8D9
100
AcDbEntity
  8
Defpoints
 62
     0
440
 16777216
100
AcDbPoint
 10
1867.011383139096
 20
801.4912128224329
 30
0.0
  0
ENDBLK
  5
8DB
330
8D9
100
AcDbEntity
  8
0
100
AcDbBlockEnd
  0
BLOCK
  5
8E6
330
8E5
100
AcDbEntity
  8
0
100
AcDbBlockBegin
  2
*D19
 70
     1
 10
0.0
 20
0.0
 30
0.0
  3
*D19
  1

  0
LINE
  5
8E8
330
8E5
100
AcDbEntity
  8
图层3
 62
     0
440
 16777216
370
    -2
100
AcDbLine
 10
1956.288331880591
 20
369.4912128224328
 30
0.0
 11
1798.423879437255
 21
369.4912128224328
 31
0.0
  0
LINE
  5
8E9
330
8E5
100
AcDbEntity
  8
图层3
 62
     0
440
 16777216
370
    -2
100
AcDbLine
 10
1956.288331880591
 20
827.4912128224325
 30
0.0
 11
1798.423879437255
 21
827.4912128224325
 31
0.0
  0
LINE
  5
8EA
330
8E5
100
AcDbEntity
  8
图层3
 62
     0
440
 16777216
370
    -2
100
AcDbLine
 10
1799.673879437255
 20
379.4912128224328
 30
0.0
 11
1799.673879437255
 21
817.4912128224326
 31
0.0
  0
SOLID
  5
8EB
330
8E5
100
AcDbEntity
  8
图层3
 62
     0
440
 16777216
100
AcDbTrace
 10
1798.007212770588
 20
379.4912128224328
 30
0.0
 11
1801.340546103921
 21
379.4912128224328
 31
0.0
 12
1799.673879437255
 22
369.4912128224328
 32
0.0
 13
1799.673879437255
 23
369.4912128224328
 33
0.0
  0
SOLID
  5
8EC
330
8E5
100
AcDbEntity
  8
图层3
 62
     0
440
 16777216
100
AcDbTrace
 10
1798.007212770588
 20
817.4912128224326
 30
0.0
 11
1801.340546103922
 21
817.4912128224326
 31
0.0
 12
1799.673879437255
 22
827.4912128224325
 32
0.0
 13
1799.673879437255
 23
827.4912128224325
 33
0.0
  0
MTEXT
  5
8ED
330
8E5
100
AcDbEntity
  8
图层3
 62
     0
440
 16777216
100
AcDbMText
 10
1789.173879437255
 20
597.0306906030064
 30
0.0
 40
11.0
 41
0.0
 71
     5
 72
     1
  1
458 [18]
 11
0.0000000000000001
 21
1.0
 31
0.0
 73
     1
 44
1.0
  0
POINT
  5
8EE
330
8E5
100
AcDbEntity
  8
Defpoints
 62
     0
440
 16777216
100
AcDbPoint
 10
1964.288331880591
 20
369.4912128224328
 30
0.0
  0
POINT
  5
8EF
330
8E5
100
AcDbEntity
  8
Defpoints
 62
     0
440
 16777216
100
AcDbPoint
 10
1964.288331880591
 20
827.4912128224325
 30
0.0
  0
POINT
  5
8F0
330
8E5
100
AcDbEntity
  8
Defpoints
 62
     0
440
 16777216
100
AcDbPoint
 10
1799.673879437255
 20
827.4912128224325
 30
0.0
  0
ENDBLK
  5
8E7
330
8E5
100
AcDbEntity
  8
0
100
AcDbBlockEnd
  0
BLOCK
  5
8F2
330
8F1
100
AcDbEntity
  8
0
100
AcDbBlockBegin
  2
*D20
 70
     1
 10
0.0
 20
0.0
 30
0.0
  3
*D20
  1

  0
LINE
  5
8F4
330
8F1
100
AcDbEntity
  8
图层3
 62
     0
440
 16777216
370
    -2
100
AcDbLine
 10
2397.309098524544
 20
600.7993464798892
 30
0.0
 11
2256.22576519121
 21
600.7993464798895
 31
0.0
  0
LINE
  5
8F5
330
8F1
100
AcDbEntity
  8
图层3
 62
     0
440
 16777216
370
    -2
100
AcDbLine
 10
2256.22576519121
 20
600.7993464798895
 30
0.0
 11
2224.317411226246
 21
632.5972420116431
 31
0.0
  0
LINE
  5
8F6
330
8F1
100
AcDbEntity
  8
图层3
 62
     0
440
 16777216
370
    -2
100
AcDbLine
 10
2146.259252534935
 20
710.3851836332222
 30
0.0
 11
2139.175935049336
 21
717.4439805135834
 31
0.0
  0
MTEXT
  5
8F7
102
{ACAD_XDICTIONARY
360
10A7
102
}
330
8F1
100
AcDbEntity
  8
图层3
 62
     0
440
 16777216
100
AcDbMText
 10
2332.225765191211
 20
611.2993464798895
 30
0.0
 40
11.0
 41
0.0
 71
     5
 72
     1
  1
\U+220590.2 [\U+22053 1/2]
 73
     1
 44
1.0
  0
LINE
  5
8F8
330
8F1
100
AcDbEntity
  8
图层3
 62
     0
440
 16777216
370
    -2
100
AcDbLine
 10
2153.342570020535
 20
703.3263867528611
 30
0.0
 11
2217.234093740646
 21
639.6560388920042
 31
0.0
  0
SOLID
  5
8F9
330
8F1
100
AcDbEntity
  8
图层3
 62
     0
440
 16777216
100
AcDbTrace
 10
2147.435718681663
 20
711.5657365474889
 30
0.0
 11
2145.08278638821
 21
709.2046307189557
 31
0.0
 12
2153.342570020535
 22
703.3263867528611
 32
0.0
 13
2153.342570020535
 23
703.3263867528611
 33
0.0
  0
SOLID
  5
8FA
330
8F1
100
AcDbEntity
  8
图层3
 62
     0
440
 16777216
100
AcDbTrace
 10
2225.493877372973
 20
633.7777949259097
 30
0.0
 11
2223.140945079519
 21
631.4166890973766
 31
0.0
 12
2217.234093740646
 22
639.6560388920042
 32
0.0
 13
2217.234093740646
 23
639.6560388920042
 33
0.0
  0
POINT
  5
8FB
330
8F1
100
AcDbEntity
  8
Defpoints
 62
     0
440
 16777216
100
AcDbPoint
 10
2217.234093740646
 20
639.6560388920042
 30
0.0
  0
POINT
  5
8FC
330
8F1
100
AcDbEntity
  8
Defpoints
 62
     0
440
 16777216
100
AcDbPoint
 10
2153.342570020535
 20
703.3263867528611
 30
0.0
  0
ENDBLK
  5
8F3
330
8F1
100
AcDbEntity
  8
0
100
AcDbBlockEnd
  0
BLOCK
  5
8FE
330
8FD
100
AcDbEntity
  8
0
100
AcDbBlockBegin
  2
*D21
 70
     1
 10
0.0
 20
0.0
 30
0.0
  3
*D21
  1

  0
LINE
  5
900
330
8FD
100
AcDbEntity
  8
图层3
 62
     0
440
 16777216
370
    -2
100
AcDbLine
 10
1936.788331880591
 20
801.9912128224325
 30
0.0
 11
1936.788331880591
 21
891.2145491850633
 31
0.0
  0
LINE
  5
901
330
8FD
100
AcDbEntity
  8
图层3
 62
     0
440
 16777216
370
    -2
100
AcDbLine
 10
2433.788331880591
 20
801.9912128224325
 30
0.0
 11
2433.788331880591
 21
891.2145491850633
 31
0.0
  0
LINE
  5
902
330
8FD
100
AcDbEntity
  8
图层3
 62
     0
440
 16777216
370
    -2
100
AcDbLine
 10
1946.788331880591
 20
889.9645491850632
 30
0.0
 11
2423.788331880591
 21
889.9645491850632
 31
0.0
  0
SOLID
  5
903
330
8FD
100
AcDbEntity
  8
图层3
 62
     0
440
 16777216
100
AcDbTrace
 10
1946.788331880591
 20
891.63121585173
 30
0.0
 11
1946.788331880591
 21
888.2978825183966
 31
0.0
 12
1936.788331880591
 22
889.9645491850632
 32
0.0
 13
1936.788331880591
 23
889.9645491850632
 33
0.0
  0
SOLID
  5
904
330
8FD
100
AcDbEntity
  8
图层3
 62
     0
440
 16777216
100
AcDbTrace
 10
2423.788331880591
 20
891.63121585173
 30
0.0
 11
2423.788331880591
 21
888.2978825183966
 31
0.0
 12
2433.788331880591
 22
889.9645491850632
 32
0.0
 13
2433.788331880591
 23
889.9645491850632
 33
0.0
  0
MTEXT
  5
905
330
8FD
100
AcDbEntity
  8
图层3
 62
     0
440
 16777216
100
AcDbMText
 10
2185.288331880591
 20
900.4645491850633
 30
0.0
 40
11.0
 41
0.0
 71
     5
 72
     1
  1
497 [19 5/8]
 73
     1
 44
1.0
  0
POINT
  5
906
330
8FD
100
AcDbEntity
  8
Defpoints
 62
     0
440
 16777216
100
AcDbPoint
 10
1936.788331880591
 20
793.9912128224325
 30
0.0
  0
POINT
  5
907
330
8FD
100
AcDbEntity
  8
Defpoints
 62
     0
440
 16777216
100
AcDbPoint
 10
2433.788331880591
 20
793.9912128224325
 30
0.0
  0
POINT
  5
908
330
8FD
100
AcDbEntity
  8
Defpoints
 62
     0
440
 16777216
100
AcDbPoint
 10
2433.788331880591
 20
889.9645491850632
 30
0.0
  0
ENDBLK
  5
8FF
330
8FD
100
AcDbEntity
  8
0
100
AcDbBlockEnd
  0
BLOCK
  5
90A
330
909
100
AcDbEntity
  8
0
100
AcDbBlockBegin
  2
*D22
 70
     1
 10
0.0
 20
0.0
 30
0.0
  3
*D22
  1

  0
LINE
  5
90C
330
909
100
AcDbEntity
  8
图层3
 62
     0
440
 16777216
370
    -2
100
AcDbLine
 10
1956.288331880591
 20
821.4912128224327
 30
0.0
 11
1828.983415977642
 21
821.4912128224327
 31
0.0
  0
LINE
  5
90D
330
909
100
AcDbEntity
  8
图层3
 62
     0
440
 16777216
370
    -2
100
AcDbLine
 10
1956.288331880591
 20
375.4912128224328
 30
0.0
 11
1828.983415977642
 21
375.4912128224328
 31
0.0
  0
LINE
  5
90E
330
909
100
AcDbEntity
  8
图层3
 62
     0
440
 16777216
370
    -2
100
AcDbLine
 10
1830.233415977642
 20
811.4912128224327
 30
0.0
 11
1830.233415977642
 21
385.4912128224328
 31
0.0
  0
SOLID
  5
90F
330
909
100
AcDbEntity
  8
图层3
 62
     0
440
 16777216
100
AcDbTrace
 10
1828.566749310975
 20
811.4912128224327
 30
0.0
 11
1831.900082644309
 21
811.4912128224327
 31
0.0
 12
1830.233415977642
 22
821.4912128224327
 32
0.0
 13
1830.233415977642
 23
821.4912128224327
 33
0.0
  0
SOLID
  5
910
330
909
100
AcDbEntity
  8
图层3
 62
     0
440
 16777216
100
AcDbTrace
 10
1828.566749310975
 20
385.4912128224328
 30
0.0
 11
1831.900082644309
 21
385.4912128224328
 31
0.0
 12
1830.233415977642
 22
375.4912128224328
 32
0.0
 13
1830.233415977642
 23
375.4912128224328
 33
0.0
  0
MTEXT
  5
911
330
909
100
AcDbEntity
  8
图层3
 62
     0
440
 16777216
100
AcDbMText
 10
1819.733415977642
 20
598.4912128224331
 30
0.0
 40
11.0
 41
0.0
 71
     5
 72
     1
  1
446 [17 1/2]
 11
0.0000000000000001
 21
1.0
 31
0.0
 73
     1
 44
1.0
  0
POINT
  5
912
330
909
100
AcDbEntity
  8
Defpoints
 62
     0
440
 16777216
100
AcDbPoint
 10
1964.288331880591
 20
821.4912128224327
 30
0.0
  0
POINT
  5
913
330
909
100
AcDbEntity
  8
Defpoints
 62
     0
440
 16777216
100
AcDbPoint
 10
1964.288331880591
 20
375.4912128224328
 30
0.0
  0
POINT
  5
914
330
909
100
AcDbEntity
  8
Defpoints
 62
     0
440
 16777216
100
AcDbPoint
 10
1830.233415977642
 20
375.4912128224328
 30
0.0
  0
ENDBLK
  5
90B
330
909
100
AcDbEntity
  8
0
100
AcDbBlockEnd
  0
BLOCK
  5
916
330
915
100
AcDbEntity
  8
0
100
AcDbBlockBegin
  2
*D23
 70
     1
 10
0.0
 20
0.0
 30
0.0
  3
*D23
  1

  0
LINE
  5
936
330
915
100
AcDbEntity
  8
图层3
 62
     0
440
 16777216
370
    -2
100
AcDbLine
 10
2217.298054970396
 20
462.9052878289991
 30
0.0
 11
2350.631388303729
 21
462.9052878289991
 31
0.0
  0
LINE
  5
937
330
915
100
AcDbEntity
  8
图层3
 62
     0
440
 16777216
370
    -2
100
AcDbLine
 10
2350.631388303729
 20
462.9052878289991
 30
0.0
 11
2418.198805163942
 21
390.1697220289809
 31
0.0
  0
MTEXT
  5
938
330
915
100
AcDbEntity
  8
图层3
 62
     0
440
 16777216
100
AcDbMText
 10
2281.464721637063
 20
473.4052878289991
 30
0.0
 40
11.0
 41
0.0
 71
     5
 72
     1
  1
R27.5 [R1 1/8]
 73
     1
 44
1.0
  0
SOLID
  5
939
330
915
100
AcDbEntity
  8
图层3
 62
     0
440
 16777216
100
AcDbTrace
 10
2419.419899525224
 20
391.3040528178715
 30
0.0
 11
2416.97771080266
 21
389.0353912400901
 31
0.0
 12
2425.004789897285
 22
382.843155861294
 32
0.0
 13
2425.004789897285
 23
382.843155861294
 33
0.0
  0
POINT
  5
93A
330
915
100
AcDbEntity
  8
Defpoints
 62
     0
440
 16777216
100
AcDbPoint
 10
2425.004789897285
 20
382.843155861294
 30
0.0
  0
POINT
  5
93B
330
915
100
AcDbEntity
  8
Defpoints
 62
     0
440
 16777216
100
AcDbPoint
 10
2406.288331880591
 20
402.9912128224326
 30
0.0
  0
ENDBLK
  5
917
330
915
100
AcDbEntity
  8
0
100
AcDbBlockEnd
  0
BLOCK
  5
98C
330
98B
100
AcDbEntity
  8
0
100
AcDbBlockBegin
  2
*D24
 70
     1
 10
0.0
 20
0.0
 30
0.0
  3
*D24
  1

  0
LINE
  5
998
330
98B
100
AcDbEntity
  8
图层3
 62
     0
440
 16777216
370
    -2
100
AcDbLine
 10
792.0649111434086
 20
718.2970006541665
 30
0.0
 11
792.0649111434086
 21
957.7526165524403
 31
0.0
  0
LINE
  5
999
330
98B
100
AcDbEntity
  8
图层3
 62
     0
440
 16777216
370
    -2
100
AcDbLine
 10
1272.064911143409
 20
718.2970006541638
 30
0.0
 11
1272.064911143409
 21
957.7526165524403
 31
0.0
  0
LINE
  5
99A
330
98B
100
AcDbEntity
  8
图层3
 62
     0
440
 16777216
370
    -2
100
AcDbLine
 10
802.0649111434085
 20
956.5026165524404
 30
0.0
 11
1262.064911143409
 21
956.5026165524404
 31
0.0
  0
SOLID
  5
99B
330
98B
100
AcDbEntity
  8
图层3
 62
     0
440
 16777216
100
AcDbTrace
 10
802.0649111434085
 20
958.1692832191071
 30
0.0
 11
802.0649111434085
 21
954.8359498857736
 31
0.0
 12
792.0649111434086
 22
956.5026165524404
 32
0.0
 13
792.0649111434086
 23
956.5026165524404
 33
0.0
  0
SOLID
  5
99C
330
98B
100
AcDbEntity
  8
图层3
 62
     0
440
 16777216
100
AcDbTrace
 10
1262.064911143409
 20
958.1692832191071
 30
0.0
 11
1262.064911143409
 21
954.8359498857736
 31
0.0
 12
1272.064911143409
 22
956.5026165524404
 32
0.0
 13
1272.064911143409
 23
956.5026165524404
 33
0.0
  0
MTEXT
  5
99D
330
98B
100
AcDbEntity
  8
图层3
 62
     0
440
 16777216
100
AcDbMText
 10
1032.064911143408
 20
967.0026165524403
 30
0.0
 40
11.0
 41
0.0
 71
     5
 72
     1
  1
480 [18 7/8]
 73
     1
 44
1.0
  0
POINT
  5
99E
330
98B
100
AcDbEntity
  8
Defpoints
 62
     0
440
 16777216
100
AcDbPoint
 10
792.0649111434086
 20
710.2970006541667
 30
0.0
  0
POINT
  5
99F
330
98B
100
AcDbEntity
  8
Defpoints
 62
     0
440
 16777216
100
AcDbPoint
 10
1272.064911143409
 20
710.2970006541639
 30
0.0
  0
POINT
  5
9A0
330
98B
100
AcDbEntity
  8
Defpoints
 62
     0
440
 16777216
100
AcDbPoint
 10
1272.064911143409
 20
956.5026165524404
 30
0.0
  0
ENDBLK
  5
98D
330
98B
100
AcDbEntity
  8
0
100
AcDbBlockEnd
  0
BLOCK
  5
9A4
330
9A3
100
AcDbEntity
  8
0
100
AcDbBlockBegin
  2
*D25
 70
     1
 10
0.0
 20
0.0
 30
0.0
  3
*D25
  1

  0
LINE
  5
9B0
330
9A3
100
AcDbEntity
  8
图层3
 62
     0
440
 16777216
370
    -2
100
AcDbLine
 10
1024.064911143408
 20
924.7970006541676
 30
0.0
 11
737.0191000316228
 21
924.7970006541676
 31
0.0
  0
LINE
  5
9B1
330
9A3
100
AcDbEntity
  8
图层3
 62
     0
440
 16777216
370
    -2
100
AcDbLine
 10
1024.064911143409
 20
495.7970006541677
 30
0.0
 11
737.0191000316226
 21
495.7970006541677
 31
0.0
  0
LINE
  5
9B2
330
9A3
100
AcDbEntity
  8
图层3
 62
     0
440
 16777216
370
    -2
100
AcDbLine
 10
738.2691000316228
 20
914.7970006541678
 30
0.0
 11
738.2691000316226
 21
505.7970006541678
 31
0.0
  0
SOLID
  5
9B3
330
9A3
100
AcDbEntity
  8
图层3
 62
     0
440
 16777216
100
AcDbTrace
 10
736.602433364956
 20
914.7970006541678
 30
0.0
 11
739.9357666982892
 21
914.7970006541678
 31
0.0
 12
738.2691000316228
 22
924.7970006541676
 32
0.0
 13
738.2691000316228
 23
924.7970006541676
 33
0.0
  0
SOLID
  5
9B4
330
9A3
100
AcDbEntity
  8
图层3
 62
     0
440
 16777216
100
AcDbTrace
 10
736.602433364956
 20
505.7970006541678
 30
0.0
 11
739.9357666982892
 21
505.7970006541678
 31
0.0
 12
738.2691000316226
 22
495.7970006541677
 32
0.0
 13
738.2691000316226
 23
495.7970006541677
 33
0.0
  0
MTEXT
  5
9B5
330
9A3
100
AcDbEntity
  8
图层3
 62
     0
440
 16777216
100
AcDbMText
 10
727.7691000316223
 20
710.297000654168
 30
0.0
 40
11.0
 41
0.0
 71
     5
 72
     1
  1
429 [16 7/8]
 11
0.0000000000000001
 21
1.0
 31
0.0
 73
     1
 44
1.0
  0
POINT
  5
9B6
330
9A3
100
AcDbEntity
  8
Defpoints
 62
     0
440
 16777216
100
AcDbPoint
 10
1032.064911143408
 20
924.7970006541676
 30
0.0
  0
POINT
  5
9B7
330
9A3
100
AcDbEntity
  8
Defpoints
 62
     0
440
 16777216
100
AcDbPoint
 10
1032.064911143409
 20
495.7970006541677
 30
0.0
  0
POINT
  5
9B8
330
9A3
100
AcDbEntity
  8
Defpoints
 62
     0
440
 16777216
100
AcDbPoint
 10
738.2691000316226
 20
495.7970006541677
 30
0.0
  0
ENDBLK
  5
9A5
330
9A3
100
AcDbEntity
  8
0
100
AcDbBlockEnd
  0
BLOCK
  5
9BD
330
9BC
100
AcDbEntity
  8
0
100
AcDbBlockBegin
  2
*D26
 70
     1
 10
0.0
 20
0.0
 30
0.0
  3
*D26
  1

  0
LINE
  5
9C5
330
9BC
100
AcDbEntity
  8
图层3
 62
     0
440
 16777216
370
    -2
100
AcDbLine
 10
1122.556401273275
 20
775.4307897361352
 30
0.0
 11
1234.078637470413
 21
878.7109467537822
 31
0.0
  0
MTEXT
  5
9C6
330
9BC
100
AcDbEntity
  8
图层3
 62
     0
440
 16777216
100
AcDbMText
 10
1167.514540229272
 20
831.3773333435227
 30
0.0
 40
11.0
 41
0.0
 71
     5
 72
     1
  1
R91.5 [R3 5/8]
 11
0.7336989223495931
 21
0.6794747172213591
 31
0.0
 73
     1
 44
1.0
  0
SOLID
  5
9C7
330
9BC
100
AcDbEntity
  8
图层3
 62
     0
440
 16777216
100
AcDbTrace
 10
1232.946179608378
 20
879.9337782910317
 30
0.0
 11
1235.211095332449
 21
877.4881152165331
 31
0.0
 12
1241.415626693909
 22
885.5056939259958
 32
0.0
 13
1241.415626693909
 23
885.5056939259958
 33
0.0
  0
POINT
  5
9C8
330
9BC
100
AcDbEntity
  8
Defpoints
 62
     0
440
 16777216
100
AcDbPoint
 10
1241.415626693909
 20
885.5056939259958
 30
0.0
  0
POINT
  5
9C9
330
9BC
100
AcDbEntity
  8
Defpoints
 62
     0
440
 16777216
100
AcDbPoint
 10
1174.28217529892
 20
823.3337573002412
 30
0.0
  0
ENDBLK
  5
9BE
330
9BC
100
AcDbEntity
  8
0
100
AcDbBlockEnd
  0
BLOCK
  5
9CD
330
9CC
100
AcDbEntity
  8
0
100
AcDbBlockBegin
  2
*D27
 70
     1
 10
0.0
 20
0.0
 30
0.0
  3
*D27
  1

  0
LINE
  5
9D5
330
9CC
100
AcDbEntity
  8
图层3
 62
     0
440
 16777216
370
    -2
100
AcDbLine
 10
1037.667180673121
 20
708.4404326678191
 30
0.0
 11
1038.9585315575
 21
914.775428948425
 31
0.0
  0
MTEXT
  5
9D6
330
9CC
100
AcDbEntity
  8
图层3
 62
     0
440
 16777216
100
AcDbMText
 10
1027.680574569504
 20
790.5045399165496
 30
0.0
 40
11.0
 41
0.0
 71
     5
 72
     1
  1
R1111.5 [R43 3/4]
 11
0.0062583934762518
 21
0.9999804160637831
 31
0.0
 73
     1
 44
1.0
  0
SOLID
  5
9D7
330
9CC
100
AcDbEntity
  8
图层3
 62
     0
440
 16777216
100
AcDbTrace
 10
1037.291897530727
 20
914.7858596042187
 30
0.0
 11
1040.625165584272
 21
914.7649982926312
 31
0.0
 12
1039.021115492262
 22
924.7752331090628
 32
0.0
 13
1039.021115492262
 23
924.7752331090628
 33
0.0
  0
POINT
  5
9D8
330
9CC
100
AcDbEntity
  8
Defpoints
 62
     0
440
 16777216
100
AcDbPoint
 10
1039.021115492262
 20
924.7752331090628
 30
0.0
  0
POINT
  5
9D9
330
9CC
100
AcDbEntity
  8
Defpoints
 62
     0
440
 16777216
100
AcDbPoint
 10
1032.064911143408
 20
-186.7029993458324
 30
0.0
  0
ENDBLK
  5
9CE
330
9CC
100
AcDbEntity
  8
0
100
AcDbBlockEnd
  0
BLOCK
  5
9DD
330
9DC
100
AcDbEntity
  8
0
100
AcDbBlockBegin
  2
*D28
 70
     1
 10
0.0
 20
0.0
 30
0.0
  3
*D28
  1

  0
LINE
  5
9E5
330
9DC
100
AcDbEntity
  8
图层3
 62
     0
440
 16777216
370
    -2
100
AcDbLine
 10
1044.13811037942
 20
685.6282123144317
 30
0.0
 11
1261.63585782111
 21
679.5558168404087
 31
0.0
  0
MTEXT
  5
9E6
330
9DC
100
AcDbEntity
  8
图层3
 62
     0
440
 16777216
100
AcDbMText
 10
1126.399208933769
 20
693.8356275367537
 30
0.0
 40
11.0
 41
0.0
 71
     5
 72
     1
  1
R1111.5 [R43 3/4]
 11
0.9996104826851576
 21
-0.027908473730151
 31
0.0
 73
     1
 44
1.0
  0
SOLID
  5
9E7
330
9DC
100
AcDbEntity
  8
图层3
 62
     0
440
 16777216
100
AcDbTrace
 10
1261.682371943994
 20
681.2218343115508
 30
0.0
 11
1261.589343698226
 21
677.8897993692669
 31
0.0
 12
1271.631962647961
 22
679.2767321031074
 32
0.0
 13
1271.631962647961
 23
679.2767321031074
 33
0.0
  0
POINT
  5
9E8
330
9DC
100
AcDbEntity
  8
Defpoints
 62
     0
440
 16777216
100
AcDbPoint
 10
1271.631962647961
 20
679.2767321031074
 30
0.0
  0
POINT
  5
9E9
330
9DC
100
AcDbEntity
  8
Defpoints
 62
     0
440
 16777216
100
AcDbPoint
 10
160.5649111434085
 20
710.2970006541701
 30
0.0
  0
ENDBLK
  5
9DE
330
9DC
100
AcDbEntity
  8
0
100
AcDbBlockEnd
  0
BLOCK
  5
A39
330
A38
100
AcDbEntity
  8
0
100
AcDbBlockBegin
  2
*D29
 70
     1
 10
0.0
 20
0.0
 30
0.0
  3
*D29
  1

  0
LINE
  5
A3A
330
A38
100
AcDbEntity
  8
图层3
 62
     0
440
 16777216
370
    -2
100
AcDbLine
 10
2337.606916129975
 20
928.7866548468576
 30
0.0
 11
2337.606916129975
 21
643.7885067187018
 31
0.0
  0
LINE
  5
A3B
330
A38
100
AcDbEntity
  8
图层3
 62
     0
440
 16777216
370
    -2
100
AcDbLine
 10
2690.906916129975
 20
928.7866548468576
 30
0.0
 11
2690.906916129975
 21
643.7885067187018
 31
0.0
  0
LINE
  5
A3C
330
A38
100
AcDbEntity
  8
图层3
 62
     0
440
 16777216
370
    -2
100
AcDbLine
 10
2352.606916129975
 20
645.0385067187016
 30
0.0
 11
2675.906916129975
 21
645.0385067187016
 31
0.0
  0
SOLID
  5
A3D
330
A38
100
AcDbEntity
  8
图层3
 62
     0
440
 16777216
100
AcDbTrace
 10
2352.606916129975
 20
647.5385067187017
 30
0.0
 11
2352.606916129975
 21
642.5385067187018
 31
0.0
 12
2337.606916129975
 22
645.0385067187016
 32
0.0
 13
2337.606916129975
 23
645.0385067187016
 33
0.0
  0
SOLID
  5
A3E
330
A38
100
AcDbEntity
  8
图层3
 62
     0
440
 16777216
100
AcDbTrace
 10
2675.906916129975
 20
647.5385067187017
 30
0.0
 11
2675.906916129975
 21
642.5385067187018
 31
0.0
 12
2690.906916129975
 22
645.0385067187016
 32
0.0
 13
2690.906916129975
 23
645.0385067187016
 33
0.0
  0
MTEXT
  5
A3F
330
A38
100
AcDbEntity
  8
图层3
 62
     0
440
 16777216
100
AcDbMText
 10
2514.256916129975
 20
661.5385067187016
 30
0.0
 40
21.0
 41
0.0
 71
     5
 72
     1
  1
353.3
 73
     1
 44
1.0
  0
POINT
  5
A40
330
A38
100
AcDbEntity
  8
Defpoints
 62
     0
440
 16777216
100
AcDbPoint
 10
2337.606916129975
 20
936.7866548468576
 30
0.0
  0
POINT
  5
A41
330
A38
100
AcDbEntity
  8
Defpoints
 62
     0
440
 16777216
100
AcDbPoint
 10
2690.906916129975
 20
936.7866548468576
 30
0.0
  0
POINT
  5
A42
330
A38
100
AcDbEntity
  8
Defpoints
 62
     0
440
 16777216
100
AcDbPoint
 10
2690.906916129975
 20
645.0385067187016
 30
0.0
  0
ENDBLK
  5
A43
330
A38
100
AcDbEntity
  8
0
100
AcDbBlockEnd
  0
BLOCK
  5
A45
330
A44
100
AcDbEntity
  8
0
100
AcDbBlockBegin
  2
*D30
 70
     1
 10
0.0
 20
0.0
 30
0.0
  3
*D30
  1

  0
LINE
  5
A46
330
A44
100
AcDbEntity
  8
图层3
 62
     0
440
 16777216
370
    -2
100
AcDbLine
 10
2720.906916129975
 20
928.786654846858
 30
0.0
 11
2720.906916129975
 21
642.2889582001371
 31
0.0
  0
LINE
  5
A47
330
A44
100
AcDbEntity
  8
图层3
 62
     0
440
 16777216
370
    -2
100
AcDbLine
 10
3074.206916129976
 20
928.7866548468583
 30
0.0
 11
3074.206916129976
 21
642.2889582001371
 31
0.0
  0
LINE
  5
A48
330
A44
100
AcDbEntity
  8
图层3
 62
     0
440
 16777216
370
    -2
100
AcDbLine
 10
2735.906916129975
 20
643.5389582001371
 30
0.0
 11
3059.206916129975
 21
643.5389582001371
 31
0.0
  0
SOLID
  5
A49
330
A44
100
AcDbEntity
  8
图层3
 62
     0
440
 16777216
100
AcDbTrace
 10
2735.906916129975
 20
646.0389582001371
 30
0.0
 11
2735.906916129975
 21
641.0389582001371
 31
0.0
 12
2720.906916129975
 22
643.5389582001371
 32
0.0
 13
2720.906916129975
 23
643.5389582001371
 33
0.0
  0
SOLID
  5
A4A
330
A44
100
AcDbEntity
  8
图层3
 62
     0
440
 16777216
100
AcDbTrace
 10
3059.206916129975
 20
646.0389582001371
 30
0.0
 11
3059.206916129975
 21
641.0389582001371
 31
0.0
 12
3074.206916129976
 22
643.5389582001371
 32
0.0
 13
3074.206916129976
 23
643.5389582001371
 33
0.0
  0
MTEXT
  5
A4B
330
A44
100
AcDbEntity
  8
图层3
 62
     0
440
 16777216
100
AcDbMText
 10
2897.556916129975
 20
660.0389582001371
 30
0.0
 40
21.0
 41
0.0
 71
     5
 72
     1
  1
353.3
 73
     1
 44
1.0
  0
POINT
  5
A4C
330
A44
100
AcDbEntity
  8
Defpoints
 62
     0
440
 16777216
100
AcDbPoint
 10
2720.906916129975
 20
936.786654846858
 30
0.0
  0
POINT
  5
A4D
330
A44
100
AcDbEntity
  8
Defpoints
 62
     0
440
 16777216
100
AcDbPoint
 10
3074.206916129976
 20
936.786654846858
 30
0.0
  0
POINT
  5
A4E
330
A44
100
AcDbEntity
  8
Defpoints
 62
     0
440
 16777216
100
AcDbPoint
 10
3074.206916129976
 20
643.5389582001371
 30
0.0
  0
ENDBLK
  5
A4F
330
A44
100
AcDbEntity
  8
0
100
AcDbBlockEnd
  0
BLOCK
  5
A51
330
A50
100
AcDbEntity
  8
0
100
AcDbBlockBegin
  2
*D31
 70
     1
 10
0.0
 20
0.0
 30
0.0
  3
*D31
  1

  0
LINE
  5
A52
330
A50
100
AcDbEntity
  8
图层3
 62
     0
440
 16777216
370
    -2
100
AcDbLine
 10
2312.206916129975
 20
928.7866548468578
 30
0.0
 11
2312.206916129975
 21
595.8029894851057
 31
0.0
  0
LINE
  5
A53
330
A50
100
AcDbEntity
  8
图层3
 62
     0
440
 16777216
370
    -2
100
AcDbLine
 10
3099.606916129975
 20
928.7866548468578
 30
0.0
 11
3099.606916129975
 21
595.8029894851057
 31
0.0
  0
LINE
  5
A54
330
A50
100
AcDbEntity
  8
图层3
 62
     0
440
 16777216
370
    -2
100
AcDbLine
 10
2327.206916129975
 20
597.0529894851059
 30
0.0
 11
3084.606916129975
 21
597.0529894851059
 31
0.0
  0
SOLID
  5
A55
330
A50
100
AcDbEntity
  8
图层3
 62
     0
440
 16777216
100
AcDbTrace
 10
2327.206916129975
 20
599.5529894851061
 30
0.0
 11
2327.206916129975
 21
594.5529894851061
 31
0.0
 12
2312.206916129975
 22
597.0529894851059
 32
0.0
 13
2312.206916129975
 23
597.0529894851059
 33
0.0
  0
SOLID
  5
A56
330
A50
100
AcDbEntity
  8
图层3
 62
     0
440
 16777216
100
AcDbTrace
 10
3084.606916129975
 20
599.5529894851061
 30
0.0
 11
3084.606916129975
 21
594.5529894851061
 31
0.0
 12
3099.606916129975
 22
597.0529894851059
 32
0.0
 13
3099.606916129975
 23
597.0529894851059
 33
0.0
  0
MTEXT
  5
A57
330
A50
100
AcDbEntity
  8
图层3
 62
     0
440
 16777216
100
AcDbMText
 10
2705.906916129975
 20
613.5529894851059
 30
0.0
 40
21.0
 41
0.0
 71
     5
 72
     1
  1
787.4
 73
     1
 44
1.0
  0
POINT
  5
A58
330
A50
100
AcDbEntity
  8
Defpoints
 62
     0
440
 16777216
100
AcDbPoint
 10
2312.206916129975
 20
936.7866548468578
 30
0.0
  0
POINT
  5
A59
330
A50
100
AcDbEntity
  8
Defpoints
 62
     0
440
 16777216
100
AcDbPoint
 10
3099.606916129975
 20
936.7866548468578
 30
0.0
  0
POINT
  5
A5A
330
A50
100
AcDbEntity
  8
Defpoints
 62
     0
440
 16777216
100
AcDbPoint
 10
3099.606916129975
 20
597.0529894851059
 30
0.0
  0
ENDBLK
  5
A5B
330
A50
100
AcDbEntity
  8
0
100
AcDbBlockEnd
  0
BLOCK
  5
A5D
330
A5C
100
AcDbEntity
  8
0
100
AcDbBlockBegin
  2
*D32
 70
     1
 10
0.0
 20
0.0
 30
0.0
  3
*D32
  1

  0
LINE
  5
A5E
330
A5C
100
AcDbEntity
  8
图层3
 62
     0
440
 16777216
370
    -2
100
AcDbLine
 10
2506.256916129975
 20
733.5866548468573
 30
0.0
 11
2262.030172742357
 21
733.5866548468576
 31
0.0
  0
LINE
  5
A5F
330
A5C
100
AcDbEntity
  8
图层3
 62
     0
440
 16777216
370
    -2
100
AcDbLine
 10
2506.256916129975
 20
1139.986654846858
 30
0.0
 11
2262.030172742358
 21
1139.986654846858
 31
0.0
  0
LINE
  5
A60
330
A5C
100
AcDbEntity
  8
图层3
 62
     0
440
 16777216
370
    -2
100
AcDbLine
 10
2263.280172742357
 20
748.5866548468576
 30
0.0
 11
2263.280172742358
 21
1124.986654846857
 31
0.0
  0
SOLID
  5
A61
330
A5C
100
AcDbEntity
  8
图层3
 62
     0
440
 16777216
100
AcDbTrace
 10
2260.780172742357
 20
748.5866548468576
 30
0.0
 11
2265.780172742357
 21
748.5866548468576
 31
0.0
 12
2263.280172742357
 22
733.5866548468576
 32
0.0
 13
2263.280172742357
 23
733.5866548468576
 33
0.0
  0
SOLID
  5
A62
330
A5C
100
AcDbEntity
  8
图层3
 62
     0
440
 16777216
100
AcDbTrace
 10
2260.780172742357
 20
1124.986654846857
 30
0.0
 11
2265.780172742358
 21
1124.986654846857
 31
0.0
 12
2263.280172742358
 22
1139.986654846858
 32
0.0
 13
2263.280172742358
 23
1139.986654846858
 33
0.0
  0
MTEXT
  5
A63
330
A5C
100
AcDbEntity
  8
图层3
 62
     0
440
 16777216
100
AcDbMText
 10
2246.780172742357
 20
936.786654846858
 30
0.0
 40
21.0
 41
0.0
 71
     5
 72
     1
  1
406.4
 11
0.0000000000000001
 21
1.0
 31
0.0
 73
     1
 44
1.0
  0
POINT
  5
A64
330
A5C
100
AcDbEntity
  8
Defpoints
 62
     0
440
 16777216
100
AcDbPoint
 10
2514.256916129975
 20
733.5866548468573
 30
0.0
  0
POINT
  5
A65
330
A5C
100
AcDbEntity
  8
Defpoints
 62
     0
440
 16777216
100
AcDbPoint
 10
2514.256916129975
 20
1139.986654846858
 30
0.0
  0
POINT
  5
A66
330
A5C
100
AcDbEntity
  8
Defpoints
 62
     0
440
 16777216
100
AcDbPoint
 10
2263.280172742358
 20
1139.986654846858
 30
0.0
  0
ENDBLK
  5
A67
330
A5C
100
AcDbEntity
  8
0
100
AcDbBlockEnd
  0
BLOCK
  5
A69
330
A68
100
AcDbEntity
  8
0
100
AcDbBlockBegin
  2
*D33
 70
     1
 10
0.0
 20
0.0
 30
0.0
  3
*D33
  1

  0
LINE
  5
A6A
330
A68
100
AcDbEntity
  8
图层3
 62
     0
440
 16777216
370
    -2
100
AcDbLine
 10
2712.906916129975
 20
708.1866548468573
 30
0.0
 11
2201.990230520095
 21
708.1866548468577
 31
0.0
  0
LINE
  5
A6B
330
A68
100
AcDbEntity
  8
图层3
 62
     0
440
 16777216
370
    -2
100
AcDbLine
 10
2712.906916129975
 20
1165.386654846858
 30
0.0
 11
2201.990230520096
 21
1165.386654846858
 31
0.0
  0
LINE
  5
A6C
330
A68
100
AcDbEntity
  8
图层3
 62
     0
440
 16777216
370
    -2
100
AcDbLine
 10
2203.240230520095
 20
723.1866548468578
 30
0.0
 11
2203.240230520096
 21
1150.386654846858
 31
0.0
  0
SOLID
  5
A6D
330
A68
100
AcDbEntity
  8
图层3
 62
     0
440
 16777216
100
AcDbTrace
 10
2200.740230520096
 20
723.1866548468578
 30
0.0
 11
2205.740230520095
 21
723.1866548468578
 31
0.0
 12
2203.240230520095
 22
708.1866548468577
 32
0.0
 13
2203.240230520095
 23
708.1866548468577
 33
0.0
  0
SOLID
  5
A6E
330
A68
100
AcDbEntity
  8
图层3
 62
     0
440
 16777216
100
AcDbTrace
 10
2200.740230520096
 20
1150.386654846858
 30
0.0
 11
2205.740230520096
 21
1150.386654846858
 31
0.0
 12
2203.240230520096
 22
1165.386654846858
 32
0.0
 13
2203.240230520096
 23
1165.386654846858
 33
0.0
  0
MTEXT
  5
A6F
330
A68
100
AcDbEntity
  8
图层3
 62
     0
440
 16777216
100
AcDbMText
 10
2186.740230520095
 20
936.786654846858
 30
0.0
 40
21.0
 41
0.0
 71
     5
 72
     1
  1
457.2
 11
0.0000000000000001
 21
1.0
 31
0.0
 73
     1
 44
1.0
  0
POINT
  5
A70
330
A68
100
AcDbEntity
  8
Defpoints
 62
     0
440
 16777216
100
AcDbPoint
 10
2720.906916129975
 20
708.1866548468573
 30
0.0
  0
POINT
  5
A71
330
A68
100
AcDbEntity
  8
Defpoints
 62
     0
440
 16777216
100
AcDbPoint
 10
2720.906916129975
 20
1165.386654846858
 30
0.0
  0
POINT
  5
A72
330
A68
100
AcDbEntity
  8
Defpoints
 62
     0
440
 16777216
100
AcDbPoint
 10
2203.240230520096
 20
1165.386654846858
 30
0.0
  0
ENDBLK
  5
A73
330
A68
100
AcDbEntity
  8
0
100
AcDbBlockEnd
  0
BLOCK
  5
A75
330
A74
100
AcDbEntity
  8
0
100
AcDbBlockBegin
  2
*D34
 70
     1
 10
0.0
 20
0.0
 30
0.0
  3
*D34
  1

  0
LINE
  5
A76
330
A74
100
AcDbEntity
  8
图层3
 62
     0
440
 16777216
370
    -2
100
AcDbLine
 10
2435.393418058233
 20
1044.608277320494
 30
0.0
 11
2371.596050504717
 21
1097.701552725592
 31
0.0
  0
MTEXT
  5
A77
330
A74
100
AcDbEntity
  8
图层3
 62
     0
440
 16777216
100
AcDbMText
 10
2419.814243930094
 20
1079.039939108522
 30
0.0
 40
21.0
 41
0.0
 71
     5
 72
     1
  1
R85
 11
0.7686429825724846
 21
-0.6396780169288885
 31
0.0
 73
     1
 44
1.0
  0
SOLID
  5
A78
330
A74
100
AcDbEntity
  8
图层3
 62
     0
440
 16777216
100
AcDbTrace
 10
2373.195245547039
 20
1099.623160182023
 30
0.0
 11
2369.996855462394
 21
1095.779945269161
 31
0.0
 12
2360.066405766129
 22
1107.296722979525
 32
0.0
 13
2360.066405766129
 23
1107.296722979525
 33
0.0
  0
POINT
  5
A79
330
A74
100
AcDbEntity
  8
Defpoints
 62
     0
440
 16777216
100
AcDbPoint
 10
2360.066405766129
 20
1107.296722979525
 30
0.0
  0
POINT
  5
A7A
330
A74
100
AcDbEntity
  8
Defpoints
 62
     0
440
 16777216
100
AcDbPoint
 10
2425.40105928479
 20
1052.924091540569
 30
0.0
  0
ENDBLK
  5
A7B
330
A74
100
AcDbEntity
  8
0
100
AcDbBlockEnd
  0
BLOCK
  5
A7D
330
A7C
100
AcDbEntity
  8
0
100
AcDbBlockBegin
  2
*D35
 70
     1
 10
0.0
 20
0.0
 30
0.0
  3
*D35
  1

  0
LINE
  5
A7E
330
A7C
100
AcDbEntity
  8
图层3
 62
     0
440
 16777216
370
    -2
100
AcDbLine
 10
2976.442327265552
 20
1044.582016717617
 30
0.0
 11
3040.099788334595
 21
1097.842955971851
 31
0.0
  0
MTEXT
  5
A7F
330
A7C
100
AcDbEntity
  8
图层3
 62
     0
440
 16777216
100
AcDbMText
 10
2991.930859538474
 20
1079.054547347534
 30
0.0
 40
21.0
 41
0.0
 71
     5
 72
     1
  1
R85
 11
0.7669573622776285
 21
0.6416980633040299
 31
0.0
 73
     1
 44
1.0
  0
SOLID
  5
A80
330
A7C
100
AcDbEntity
  8
图层3
 62
     0
440
 16777216
100
AcDbTrace
 10
3038.495543176334
 20
1099.760349377545
 30
0.0
 11
3041.704033492854
 21
1095.925562566157
 31
0.0
 12
3051.604148768759
 22
1107.468426921411
 32
0.0
 13
3051.604148768759
 23
1107.468426921411
 33
0.0
  0
POINT
  5
A81
330
A7C
100
AcDbEntity
  8
Defpoints
 62
     0
440
 16777216
100
AcDbPoint
 10
3051.604148768759
 20
1107.468426921411
 30
0.0
  0
POINT
  5
A82
330
A7C
100
AcDbEntity
  8
Defpoints
 62
     0
440
 16777216
100
AcDbPoint
 10
2986.412772975161
 20
1052.924091540569
 30
0.0
  0
ENDBLK
  5
A83
330
A7C
100
AcDbEntity
  8
0
100
AcDbBlockEnd
  0
BLOCK
  5
A85
330
A84
100
AcDbEntity
  8
0
100
AcDbBlockBegin
  2
*D36
 70
     1
 10
0.0
 20
0.0
 30
0.0
  3
*D36
  1

  0
LINE
  5
A86
330
A84
100
AcDbEntity
  8
图层3
 62
     0
440
 16777216
370
    -2
100
AcDbLine
 10
2471.187902854707
 20
884.3457012961479
 30
0.0
 11
2353.216866282471
 21
881.7314078787488
 31
0.0
  0
MTEXT
  5
A87
330
A84
100
AcDbEntity
  8
图层3
 62
     0
440
 16777216
100
AcDbMText
 10
2419.3349856949
 20
899.7006673338246
 30
0.0
 40
21.0
 41
0.0
 71
     5
 72
     1
  1
R2500
 11
0.9997545472223354
 21
0.0221550289610088
 31
0.0
 73
     1
 44
1.0
  0
SOLID
  5
A88
330
A84
100
AcDbEntity
  8
图层3
 62
     0
440
 16777216
100
AcDbTrace
 10
2353.161478710068
 20
884.2307942468048
 30
0.0
 11
2353.272253854873
 21
879.2320215106929
 31
0.0
 12
2338.220548074136
 22
881.3990824443337
 32
0.0
 13
2338.220548074136
 23
881.3990824443337
 33
0.0
  0
POINT
  5
A89
330
A84
100
AcDbEntity
  8
Defpoints
 62
     0
440
 16777216
100
AcDbPoint
 10
2338.220548074136
 20
881.3990824443337
 30
0.0
  0
POINT
  5
A8A
330
A84
100
AcDbEntity
  8
Defpoints
 62
     0
440
 16777216
100
AcDbPoint
 10
4837.606916129974
 20
936.7866548468573
 30
0.0
  0
ENDBLK
  5
A8B
330
A84
100
AcDbEntity
  8
0
100
AcDbBlockEnd
  0
BLOCK
  5
A8D
330
A8C
100
AcDbEntity
  8
0
100
AcDbBlockBegin
  2
*D37
 70
     1
 10
0.0
 20
0.0
 30
0.0
  3
*D37
  1

  0
LINE
  5
A8E
330
A8C
100
AcDbEntity
  8
图层3
 62
     0
440
 16777216
370
    -2
100
AcDbLine
 10
2897.556916129975
 20
863.0866548468572
 30
0.0
 11
2897.556916129975
 21
748.5866548468573
 31
0.0
  0
MTEXT
  5
A8F
330
A8C
100
AcDbEntity
  8
图层3
 62
     0
440
 16777216
100
AcDbMText
 10
2881.056916129974
 20
813.3366548468579
 30
0.0
 40
21.0
 41
0.0
 71
     5
 72
     1
  1
R2000
 11
0.0000000000000001
 21
1.0
 31
0.0
 73
     1
 44
1.0
  0
SOLID
  5
A90
330
A8C
100
AcDbEntity
  8
图层3
 62
     0
440
 16777216
100
AcDbTrace
 10
2895.056916129975
 20
748.5866548468573
 30
0.0
 11
2900.056916129975
 21
748.5866548468573
 31
0.0
 12
2897.556916129975
 22
733.5866548468573
 32
0.0
 13
2897.556916129975
 23
733.5866548468573
 33
0.0
  0
POINT
  5
A91
330
A8C
100
AcDbEntity
  8
Defpoints
 62
     0
440
 16777216
100
AcDbPoint
 10
2897.556916129975
 20
733.5866548468573
 30
0.0
  0
POINT
  5
A92
330
A8C
100
AcDbEntity
  8
Defpoints
 62
     0
440
 16777216
100
AcDbPoint
 10
2897.556916129977
 20
2733.58665484686
 30
0.0
  0
ENDBLK
  5
A93
330
A8C
100
AcDbEntity
  8
0
100
AcDbBlockEnd
  0
BLOCK
  5
A95
330
A94
100
AcDbEntity
  8
0
100
AcDbBlockBegin
  2
*D38
 70
     1
 10
0.0
 20
0.0
 30
0.0
  3
*D38
  1

  0
LINE
  5
A96
330
A94
100
AcDbEntity
  8
图层3
 62
     0
440
 16777216
370
    -2
100
AcDbLine
 10
2889.556916129975
 20
1006.786654846858
 30
0.0
 11
2824.338917086316
 21
1006.786654846858
 31
0.0
  0
LINE
  5
A97
330
A94
100
AcDbEntity
  8
图层3
 62
     0
440
 16777216
370
    -2
100
AcDbLine
 10
2889.556916129975
 20
936.7866548468578
 30
0.0
 11
2824.338917086316
 21
936.7866548468578
 31
0.0
  0
LINE
  5
A98
330
A94
100
AcDbEntity
  8
图层3
 62
     0
440
 16777216
370
    -2
100
AcDbLine
 10
2825.588917086316
 20
991.7866548468575
 30
0.0
 11
2825.588917086316
 21
951.7866548468578
 31
0.0
  0
SOLID
  5
A99
330
A94
100
AcDbEntity
  8
图层3
 62
     0
440
 16777216
100
AcDbTrace
 10
2823.088917086316
 20
991.7866548468575
 30
0.0
 11
2828.088917086316
 21
991.7866548468575
 31
0.0
 12
2825.588917086316
 22
1006.786654846858
 32
0.0
 13
2825.588917086316
 23
1006.786654846858
 33
0.0
  0
SOLID
  5
A9A
330
A94
100
AcDbEntity
  8
图层3
 62
     0
440
 16777216
100
AcDbTrace
 10
2823.088917086316
 20
951.7866548468578
 30
0.0
 11
2828.088917086316
 21
951.7866548468578
 31
0.0
 12
2825.588917086316
 22
936.7866548468578
 32
0.0
 13
2825.588917086316
 23
936.7866548468578
 33
0.0
  0
MTEXT
  5
A9B
330
A94
100
AcDbEntity
  8
图层3
 62
     0
440
 16777216
100
AcDbMText
 10
2809.088917086316
 20
971.7866548468583
 30
0.0
 40
21.0
 41
0.0
 71
     5
 72
     1
  1
70
 11
0.0000000000000001
 21
1.0
 31
0.0
 73
     1
 44
1.0
  0
POINT
  5
A9C
330
A94
100
AcDbEntity
  8
Defpoints
 62
     0
440
 16777216
100
AcDbPoint
 10
2897.556916129975
 20
1006.786654846858
 30
0.0
  0
POINT
  5
A9D
330
A94
100
AcDbEntity
  8
Defpoints
 62
     0
440
 16777216
100
AcDbPoint
 10
2897.556916129975
 20
936.7866548468578
 30
0.0
  0
POINT
  5
A9E
330
A94
100
AcDbEntity
  8
Defpoints
 62
     0
440
 16777216
100
AcDbPoint
 10
2825.588917086316
 20
936.7866548468578
 30
0.0
  0
ENDBLK
  5
A9F
330
A94
100
AcDbEntity
  8
0
100
AcDbBlockEnd
  0
BLOCK
  5
AA1
330
AA0
100
AcDbEntity
  8
0
100
AcDbBlockBegin
  2
*D39
 70
     1
 10
0.0
 20
0.0
 30
0.0
  3
*D39
  1

  0
LINE
  5
AA2
330
AA0
100
AcDbEntity
  8
图层3
 62
     0
440
 16777216
370
    -2
100
AcDbLine
 10
2889.556916129975
 20
1006.786654846858
 30
0.0
 11
2823.750123482234
 21
1006.786654846858
 31
0.0
  0
LINE
  5
AA3
330
AA0
100
AcDbEntity
  8
图层3
 62
     0
440
 16777216
370
    -2
100
AcDbLine
 10
2889.556916129975
 20
1139.986654846858
 30
0.0
 11
2823.750123482234
 21
1139.986654846858
 31
0.0
  0
LINE
  5
AA4
330
AA0
100
AcDbEntity
  8
图层3
 62
     0
440
 16777216
370
    -2
100
AcDbLine
 10
2825.000123482233
 20
1021.786654846857
 30
0.0
 11
2825.000123482234
 21
1124.986654846858
 31
0.0
  0
SOLID
  5
AA5
330
AA0
100
AcDbEntity
  8
图层3
 62
     0
440
 16777216
100
AcDbTrace
 10
2822.500123482234
 20
1021.786654846857
 30
0.0
 11
2827.500123482233
 21
1021.786654846857
 31
0.0
 12
2825.000123482233
 22
1006.786654846858
 32
0.0
 13
2825.000123482233
 23
1006.786654846858
 33
0.0
  0
SOLID
  5
AA6
330
AA0
100
AcDbEntity
  8
图层3
 62
     0
440
 16777216
100
AcDbTrace
 10
2822.500123482234
 20
1124.986654846858
 30
0.0
 11
2827.500123482234
 21
1124.986654846858
 31
0.0
 12
2825.000123482234
 22
1139.986654846858
 32
0.0
 13
2825.000123482234
 23
1139.986654846858
 33
0.0
  0
MTEXT
  5
AA7
330
AA0
100
AcDbEntity
  8
图层3
 62
     0
440
 16777216
100
AcDbMText
 10
2808.500123482234
 20
1073.386654846858
 30
0.0
 40
21.0
 41
0.0
 71
     5
 72
     1
  1
133.2
 11
0.0000000000000001
 21
1.0
 31
0.0
 73
     1
 44
1.0
  0
POINT
  5
AA8
330
AA0
100
AcDbEntity
  8
Defpoints
 62
     0
440
 16777216
100
AcDbPoint
 10
2897.556916129975
 20
1006.786654846858
 30
0.0
  0
POINT
  5
AA9
330
AA0
100
AcDbEntity
  8
Defpoints
 62
     0
440
 16777216
100
AcDbPoint
 10
2897.556916129975
 20
1139.986654846858
 30
0.0
  0
POINT
  5
AAA
330
AA0
100
AcDbEntity
  8
Defpoints
 62
     0
440
 16777216
100
AcDbPoint
 10
2825.000123482234
 20
1139.986654846858
 30
0.0
  0
ENDBLK
  5
AAB
330
AA0
100
AcDbEntity
  8
0
100
AcDbBlockEnd
  0
BLOCK
  5
B44
330
B43
100
AcDbEntity
  8
0
100
AcDbBlockBegin
  2
*D40
 70
     1
 10
0.0
 20
0.0
 30
0.0
  3
*D40
  1

  0
LINE
  5
B46
330
B43
100
AcDbEntity
  8
图层3
 62
     0
440
 16777216
370
    -2
100
AcDbLine
 10
2327.645904822035
 20
705.4439005823025
 30
0.0
 11
2327.645904822035
 21
420.4457524541466
 31
0.0
  0
LINE
  5
B47
330
B43
100
AcDbEntity
  8
图层3
 62
     0
440
 16777216
370
    -2
100
AcDbLine
 10
2680.945904822036
 20
705.4439005823025
 30
0.0
 11
2680.945904822036
 21
420.4457524541466
 31
0.0
  0
LINE
  5
B48
330
B43
100
AcDbEntity
  8
图层3
 62
     0
440
 16777216
370
    -2
100
AcDbLine
 10
2337.645904822035
 20
421.6957524541466
 30
0.0
 11
2670.945904822036
 21
421.6957524541466
 31
0.0
  0
SOLID
  5
B49
330
B43
100
AcDbEntity
  8
图层3
 62
     0
440
 16777216
100
AcDbTrace
 10
2337.645904822035
 20
423.3624191208132
 30
0.0
 11
2337.645904822035
 21
420.02908578748
 31
0.0
 12
2327.645904822035
 22
421.6957524541466
 32
0.0
 13
2327.645904822035
 23
421.6957524541466
 33
0.0
  0
SOLID
  5
B4A
330
B43
100
AcDbEntity
  8
图层3
 62
     0
440
 16777216
100
AcDbTrace
 10
2670.945904822036
 20
423.3624191208132
 30
0.0
 11
2670.945904822036
 21
420.02908578748
 31
0.0
 12
2680.945904822036
 22
421.6957524541466
 32
0.0
 13
2680.945904822036
 23
421.6957524541466
 33
0.0
  0
MTEXT
  5
B4B
330
B43
100
AcDbEntity
  8
图层3
 62
     0
440
 16777216
100
AcDbMText
 10
2504.295904822035
 20
432.1957524541466
 30
0.0
 40
11.0
 41
0.0
 71
     5
 72
     1
  1
353.3 [13 7/8]
 73
     1
 44
1.0
  0
POINT
  5
B4C
330
B43
100
AcDbEntity
  8
Defpoints
 62
     0
440
 16777216
100
AcDbPoint
 10
2327.645904822035
 20
713.4439005823026
 30
0.0
  0
POINT
  5
B4D
330
B43
100
AcDbEntity
  8
Defpoints
 62
     0
440
 16777216
100
AcDbPoint
 10
2680.945904822036
 20
713.4439005823026
 30
0.0
  0
POINT
  5
B4E
330
B43
100
AcDbEntity
  8
Defpoints
 62
     0
440
 16777216
100
AcDbPoint
 10
2680.945904822036
 20
421.6957524541466
 30
0.0
  0
ENDBLK
  5
B45
330
B43
100
AcDbEntity
  8
0
100
AcDbBlockEnd
  0
BLOCK
  5
B50
330
B4F
100
AcDbEntity
  8
0
100
AcDbBlockBegin
  2
*D41
 70
     1
 10
0.0
 20
0.0
 30
0.0
  3
*D41
  1

  0
LINE
  5
BC9
330
B4F
100
AcDbEntity
  8
图层3
 62
     0
440
 16777216
370
    -2
100
AcDbLine
 10
2710.945904822035
 20
705.4439005823076
 30
0.0
 11
2710.945904822035
 21
418.9462039355865
 31
0.0
  0
LINE
  5
BCA
330
B4F
100
AcDbEntity
  8
图层3
 62
     0
440
 16777216
370
    -2
100
AcDbLine
 10
3064.245904822035
 20
705.4439005823077
 30
0.0
 11
3064.245904822035
 21
418.9462039355865
 31
0.0
  0
LINE
  5
BCB
330
B4F
100
AcDbEntity
  8
图层3
 62
     0
440
 16777216
370
    -2
100
AcDbLine
 10
2720.945904822035
 20
420.1962039355866
 30
0.0
 11
3054.245904822035
 21
420.1962039355866
 31
0.0
  0
SOLID
  5
BCC
330
B4F
100
AcDbEntity
  8
图层3
 62
     0
440
 16777216
100
AcDbTrace
 10
2720.945904822035
 20
421.862870602253
 30
0.0
 11
2720.945904822035
 21
418.5295372689199
 31
0.0
 12
2710.945904822035
 22
420.1962039355866
 32
0.0
 13
2710.945904822035
 23
420.1962039355866
 33
0.0
  0
SOLID
  5
BCD
330
B4F
100
AcDbEntity
  8
图层3
 62
     0
440
 16777216
100
AcDbTrace
 10
3054.245904822035
 20
421.862870602253
 30
0.0
 11
3054.245904822035
 21
418.5295372689199
 31
0.0
 12
3064.245904822035
 22
420.1962039355866
 32
0.0
 13
3064.245904822035
 23
420.1962039355866
 33
0.0
  0
MTEXT
  5
BCE
330
B4F
100
AcDbEntity
  8
图层3
 62
     0
440
 16777216
100
AcDbMText
 10
2887.595904822035
 20
430.6962039355862
 30
0.0
 40
11.0
 41
0.0
 71
     5
 72
     1
  1
353.3 [13 7/8]
 73
     1
 44
1.0
  0
POINT
  5
BCF
330
B4F
100
AcDbEntity
  8
Defpoints
 62
     0
440
 16777216
100
AcDbPoint
 10
2710.945904822035
 20
713.4439005823073
 30
0.0
  0
POINT
  5
BD0
330
B4F
100
AcDbEntity
  8
Defpoints
 62
     0
440
 16777216
100
AcDbPoint
 10
3064.245904822035
 20
713.4439005823077
 30
0.0
  0
POINT
  5
BD1
330
B4F
100
AcDbEntity
  8
Defpoints
 62
     0
440
 16777216
100
AcDbPoint
 10
3064.245904822035
 20
420.1962039355866
 30
0.0
  0
ENDBLK
  5
B51
330
B4F
100
AcDbEntity
  8
0
100
AcDbBlockEnd
  0
BLOCK
  5
B5C
330
B5B
100
AcDbEntity
  8
0
100
AcDbBlockBegin
  2
*D42
 70
     1
 10
0.0
 20
0.0
 30
0.0
  3
*D42
  1

  0
LINE
  5
B5E
330
B5B
100
AcDbEntity
  8
图层3
 62
     0
440
 16777216
370
    -2
100
AcDbLine
 10
2302.245904822035
 20
705.4439005823027
 30
0.0
 11
2302.245904822035
 21
372.4602352205512
 31
0.0
  0
LINE
  5
B5F
330
B5B
100
AcDbEntity
  8
图层3
 62
     0
440
 16777216
370
    -2
100
AcDbLine
 10
3089.645904822035
 20
705.4439005823027
 30
0.0
 11
3089.645904822035
 21
372.4602352205512
 31
0.0
  0
LINE
  5
B60
330
B5B
100
AcDbEntity
  8
图层3
 62
     0
440
 16777216
370
    -2
100
AcDbLine
 10
2312.245904822035
 20
373.7102352205512
 30
0.0
 11
3079.645904822037
 21
373.7102352205512
 31
0.0
  0
SOLID
  5
B61
330
B5B
100
AcDbEntity
  8
图层3
 62
     0
440
 16777216
100
AcDbTrace
 10
2312.245904822035
 20
375.3769018872178
 30
0.0
 11
2312.245904822035
 21
372.0435685538844
 31
0.0
 12
2302.245904822035
 22
373.7102352205512
 32
0.0
 13
2302.245904822035
 23
373.7102352205512
 33
0.0
  0
SOLID
  5
B62
330
B5B
100
AcDbEntity
  8
图层3
 62
     0
440
 16777216
100
AcDbTrace
 10
3079.645904822037
 20
375.3769018872178
 30
0.0
 11
3079.645904822037
 21
372.0435685538844
 31
0.0
 12
3089.645904822035
 22
373.7102352205512
 32
0.0
 13
3089.645904822035
 23
373.7102352205512
 33
0.0
  0
MTEXT
  5
B63
330
B5B
100
AcDbEntity
  8
图层3
 62
     0
440
 16777216
100
AcDbMText
 10
2695.945904822035
 20
384.2102352205512
 30
0.0
 40
11.0
 41
0.0
 71
     5
 72
     1
  1
787.4 [31]
 73
     1
 44
1.0
  0
POINT
  5
B64
330
B5B
100
AcDbEntity
  8
Defpoints
 62
     0
440
 16777216
100
AcDbPoint
 10
2302.245904822035
 20
713.4439005823026
 30
0.0
  0
POINT
  5
B65
330
B5B
100
AcDbEntity
  8
Defpoints
 62
     0
440
 16777216
100
AcDbPoint
 10
3089.645904822035
 20
713.4439005823026
 30
0.0
  0
POINT
  5
B66
330
B5B
100
AcDbEntity
  8
Defpoints
 62
     0
440
 16777216
100
AcDbPoint
 10
3089.645904822035
 20
373.7102352205512
 30
0.0
  0
ENDBLK
  5
B5D
330
B5B
100
AcDbEntity
  8
0
100
AcDbBlockEnd
  0
BLOCK
  5
B68
330
B67
100
AcDbEntity
  8
0
100
AcDbBlockBegin
  2
*D43
 70
     1
 10
0.0
 20
0.0
 30
0.0
  3
*D43
  1

  0
LINE
  5
B6A
330
B67
100
AcDbEntity
  8
图层3
 62
     0
440
 16777216
370
    -2
100
AcDbLine
 10
2496.295904822035
 20
510.2439005823026
 30
0.0
 11
2252.069161434418
 21
510.2439005823026
 31
0.0
  0
LINE
  5
B6B
330
B67
100
AcDbEntity
  8
图层3
 62
     0
440
 16777216
370
    -2
100
AcDbLine
 10
2496.295904822036
 20
916.6439005823026
 30
0.0
 11
2252.069161434418
 21
916.6439005823026
 31
0.0
  0
LINE
  5
B6C
330
B67
100
AcDbEntity
  8
图层3
 62
     0
440
 16777216
370
    -2
100
AcDbLine
 10
2253.319161434419
 20
520.2439005823026
 30
0.0
 11
2253.319161434419
 21
906.6439005823026
 31
0.0
  0
SOLID
  5
B6D
330
B67
100
AcDbEntity
  8
图层3
 62
     0
440
 16777216
100
AcDbTrace
 10
2251.652494767752
 20
520.2439005823026
 30
0.0
 11
2254.985828101084
 21
520.2439005823026
 31
0.0
 12
2253.319161434419
 22
510.2439005823026
 32
0.0
 13
2253.319161434419
 23
510.2439005823026
 33
0.0
  0
SOLID
  5
B6E
330
B67
100
AcDbEntity
  8
图层3
 62
     0
440
 16777216
100
AcDbTrace
 10
2251.652494767752
 20
906.6439005823026
 30
0.0
 11
2254.985828101084
 21
906.6439005823026
 31
0.0
 12
2253.319161434419
 22
916.6439005823026
 32
0.0
 13
2253.319161434419
 23
916.6439005823026
 33
0.0
  0
MTEXT
  5
B6F
330
B67
100
AcDbEntity
  8
图层3
 62
     0
440
 16777216
100
AcDbMText
 10
2242.819161434418
 20
713.443900582303
 30
0.0
 40
11.0
 41
0.0
 71
     5
 72
     1
  1
406.4 [16]
 11
0.0000000000000001
 21
1.0
 31
0.0
 73
     1
 44
1.0
  0
POINT
  5
B70
330
B67
100
AcDbEntity
  8
Defpoints
 62
     0
440
 16777216
100
AcDbPoint
 10
2504.295904822035
 20
510.2439005823026
 30
0.0
  0
POINT
  5
B71
330
B67
100
AcDbEntity
  8
Defpoints
 62
     0
440
 16777216
100
AcDbPoint
 10
2504.295904822035
 20
916.6439005823026
 30
0.0
  0
POINT
  5
B72
330
B67
100
AcDbEntity
  8
Defpoints
 62
     0
440
 16777216
100
AcDbPoint
 10
2253.319161434419
 20
916.6439005823026
 30
0.0
  0
ENDBLK
  5
B69
330
B67
100
AcDbEntity
  8
0
100
AcDbBlockEnd
  0
BLOCK
  5
B74
330
B73
100
AcDbEntity
  8
0
100
AcDbBlockBegin
  2
*D44
 70
     1
 10
0.0
 20
0.0
 30
0.0
  3
*D44
  1

  0
LINE
  5
B76
330
B73
100
AcDbEntity
  8
图层3
 62
     0
440
 16777216
370
    -2
100
AcDbLine
 10
2702.945904822036
 20
484.8439005823027
 30
0.0
 11
2192.029219212156
 21
484.8439005823029
 31
0.0
  0
LINE
  5
B77
330
B73
100
AcDbEntity
  8
图层3
 62
     0
440
 16777216
370
    -2
100
AcDbLine
 10
2702.945904822036
 20
942.0439005823027
 30
0.0
 11
2192.029219212156
 21
942.0439005823027
 31
0.0
  0
LINE
  5
B78
330
B73
100
AcDbEntity
  8
图层3
 62
     0
440
 16777216
370
    -2
100
AcDbLine
 10
2193.279219212156
 20
494.8439005823026
 30
0.0
 11
2193.279219212156
 21
932.0439005823027
 31
0.0
  0
SOLID
  5
B79
330
B73
100
AcDbEntity
  8
图层3
 62
     0
440
 16777216
100
AcDbTrace
 10
2191.612552545489
 20
494.8439005823026
 30
0.0
 11
2194.945885878823
 21
494.8439005823026
 31
0.0
 12
2193.279219212156
 22
484.8439005823029
 32
0.0
 13
2193.279219212156
 23
484.8439005823029
 33
0.0
  0
SOLID
  5
B7A
330
B73
100
AcDbEntity
  8
图层3
 62
     0
440
 16777216
100
AcDbTrace
 10
2191.612552545489
 20
932.0439005823027
 30
0.0
 11
2194.945885878823
 21
932.0439005823027
 31
0.0
 12
2193.279219212156
 22
942.0439005823027
 32
0.0
 13
2193.279219212156
 23
942.0439005823027
 33
0.0
  0
MTEXT
  5
B7B
330
B73
100
AcDbEntity
  8
图层3
 62
     0
440
 16777216
100
AcDbMText
 10
2182.779219212156
 20
713.4439005823033
 30
0.0
 40
11.0
 41
0.0
 71
     5
 72
     1
  1
457.2 [18]
 11
0.0000000000000001
 21
1.0
 31
0.0
 73
     1
 44
1.0
  0
POINT
  5
B7C
330
B73
100
AcDbEntity
  8
Defpoints
 62
     0
440
 16777216
100
AcDbPoint
 10
2710.945904822035
 20
484.8439005823027
 30
0.0
  0
POINT
  5
B7D
330
B73
100
AcDbEntity
  8
Defpoints
 62
     0
440
 16777216
100
AcDbPoint
 10
2710.945904822035
 20
942.0439005823027
 30
0.0
  0
POINT
  5
B7E
330
B73
100
AcDbEntity
  8
Defpoints
 62
     0
440
 16777216
100
AcDbPoint
 10
2193.279219212156
 20
942.0439005823027
 30
0.0
  0
ENDBLK
  5
B75
330
B73
100
AcDbEntity
  8
0
100
AcDbBlockEnd
  0
BLOCK
  5
B80
330
B7F
100
AcDbEntity
  8
0
100
AcDbBlockBegin
  2
*D45
 70
     1
 10
0.0
 20
0.0
 30
0.0
  3
*D45
  1

  0
LINE
  5
BB9
330
B7F
100
AcDbEntity
  8
图层3
 62
     0
440
 16777216
370
    -2
100
AcDbLine
 10
2541.824369468137
 20
829.2614982675493
 30
0.0
 11
2415.824369468137
 21
829.2614982675495
 31
0.0
  0
LINE
  5
BBA
330
B7F
100
AcDbEntity
  8
图层3
 62
     0
440
 16777216
370
    -2
100
AcDbLine
 10
2415.824369468137
 20
829.2614982675495
 30
0.0
 11
2357.791824283914
 21
877.5571885456812
 31
0.0
  0
MTEXT
  5
BBB
330
B7F
100
AcDbEntity
  8
图层3
 62
     0
440
 16777216
100
AcDbMText
 10
2481.324369468137
 20
839.7614982675493
 30
0.0
 40
11.0
 41
0.0
 71
     5
 72
     1
  1
R85 [R3 3/8]
 73
     1
 44
1.0
  0
SOLID
  5
BBC
330
B7F
100
AcDbEntity
  8
图层3
 62
     0
440
 16777216
100
AcDbTrace
 10
2358.857954312129
 20
878.8382601833019
 30
0.0
 11
2356.7256942557
 21
876.2761169080603
 31
0.0
 12
2350.105394458189
 22
883.9539687149702
 32
0.0
 13
2350.105394458189
 23
883.9539687149702
 33
0.0
  0
POINT
  5
BBD
330
B7F
100
AcDbEntity
  8
Defpoints
 62
     0
440
 16777216
100
AcDbPoint
 10
2350.105394458189
 20
883.9539687149702
 30
0.0
  0
POINT
  5
BBE
330
B7F
100
AcDbEntity
  8
Defpoints
 62
     0
440
 16777216
100
AcDbPoint
 10
2415.44004797685
 20
829.5813372760147
 30
0.0
  0
ENDBLK
  5
B81
330
B7F
100
AcDbEntity
  8
0
100
AcDbBlockEnd
  0
BLOCK
  5
B88
330
B87
100
AcDbEntity
  8
0
100
AcDbBlockBegin
  2
*D46
 70
     1
 10
0.0
 20
0.0
 30
0.0
  3
*D46
  1

  0
LINE
  5
BD2
330
B87
100
AcDbEntity
  8
图层3
 62
     0
440
 16777216
370
    -2
100
AcDbLine
 10
2850.068282986081
 20
829.2604882443626
 30
0.0
 11
2976.068282986081
 21
829.2604882443621
 31
0.0
  0
LINE
  5
BD3
330
B87
100
AcDbEntity
  8
图层3
 62
     0
440
 16777216
370
    -2
100
AcDbLine
 10
2976.068282986081
 20
829.2604882443621
 30
0.0
 11
3033.973563838042
 21
877.7086920238167
 31
0.0
  0
MTEXT
  5
BD4
330
B87
100
AcDbEntity
  8
图层3
 62
     0
440
 16777216
100
AcDbMText
 10
2910.568282986081
 20
839.7604882443626
 30
0.0
 40
11.0
 41
0.0
 71
     5
 72
     1
  1
R85 [R3 3/8]
 73
     1
 44
1.0
  0
SOLID
  5
BD5
330
B87
100
AcDbEntity
  8
图层3
 62
     0
440
 16777216
100
AcDbTrace
 10
3032.90406706587
 20
878.9869542942794
 30
0.0
 11
3035.043060610215
 21
876.430429753354
 31
0.0
 12
3041.643137460819
 22
884.1256726568571
 32
0.0
 13
3041.643137460819
 23
884.1256726568571
 33
0.0
  0
POINT
  5
BD6
330
B87
100
AcDbEntity
  8
Defpoints
 62
     0
440
 16777216
100
AcDbPoint
 10
3041.643137460819
 20
884.1256726568571
 30
0.0
  0
POINT
  5
BD7
330
B87
100
AcDbEntity
  8
Defpoints
 62
     0
440
 16777216
100
AcDbPoint
 10
2976.45176166722
 20
829.5813372760141
 30
0.0
  0
ENDBLK
  5
B89
330
B87
100
AcDbEntity
  8
0
100
AcDbBlockEnd
  0
BLOCK
  5
B90
330
B8F
100
AcDbEntity
  8
0
100
AcDbBlockBegin
  2
*D47
 70
     1
 10
0.0
 20
0.0
 30
0.0
  3
*D47
  1

  0
LINE
  5
BC4
330
B8F
100
AcDbEntity
  8
图层3
 62
     0
440
 16777216
370
    -2
100
AcDbLine
 10
2508.548606781956
 20
662.051618402414
 30
0.0
 11
2338.257082238418
 21
658.2778784693886
 31
0.0
  0
MTEXT
  5
BC5
330
B8F
100
AcDbEntity
  8
图层3
 62
     0
440
 16777216
100
AcDbMText
 10
2428.168989442208
 20
670.7729463265409
 30
0.0
 40
11.0
 41
0.0
 71
     5
 72
     1
  1
R2500 [R98 3/8]
 11
0.9997545472223354
 21
0.0221550289610088
 31
0.0
 73
     1
 44
1.0
  0
SOLID
  5
BC6
330
B8F
100
AcDbEntity
  8
图层3
 62
     0
440
 16777216
100
AcDbTrace
 10
2338.22015719015
 20
659.9441360480926
 30
0.0
 11
2338.294007286687
 21
656.611620890685
 31
0.0
 12
2328.259536766195
 22
658.0563281797785
 32
0.0
 13
2328.259536766195
 23
658.0563281797785
 33
0.0
  0
POINT
  5
BC7
330
B8F
100
AcDbEntity
  8
Defpoints
 62
     0
440
 16777216
100
AcDbPoint
 10
2328.259536766195
 20
658.0563281797785
 30
0.0
  0
POINT
  5
BC8
330
B8F
100
AcDbEntity
  8
Defpoints
 62
     0
440
 16777216
100
AcDbPoint
 10
4827.645904822035
 20
713.4439005823022
 30
0.0
  0
ENDBLK
  5
B91
330
B8F
100
AcDbEntity
  8
0
100
AcDbBlockEnd
  0
BLOCK
  5
B98
330
B97
100
AcDbEntity
  8
0
100
AcDbBlockBegin
  2
*D48
 70
     1
 10
0.0
 20
0.0
 30
0.0
  3
*D48
  1

  0
LINE
  5
BBF
330
B97
100
AcDbEntity
  8
图层3
 62
     0
440
 16777216
370
    -2
100
AcDbLine
 10
2887.595904822035
 20
688.7439005823007
 30
0.0
 11
2887.595904822035
 21
520.2439005823007
 31
0.0
  0
MTEXT
  5
BC0
330
B97
100
AcDbEntity
  8
图层3
 62
     0
440
 16777216
100
AcDbMText
 10
2877.095904822035
 20
609.4939005823013
 30
0.0
 40
11.0
 41
0.0
 71
     5
 72
     1
  1
R2000 [R78 3/4]
 11
0.0000000000000001
 21
1.0
 31
0.0
 73
     1
 44
1.0
  0
SOLID
  5
BC1
330
B97
100
AcDbEntity
  8
图层3
 62
     0
440
 16777216
100
AcDbTrace
 10
2885.929238155367
 20
520.2439005823007
 30
0.0
 11
2889.2625714887
 21
520.2439005823007
 31
0.0
 12
2887.595904822035
 22
510.2439005823007
 32
0.0
 13
2887.595904822035
 23
510.2439005823007
 33
0.0
  0
POINT
  5
BC2
330
B97
100
AcDbEntity
  8
Defpoints
 62
     0
440
 16777216
100
AcDbPoint
 10
2887.595904822035
 20
510.2439005823007
 30
0.0
  0
POINT
  5
BC3
330
B97
100
AcDbEntity
  8
Defpoints
 62
     0
440
 16777216
100
AcDbPoint
 10
2887.595904822035
 20
2510.243900582303
 30
0.0
  0
ENDBLK
  5
B99
330
B97
100
AcDbEntity
  8
0
100
AcDbBlockEnd
  0
BLOCK
  5
BA0
330
B9F
100
AcDbEntity
  8
0
100
AcDbBlockBegin
  2
*D49
 70
     1
 10
0.0
 20
0.0
 30
0.0
  3
*D49
  1

  0
LINE
  5
BA2
330
B9F
100
AcDbEntity
  8
图层3
 62
     0
440
 16777216
370
    -2
100
AcDbLine
 10
2879.595904822035
 20
783.4439005823027
 30
0.0
 11
2814.377905778376
 21
783.4439005823027
 31
0.0
  0
LINE
  5
BA3
330
B9F
100
AcDbEntity
  8
图层3
 62
     0
440
 16777216
370
    -2
100
AcDbLine
 10
2879.595904822035
 20
713.4439005823026
 30
0.0
 11
2814.377905778376
 21
713.4439005823026
 31
0.0
  0
LINE
  5
BA4
330
B9F
100
AcDbEntity
  8
图层3
 62
     0
440
 16777216
370
    -2
100
AcDbLine
 10
2815.627905778376
 20
773.4439005823027
 30
0.0
 11
2815.627905778376
 21
723.4439005823027
 31
0.0
  0
LINE
  5
BA5
330
B9F
100
AcDbEntity
  8
图层3
 62
     0
440
 16777216
370
    -2
100
AcDbLine
 10
2815.627905778376
 20
713.4439005823026
 30
0.0
 11
2815.627905778376
 21
703.4439005823027
 31
0.0
  0
LINE
  5
BA6
330
B9F
100
AcDbEntity
  8
图层3
 62
     0
440
 16777216
370
    -2
100
AcDbLine
 10
2815.627905778376
 20
703.4439005823027
 30
0.0
 11
2713.46123911171
 21
703.4439005823027
 31
0.0
  0
SOLID
  5
BA7
330
B9F
100
AcDbEntity
  8
图层3
 62
     0
440
 16777216
100
AcDbTrace
 10
2813.961239111709
 20
773.4439005823027
 30
0.0
 11
2817.294572445043
 21
773.4439005823027
 31
0.0
 12
2815.627905778376
 22
783.4439005823027
 32
0.0
 13
2815.627905778376
 23
783.4439005823027
 33
0.0
  0
SOLID
  5
BA8
330
B9F
100
AcDbEntity
  8
图层3
 62
     0
440
 16777216
100
AcDbTrace
 10
2813.961239111709
 20
723.4439005823027
 30
0.0
 11
2817.294572445043
 21
723.4439005823027
 31
0.0
 12
2815.627905778376
 22
713.4439005823026
 32
0.0
 13
2815.627905778376
 23
713.4439005823026
 33
0.0
  0
MTEXT
  5
BA9
330
B9F
100
AcDbEntity
  8
图层3
 62
     0
440
 16777216
100
AcDbMText
 10
2762.044572445042
 20
713.9439005823033
 30
0.0
 40
11.0
 41
0.0
 71
     5
 72
     1
  1
70 [2 3/4]
 73
     1
 44
1.0
  0
POINT
  5
BAA
330
B9F
100
AcDbEntity
  8
Defpoints
 62
     0
440
 16777216
100
AcDbPoint
 10
2887.595904822035
 20
783.4439005823027
 30
0.0
  0
POINT
  5
BAB
330
B9F
100
AcDbEntity
  8
Defpoints
 62
     0
440
 16777216
100
AcDbPoint
 10
2887.595904822035
 20
713.4439005823026
 30
0.0
  0
POINT
  5
BAC
330
B9F
100
AcDbEntity
  8
Defpoints
 62
     0
440
 16777216
100
AcDbPoint
 10
2815.627905778376
 20
713.4439005823026
 30
0.0
  0
ENDBLK
  5
BA1
330
B9F
100
AcDbEntity
  8
0
100
AcDbBlockEnd
  0
BLOCK
  5
BAE
330
BAD
100
AcDbEntity
  8
0
100
AcDbBlockBegin
  2
*D50
 70
     1
 10
0.0
 20
0.0
 30
0.0
  3
*D50
  1

  0
LINE
  5
BB0
330
BAD
100
AcDbEntity
  8
图层3
 62
     0
440
 16777216
370
    -2
100
AcDbLine
 10
2879.595904822036
 20
783.4439005823027
 30
0.0
 11
2813.789112174294
 21
783.4439005823027
 31
0.0
  0
LINE
  5
BB1
330
BAD
100
AcDbEntity
  8
图层3
 62
     0
440
 16777216
370
    -2
100
AcDbLine
 10
2879.595904822036
 20
916.6439005823026
 30
0.0
 11
2813.789112174294
 21
916.6439005823026
 31
0.0
  0
LINE
  5
BB2
330
BAD
100
AcDbEntity
  8
图层3
 62
     0
440
 16777216
370
    -2
100
AcDbLine
 10
2815.039112174294
 20
793.4439005823027
 30
0.0
 11
2815.039112174294
 21
906.6439005823026
 31
0.0
  0
SOLID
  5
BB3
330
BAD
100
AcDbEntity
  8
图层3
 62
     0
440
 16777216
100
AcDbTrace
 10
2813.372445507628
 20
793.4439005823027
 30
0.0
 11
2816.705778840961
 21
793.4439005823027
 31
0.0
 12
2815.039112174294
 22
783.4439005823027
 32
0.0
 13
2815.039112174294
 23
783.4439005823027
 33
0.0
  0
SOLID
  5
BB4
330
BAD
100
AcDbEntity
  8
图层3
 62
     0
440
 16777216
100
AcDbTrace
 10
2813.372445507628
 20
906.6439005823026
 30
0.0
 11
2816.705778840961
 21
906.6439005823026
 31
0.0
 12
2815.039112174294
 22
916.6439005823026
 32
0.0
 13
2815.039112174294
 23
916.6439005823026
 33
0.0
  0
MTEXT
  5
BB5
330
BAD
100
AcDbEntity
  8
图层3
 62
     0
440
 16777216
100
AcDbMText
 10
2804.539112174294
 20
850.0439005823032
 30
0.0
 40
11.0
 41
0.0
 71
     5
 72
     1
  1
133.2 [5 1/4]
 11
0.0000000000000001
 21
1.0
 31
0.0
 73
     1
 44
1.0
  0
POINT
  5
BB6
330
BAD
100
AcDbEntity
  8
Defpoints
 62
     0
440
 16777216
100
AcDbPoint
 10
2887.595904822035
 20
783.4439005823027
 30
0.0
  0
POINT
  5
BB7
330
BAD
100
AcDbEntity
  8
Defpoints
 62
     0
440
 16777216
100
AcDbPoint
 10
2887.595904822035
 20
916.6439005823026
 30
0.0
  0
POINT
  5
BB8
330
BAD
100
AcDbEntity
  8
Defpoints
 62
     0
440
 16777216
100
AcDbPoint
 10
2815.039112174294
 20
916.6439005823026
 30
0.0
  0
ENDBLK
  5
BAF
330
BAD
100
AcDbEntity
  8
0
100
AcDbBlockEnd
  0
BLOCK
  5
BF4
330
BF3
100
AcDbEntity
  8
0
100
AcDbBlockBegin
  2
*D51
 70
     1
 10
0.0
 20
0.0
 30
0.0
  3
*D51
  1

  0
LINE
  5
C73
330
BF3
100
AcDbEntity
  8
图层3
 62
     0
440
 16777216
370
    -2
100
AcDbLine
 10
685.0815346448435
 20
690.3443127011581
 30
0.0
 11
685.0815346448435
 21
922.6587847574407
 31
0.0
  0
LINE
  5
C74
330
BF3
100
AcDbEntity
  8
图层3
 62
     0
440
 16777216
370
    -2
100
AcDbLine
 10
1411.681534644843
 20
690.3443127011581
 30
0.0
 11
1411.681534644843
 21
922.6587847574407
 31
0.0
  0
LINE
  5
C75
330
BF3
100
AcDbEntity
  8
图层3
 62
     0
440
 16777216
370
    -2
100
AcDbLine
 10
695.0815346448434
 20
921.4087847574408
 30
0.0
 11
1401.681534644843
 21
921.4087847574408
 31
0.0
  0
SOLID
  5
C76
330
BF3
100
AcDbEntity
  8
图层3
 62
     0
440
 16777216
100
AcDbTrace
 10
695.0815346448434
 20
923.0754514241077
 30
0.0
 11
695.0815346448434
 21
919.7421180907744
 31
0.0
 12
685.0815346448435
 22
921.4087847574408
 32
0.0
 13
685.0815346448435
 23
921.4087847574408
 33
0.0
  0
SOLID
  5
C77
330
BF3
100
AcDbEntity
  8
图层3
 62
     0
440
 16777216
100
AcDbTrace
 10
1401.681534644843
 20
923.0754514241077
 30
0.0
 11
1401.681534644843
 21
919.7421180907744
 31
0.0
 12
1411.681534644843
 22
921.4087847574408
 32
0.0
 13
1411.681534644843
 23
921.4087847574408
 33
0.0
  0
MTEXT
  5
C78
330
BF3
100
AcDbEntity
  8
图层3
 62
     0
440
 16777216
100
AcDbMText
 10
1048.381534644843
 20
931.9087847574408
 30
0.0
 40
11.0
 41
0.0
 71
     5
 72
     1
  1
726.6 [28 5/8]
 73
     1
 44
1.0
  0
POINT
  5
C79
330
BF3
100
AcDbEntity
  8
Defpoints
 62
     0
440
 16777216
100
AcDbPoint
 10
685.0815346448435
 20
682.3443127011577
 30
0.0
  0
POINT
  5
C7A
330
BF3
100
AcDbEntity
  8
Defpoints
 62
     0
440
 16777216
100
AcDbPoint
 10
1411.681534644843
 20
682.3443127011577
 30
0.0
  0
POINT
  5
C7B
330
BF3
100
AcDbEntity
  8
Defpoints
 62
     0
440
 16777216
100
AcDbPoint
 10
1411.681534644843
 20
921.4087847574408
 30
0.0
  0
ENDBLK
  5
BF5
330
BF3
100
AcDbEntity
  8
0
100
AcDbBlockEnd
  0
BLOCK
  5
C0C
330
C0B
100
AcDbEntity
  8
0
100
AcDbBlockBegin
  2
*D52
 70
     1
 10
0.0
 20
0.0
 30
0.0
  3
*D52
  1

  0
LINE
  5
C7C
330
C0B
100
AcDbEntity
  8
图层3
 62
     0
440
 16777216
370
    -2
100
AcDbLine
 10
675.0815346448432
 20
690.3443127011581
 30
0.0
 11
675.0815346448432
 21
962.6338097781699
 31
0.0
  0
LINE
  5
C7D
330
C0B
100
AcDbEntity
  8
图层3
 62
     0
440
 16777216
370
    -2
100
AcDbLine
 10
1421.681534644843
 20
690.3443127011581
 30
0.0
 11
1421.681534644843
 21
962.6338097781699
 31
0.0
  0
LINE
  5
C7E
330
C0B
100
AcDbEntity
  8
图层3
 62
     0
440
 16777216
370
    -2
100
AcDbLine
 10
685.0815346448435
 20
961.3838097781695
 30
0.0
 11
1411.681534644843
 21
961.3838097781695
 31
0.0
  0
SOLID
  5
C7F
330
C0B
100
AcDbEntity
  8
图层3
 62
     0
440
 16777216
100
AcDbTrace
 10
685.0815346448435
 20
963.0504764448366
 30
0.0
 11
685.0815346448435
 21
959.7171431115032
 31
0.0
 12
675.0815346448432
 22
961.3838097781695
 32
0.0
 13
675.0815346448432
 23
961.3838097781695
 33
0.0
  0
SOLID
  5
C80
330
C0B
100
AcDbEntity
  8
图层3
 62
     0
440
 16777216
100
AcDbTrace
 10
1411.681534644843
 20
963.0504764448366
 30
0.0
 11
1411.681534644843
 21
959.7171431115032
 31
0.0
 12
1421.681534644843
 22
961.3838097781695
 32
0.0
 13
1421.681534644843
 23
961.3838097781695
 33
0.0
  0
MTEXT
  5
C81
330
C0B
100
AcDbEntity
  8
图层3
 62
     0
440
 16777216
100
AcDbMText
 10
1048.381534644843
 20
971.8838097781699
 30
0.0
 40
11.0
 41
0.0
 71
     5
 72
     1
  1
746.6 [29 3/8]
 73
     1
 44
1.0
  0
POINT
  5
C82
330
C0B
100
AcDbEntity
  8
Defpoints
 62
     0
440
 16777216
100
AcDbPoint
 10
675.0815346448432
 20
682.3443127011577
 30
0.0
  0
POINT
  5
C83
330
C0B
100
AcDbEntity
  8
Defpoints
 62
     0
440
 16777216
100
AcDbPoint
 10
1421.681534644843
 20
682.3443127011577
 30
0.0
  0
POINT
  5
C84
330
C0B
100
AcDbEntity
  8
Defpoints
 62
     0
440
 16777216
100
AcDbPoint
 10
1421.681534644843
 20
961.3838097781695
 30
0.0
  0
ENDBLK
  5
C0D
330
C0B
100
AcDbEntity
  8
0
100
AcDbBlockEnd
  0
BLOCK
  5
C24
330
C23
100
AcDbEntity
  8
0
100
AcDbBlockBegin
  2
*D53
 70
     1
 10
0.0
 20
0.0
 30
0.0
  3
*D53
  1

  0
LINE
  5
C85
330
C23
100
AcDbEntity
  8
图层3
 62
     0
440
 16777216
370
    -2
100
AcDbLine
 10
1040.381534644843
 20
878.3901995875414
 30
0.0
 11
639.9102173655847
 21
878.3901995875414
 31
0.0
  0
LINE
  5
C86
330
C23
100
AcDbEntity
  8
图层3
 62
     0
440
 16777216
370
    -2
100
AcDbLine
 10
1040.381534644843
 20
486.2984258147752
 30
0.0
 11
639.9102173655847
 21
486.2984258147752
 31
0.0
  0
LINE
  5
C87
330
C23
100
AcDbEntity
  8
图层3
 62
     0
440
 16777216
370
    -2
100
AcDbLine
 10
641.1602173655847
 20
868.3901995875414
 30
0.0
 11
641.1602173655847
 21
496.2984258147751
 31
0.0
  0
SOLID
  5
C88
330
C23
100
AcDbEntity
  8
图层3
 62
     0
440
 16777216
100
AcDbTrace
 10
639.4935506989181
 20
868.3901995875414
 30
0.0
 11
642.8268840322513
 21
868.3901995875414
 31
0.0
 12
641.1602173655847
 22
878.3901995875414
 32
0.0
 13
641.1602173655847
 23
878.3901995875414
 33
0.0
  0
SOLID
  5
C89
330
C23
100
AcDbEntity
  8
图层3
 62
     0
440
 16777216
100
AcDbTrace
 10
639.4935506989177
 20
496.2984258147751
 30
0.0
 11
642.8268840322513
 21
496.2984258147751
 31
0.0
 12
641.1602173655847
 22
486.2984258147752
 32
0.0
 13
641.1602173655847
 23
486.2984258147752
 33
0.0
  0
MTEXT
  5
C8A
330
C23
100
AcDbEntity
  8
图层3
 62
     0
440
 16777216
100
AcDbMText
 10
630.6602173655845
 20
682.3443127011585
 30
0.0
 40
11.0
 41
0.0
 71
     5
 72
     1
  1
392.09 [15 3/8]
 11
0.0000000000000001
 21
1.0
 31
0.0
 73
     1
 44
1.0
  0
POINT
  5
C8B
330
C23
100
AcDbEntity
  8
Defpoints
 62
     0
440
 16777216
100
AcDbPoint
 10
1048.381534644843
 20
878.3901995875414
 30
0.0
  0
POINT
  5
C8C
330
C23
100
AcDbEntity
  8
Defpoints
 62
     0
440
 16777216
100
AcDbPoint
 10
1048.381534644843
 20
486.2984258147752
 30
0.0
  0
POINT
  5
C8D
330
C23
100
AcDbEntity
  8
Defpoints
 62
     0
440
 16777216
100
AcDbPoint
 10
641.1602173655847
 20
486.2984258147752
 30
0.0
  0
ENDBLK
  5
C25
330
C23
100
AcDbEntity
  8
0
100
AcDbBlockEnd
  0
BLOCK
  5
C3C
330
C3B
100
AcDbEntity
  8
0
100
AcDbBlockBegin
  2
*D54
 70
     1
 10
0.0
 20
0.0
 30
0.0
  3
*D54
  1

  0
LINE
  5
C8E
330
C3B
100
AcDbEntity
  8
图层3
 62
     0
440
 16777216
370
    -2
100
AcDbLine
 10
1040.381534644843
 20
476.2984258147747
 30
0.0
 11
601.7815223655197
 21
476.2984258147751
 31
0.0
  0
LINE
  5
C8F
330
C3B
100
AcDbEntity
  8
图层3
 62
     0
440
 16777216
370
    -2
100
AcDbLine
 10
1040.381534644843
 20
888.3901995875415
 30
0.0
 11
601.7815223655197
 21
888.3901995875415
 31
0.0
  0
LINE
  5
C90
330
C3B
100
AcDbEntity
  8
图层3
 62
     0
440
 16777216
370
    -2
100
AcDbLine
 10
603.0315223655196
 20
486.2984258147752
 30
0.0
 11
603.0315223655196
 21
878.3901995875417
 31
0.0
  0
SOLID
  5
C91
330
C3B
100
AcDbEntity
  8
图层3
 62
     0
440
 16777216
100
AcDbTrace
 10
601.364855698853
 20
486.2984258147752
 30
0.0
 11
604.6981890321863
 21
486.2984258147752
 31
0.0
 12
603.0315223655196
 22
476.2984258147751
 32
0.0
 13
603.0315223655196
 23
476.2984258147751
 33
0.0
  0
SOLID
  5
C92
330
C3B
100
AcDbEntity
  8
图层3
 62
     0
440
 16777216
100
AcDbTrace
 10
601.3648556988531
 20
878.3901995875417
 30
0.0
 11
604.6981890321863
 21
878.3901995875417
 31
0.0
 12
603.0315223655196
 22
888.3901995875415
 32
0.0
 13
603.0315223655196
 23
888.3901995875415
 33
0.0
  0
MTEXT
  5
C93
330
C3B
100
AcDbEntity
  8
图层3
 62
     0
440
 16777216
100
AcDbMText
 10
592.5315223655196
 20
682.3443127011585
 30
0.0
 40
11.0
 41
0.0
 71
     5
 72
     1
  1
412.09 [16 1/4]
 11
0.0000000000000001
 21
1.0
 31
0.0
 73
     1
 44
1.0
  0
POINT
  5
C94
330
C3B
100
AcDbEntity
  8
Defpoints
 62
     0
440
 16777216
100
AcDbPoint
 10
1048.381534644843
 20
476.2984258147747
 30
0.0
  0
POINT
  5
C95
330
C3B
100
AcDbEntity
  8
Defpoints
 62
     0
440
 16777216
100
AcDbPoint
 10
1048.381534644843
 20
888.3901995875415
 30
0.0
  0
POINT
  5
C96
330
C3B
100
AcDbEntity
  8
Defpoints
 62
     0
440
 16777216
100
AcDbPoint
 10
603.0315223655196
 20
888.3901995875415
 30
0.0
  0
ENDBLK
  5
C3D
330
C3B
100
AcDbEntity
  8
0
100
AcDbBlockEnd
  0
BLOCK
  5
C54
330
C53
100
AcDbEntity
  8
0
100
AcDbBlockBegin
  2
*D55
 70
     1
 10
0.0
 20
0.0
 30
0.0
  3
*D55
  1

  0
LINE
  5
CA7
330
C53
100
AcDbEntity
  8
图层3
 62
     0
440
 16777216
370
    -2
100
AcDbLine
 10
1206.455609531133
 20
796.5245272656042
 30
0.0
 11
1326.955609531135
 21
796.5245272656044
 31
0.0
  0
LINE
  5
CA8
330
C53
100
AcDbEntity
  8
图层3
 62
     0
440
 16777216
370
    -2
100
AcDbLine
 10
1326.955609531135
 20
796.5245272656044
 30
0.0
 11
1378.060023170984
 21
848.3019490489169
 31
0.0
  0
MTEXT
  5
CA9
330
C53
100
AcDbEntity
  8
图层3
 62
     0
440
 16777216
100
AcDbMText
 10
1264.205609531133
 20
807.0245272656045
 30
0.0
 40
11.0
 41
0.0
 71
     5
 72
     1
  1
R80 [R3 1/8]
 73
     1
 44
1.0
  0
SOLID
  5
CAA
330
C53
100
AcDbEntity
  8
图层3
 62
     0
440
 16777216
100
AcDbTrace
 10
1376.873827941125
 20
849.4727259937016
 30
0.0
 11
1379.246218400842
 21
847.1311721041324
 31
0.0
 12
1385.084684839691
 22
855.4191204280666
 32
0.0
 13
1385.084684839691
 23
855.4191204280666
 33
0.0
  0
POINT
  5
CAB
330
C53
100
AcDbEntity
  8
Defpoints
 62
     0
440
 16777216
100
AcDbPoint
 10
1385.084684839691
 20
855.4191204280666
 30
0.0
  0
POINT
  5
CAC
330
C53
100
AcDbEntity
  8
Defpoints
 62
     0
440
 16777216
100
AcDbPoint
 10
1328.887391490028
 20
798.48174939487
 30
0.0
  0
ENDBLK
  5
C55
330
C53
100
AcDbEntity
  8
0
100
AcDbBlockEnd
  0
BLOCK
  5
C65
330
C64
100
AcDbEntity
  8
0
100
AcDbBlockBegin
  2
*D56
 70
     1
 10
0.0
 20
0.0
 30
0.0
  3
*D56
  1

  0
LINE
  5
CA2
330
C64
100
AcDbEntity
  8
图层3
 62
     0
440
 16777216
370
    -2
100
AcDbLine
 10
1280.936870919983
 20
594.1532098825996
 30
0.0
 11
1398.005258978385
 21
525.9238722234401
 31
0.0
  0
MTEXT
  5
CA3
330
C64
100
AcDbEntity
  8
图层3
 62
     0
440
 16777216
100
AcDbMText
 10
1340.438342477813
 20
571.6279488973667
 30
0.0
 40
11.0
 41
0.0
 71
     5
 72
     1
  1
R90 [R3 1/2]
 11
0.8639733436044371
 21
-0.5035375473000691
 31
0.0
 73
     1
 44
1.0
  0
SOLID
  5
CA4
330
C64
100
AcDbEntity
  8
图层3
 62
     0
440
 16777216
100
AcDbTrace
 10
1398.844488223885
 20
527.3638277961143
 30
0.0
 11
1397.166029732885
 21
524.4839166507659
 31
0.0
 12
1406.644992414429
 22
520.8884967504396
 32
0.0
 13
1406.644992414429
 23
520.8884967504396
 33
0.0
  0
POINT
  5
CA5
330
C64
100
AcDbEntity
  8
Defpoints
 62
     0
440
 16777216
100
AcDbPoint
 10
1406.644992414429
 20
520.8884967504396
 30
0.0
  0
POINT
  5
CA6
330
C64
100
AcDbEntity
  8
Defpoints
 62
     0
440
 16777216
100
AcDbPoint
 10
1328.887391490028
 20
566.2068760074462
 30
0.0
  0
ENDBLK
  5
C66
330
C64
100
AcDbEntity
  8
0
100
AcDbBlockEnd
  0
BLOCK
  5
D05
330
D04
100
AcDbEntity
  8
0
100
AcDbBlockBegin
  2
*D57
 70
     1
 10
0.0
 20
0.0
 30
0.0
  3
*D57
  1

  0
LINE
  5
D11
330
D04
100
AcDbEntity
  8
图层3
 62
     0
440
 16777216
370
    -2
100
AcDbLine
 10
685.081534644843
 20
690.3443127011581
 30
0.0
 11
685.081534644843
 21
913.5283664444333
 31
0.0
  0
LINE
  5
D12
330
D04
100
AcDbEntity
  8
图层3
 62
     0
440
 16777216
370
    -2
100
AcDbLine
 10
1411.681534644844
 20
690.3443127011581
 30
0.0
 11
1411.681534644844
 21
913.5283664444333
 31
0.0
  0
LINE
  5
D13
330
D04
100
AcDbEntity
  8
图层3
 62
     0
440
 16777216
370
    -2
100
AcDbLine
 10
695.081534644843
 20
912.2783664444334
 30
0.0
 11
1401.681534644844
 21
912.2783664444334
 31
0.0
  0
SOLID
  5
D14
330
D04
100
AcDbEntity
  8
图层3
 62
     0
440
 16777216
100
AcDbTrace
 10
695.081534644843
 20
913.9450331110998
 30
0.0
 11
695.081534644843
 21
910.6116997777666
 31
0.0
 12
685.081534644843
 22
912.2783664444334
 32
0.0
 13
685.081534644843
 23
912.2783664444334
 33
0.0
  0
SOLID
  5
D15
330
D04
100
AcDbEntity
  8
图层3
 62
     0
440
 16777216
100
AcDbTrace
 10
1401.681534644844
 20
913.9450331110998
 30
0.0
 11
1401.681534644844
 21
910.6116997777666
 31
0.0
 12
1411.681534644844
 22
912.2783664444334
 32
0.0
 13
1411.681534644844
 23
912.2783664444334
 33
0.0
  0
MTEXT
  5
D16
330
D04
100
AcDbEntity
  8
图层3
 62
     0
440
 16777216
100
AcDbMText
 10
1048.381534644843
 20
922.7783664444332
 30
0.0
 40
11.0
 41
0.0
 71
     5
 72
     1
  1
726.6 [28 5/8]
 73
     1
 44
1.0
  0
POINT
  5
D17
330
D04
100
AcDbEntity
  8
Defpoints
 62
     0
440
 16777216
100
AcDbPoint
 10
685.081534644843
 20
682.3443127011578
 30
0.0
  0
POINT
  5
D18
330
D04
100
AcDbEntity
  8
Defpoints
 62
     0
440
 16777216
100
AcDbPoint
 10
1411.681534644844
 20
682.3443127011578
 30
0.0
  0
POINT
  5
D19
330
D04
100
AcDbEntity
  8
Defpoints
 62
     0
440
 16777216
100
AcDbPoint
 10
1411.681534644844
 20
912.2783664444334
 30
0.0
  0
ENDBLK
  5
D06
330
D04
100
AcDbEntity
  8
0
100
AcDbBlockEnd
  0
BLOCK
  5
D1D
330
D1C
100
AcDbEntity
  8
0
100
AcDbBlockBegin
  2
*D58
 70
     1
 10
0.0
 20
0.0
 30
0.0
  3
*D58
  1

  0
LINE
  5
D29
330
D1C
100
AcDbEntity
  8
图层3
 62
     0
440
 16777216
370
    -2
100
AcDbLine
 10
675.081534644843
 20
690.3443127011581
 30
0.0
 11
675.081534644843
 21
946.2888474924593
 31
0.0
  0
LINE
  5
D2A
330
D1C
100
AcDbEntity
  8
图层3
 62
     0
440
 16777216
370
    -2
100
AcDbLine
 10
1421.681534644844
 20
690.3443127011577
 30
0.0
 11
1421.681534644844
 21
946.2888474924593
 31
0.0
  0
LINE
  5
D2B
330
D1C
100
AcDbEntity
  8
图层3
 62
     0
440
 16777216
370
    -2
100
AcDbLine
 10
685.081534644843
 20
945.0388474924594
 30
0.0
 11
1411.681534644844
 21
945.0388474924594
 31
0.0
  0
SOLID
  5
D2C
330
D1C
100
AcDbEntity
  8
图层3
 62
     0
440
 16777216
100
AcDbTrace
 10
685.081534644843
 20
946.7055141591259
 30
0.0
 11
685.081534644843
 21
943.3721808257926
 31
0.0
 12
675.081534644843
 22
945.0388474924594
 32
0.0
 13
675.081534644843
 23
945.0388474924594
 33
0.0
  0
SOLID
  5
D2D
330
D1C
100
AcDbEntity
  8
图层3
 62
     0
440
 16777216
100
AcDbTrace
 10
1411.681534644844
 20
946.7055141591259
 30
0.0
 11
1411.681534644844
 21
943.3721808257926
 31
0.0
 12
1421.681534644844
 22
945.0388474924594
 32
0.0
 13
1421.681534644844
 23
945.0388474924594
 33
0.0
  0
MTEXT
  5
D2E
330
D1C
100
AcDbEntity
  8
图层3
 62
     0
440
 16777216
100
AcDbMText
 10
1048.381534644843
 20
955.5388474924594
 30
0.0
 40
11.0
 41
0.0
 71
     5
 72
     1
  1
746.6 [29 3/8]
 73
     1
 44
1.0
  0
POINT
  5
D2F
330
D1C
100
AcDbEntity
  8
Defpoints
 62
     0
440
 16777216
100
AcDbPoint
 10
675.081534644843
 20
682.3443127011578
 30
0.0
  0
POINT
  5
D30
330
D1C
100
AcDbEntity
  8
Defpoints
 62
     0
440
 16777216
100
AcDbPoint
 10
1421.681534644844
 20
682.3443127011577
 30
0.0
  0
POINT
  5
D31
330
D1C
100
AcDbEntity
  8
Defpoints
 62
     0
440
 16777216
100
AcDbPoint
 10
1421.681534644844
 20
945.0388474924594
 30
0.0
  0
ENDBLK
  5
D1E
330
D1C
100
AcDbEntity
  8
0
100
AcDbBlockEnd
  0
BLOCK
  5
D35
330
D34
100
AcDbEntity
  8
0
100
AcDbBlockBegin
  2
*D59
 70
     1
 10
0.0
 20
0.0
 30
0.0
  3
*D59
  1

  0
LINE
  5
D41
330
D34
100
AcDbEntity
  8
图层3
 62
     0
440
 16777216
370
    -2
100
AcDbLine
 10
1040.381534644843
 20
878.3901995875414
 30
0.0
 11
650.9148305720064
 21
878.3901995875414
 31
0.0
  0
LINE
  5
D42
330
D34
100
AcDbEntity
  8
图层3
 62
     0
440
 16777216
370
    -2
100
AcDbLine
 10
1040.381534644843
 20
486.298425814775
 30
0.0
 11
650.9148305720064
 21
486.298425814775
 31
0.0
  0
LINE
  5
D43
330
D34
100
AcDbEntity
  8
图层3
 62
     0
440
 16777216
370
    -2
100
AcDbLine
 10
652.1648305720065
 20
868.3901995875414
 30
0.0
 11
652.1648305720064
 21
496.2984258147749
 31
0.0
  0
SOLID
  5
D44
330
D34
100
AcDbEntity
  8
图层3
 62
     0
440
 16777216
100
AcDbTrace
 10
650.4981639053397
 20
868.3901995875414
 30
0.0
 11
653.8314972386731
 21
868.3901995875414
 31
0.0
 12
652.1648305720065
 22
878.3901995875414
 32
0.0
 13
652.1648305720065
 23
878.3901995875414
 33
0.0
  0
SOLID
  5
D45
330
D34
100
AcDbEntity
  8
图层3
 62
     0
440
 16777216
100
AcDbTrace
 10
650.4981639053397
 20
496.2984258147749
 30
0.0
 11
653.8314972386729
 21
496.2984258147749
 31
0.0
 12
652.1648305720064
 22
486.298425814775
 32
0.0
 13
652.1648305720064
 23
486.298425814775
 33
0.0
  0
MTEXT
  5
D46
330
D34
100
AcDbEntity
  8
图层3
 62
     0
440
 16777216
100
AcDbMText
 10
641.6648305720062
 20
682.3443127011584
 30
0.0
 40
11.0
 41
0.0
 71
     5
 72
     1
  1
392.09 [15 3/8]
 11
0.0000000000000001
 21
1.0
 31
0.0
 73
     1
 44
1.0
  0
POINT
  5
D47
330
D34
100
AcDbEntity
  8
Defpoints
 62
     0
440
 16777216
100
AcDbPoint
 10
1048.381534644843
 20
878.3901995875414
 30
0.0
  0
POINT
  5
D48
330
D34
100
AcDbEntity
  8
Defpoints
 62
     0
440
 16777216
100
AcDbPoint
 10
1048.381534644843
 20
486.298425814775
 30
0.0
  0
POINT
  5
D49
330
D34
100
AcDbEntity
  8
Defpoints
 62
     0
440
 16777216
100
AcDbPoint
 10
652.1648305720064
 20
486.298425814775
 30
0.0
  0
ENDBLK
  5
D36
330
D34
100
AcDbEntity
  8
0
100
AcDbBlockEnd
  0
BLOCK
  5
D4D
330
D4C
100
AcDbEntity
  8
0
100
AcDbBlockBegin
  2
*D60
 70
     1
 10
0.0
 20
0.0
 30
0.0
  3
*D60
  1

  0
LINE
  5
D59
330
D4C
100
AcDbEntity
  8
图层3
 62
     0
440
 16777216
370
    -2
100
AcDbLine
 10
1040.381534644843
 20
476.2984258147747
 30
0.0
 11
610.8375559261384
 21
476.2984258147751
 31
0.0
  0
LINE
  5
D5A
330
D4C
100
AcDbEntity
  8
图层3
 62
     0
440
 16777216
370
    -2
100
AcDbLine
 10
1040.381534644843
 20
888.3901995875412
 30
0.0
 11
610.8375559261385
 21
888.3901995875415
 31
0.0
  0
LINE
  5
D5B
330
D4C
100
AcDbEntity
  8
图层3
 62
     0
440
 16777216
370
    -2
100
AcDbLine
 10
612.0875559261384
 20
486.2984258147752
 30
0.0
 11
612.0875559261385
 21
878.3901995875414
 31
0.0
  0
SOLID
  5
D5C
330
D4C
100
AcDbEntity
  8
图层3
 62
     0
440
 16777216
100
AcDbTrace
 10
610.4208892594717
 20
486.2984258147752
 30
0.0
 11
613.754222592805
 21
486.2984258147752
 31
0.0
 12
612.0875559261384
 22
476.2984258147751
 32
0.0
 13
612.0875559261384
 23
476.2984258147751
 33
0.0
  0
SOLID
  5
D5D
330
D4C
100
AcDbEntity
  8
图层3
 62
     0
440
 16777216
100
AcDbTrace
 10
610.4208892594717
 20
878.3901995875414
 30
0.0
 11
613.7542225928051
 21
878.3901995875414
 31
0.0
 12
612.0875559261385
 22
888.3901995875415
 32
0.0
 13
612.0875559261385
 23
888.3901995875415
 33
0.0
  0
MTEXT
  5
D5E
330
D4C
100
AcDbEntity
  8
图层3
 62
     0
440
 16777216
100
AcDbMText
 10
601.5875559261381
 20
682.3443127011584
 30
0.0
 40
11.0
 41
0.0
 71
     5
 72
     1
  1
412.09 [16 1/4]
 11
0.0000000000000001
 21
1.0
 31
0.0
 73
     1
 44
1.0
  0
POINT
  5
D5F
330
D4C
100
AcDbEntity
  8
Defpoints
 62
     0
440
 16777216
100
AcDbPoint
 10
1048.381534644843
 20
476.2984258147747
 30
0.0
  0
POINT
  5
D60
330
D4C
100
AcDbEntity
  8
Defpoints
 62
     0
440
 16777216
100
AcDbPoint
 10
1048.381534644843
 20
888.3901995875412
 30
0.0
  0
POINT
  5
D61
330
D4C
100
AcDbEntity
  8
Defpoints
 62
     0
440
 16777216
100
AcDbPoint
 10
612.0875559261385
 20
888.3901995875415
 30
0.0
  0
ENDBLK
  5
D4E
330
D4C
100
AcDbEntity
  8
0
100
AcDbBlockEnd
  0
BLOCK
  5
D7B
330
D7A
100
AcDbEntity
  8
0
100
AcDbBlockBegin
  2
*D61
 70
     1
 10
0.0
 20
0.0
 30
0.0
  3
*D61
  1

  0
LINE
  5
D87
330
D7A
100
AcDbEntity
  8
图层3
 62
     0
440
 16777216
370
    -2
100
AcDbLine
 10
1040.381534644843
 20
474.298425814775
 30
0.0
 11
617.0040330337449
 21
474.2984258147751
 31
0.0
  0
LINE
  5
D88
330
D7A
100
AcDbEntity
  8
图层3
 62
     0
440
 16777216
370
    -2
100
AcDbLine
 10
1040.381534644843
 20
890.3901995875413
 30
0.0
 11
617.0040330337451
 21
890.3901995875415
 31
0.0
  0
LINE
  5
D89
330
D7A
100
AcDbEntity
  8
图层3
 62
     0
440
 16777216
370
    -2
100
AcDbLine
 10
618.2540330337449
 20
484.2984258147748
 30
0.0
 11
618.2540330337451
 21
880.3901995875415
 31
0.0
  0
SOLID
  5
D8A
330
D7A
100
AcDbEntity
  8
图层3
 62
     0
440
 16777216
100
AcDbTrace
 10
616.5873663670784
 20
484.2984258147748
 30
0.0
 11
619.9206997004116
 21
484.2984258147748
 31
0.0
 12
618.2540330337449
 22
474.2984258147751
 32
0.0
 13
618.2540330337449
 23
474.2984258147751
 33
0.0
  0
SOLID
  5
D8B
330
D7A
100
AcDbEntity
  8
图层3
 62
     0
440
 16777216
100
AcDbTrace
 10
616.5873663670785
 20
880.3901995875415
 30
0.0
 11
619.9206997004117
 21
880.3901995875415
 31
0.0
 12
618.2540330337451
 22
890.3901995875415
 32
0.0
 13
618.2540330337451
 23
890.3901995875415
 33
0.0
  0
MTEXT
  5
D8C
330
D7A
100
AcDbEntity
  8
图层3
 62
     0
440
 16777216
100
AcDbMText
 10
607.7540330337447
 20
682.3443127011584
 30
0.0
 40
11.0
 41
0.0
 71
     5
 72
     1
  1
416.09 [16 3/8]
 11
0.0000000000000001
 21
1.0
 31
0.0
 73
     1
 44
1.0
  0
POINT
  5
D8D
330
D7A
100
AcDbEntity
  8
Defpoints
 62
     0
440
 16777216
100
AcDbPoint
 10
1048.381534644843
 20
474.298425814775
 30
0.0
  0
POINT
  5
D8E
330
D7A
100
AcDbEntity
  8
Defpoints
 62
     0
440
 16777216
100
AcDbPoint
 10
1048.381534644843
 20
890.3901995875413
 30
0.0
  0
POINT
  5
D8F
330
D7A
100
AcDbEntity
  8
Defpoints
 62
     0
440
 16777216
100
AcDbPoint
 10
618.2540330337451
 20
890.3901995875415
 30
0.0
  0
ENDBLK
  5
D7C
330
D7A
100
AcDbEntity
  8
0
100
AcDbBlockEnd
  0
BLOCK
  5
D93
330
D92
100
AcDbEntity
  8
0
100
AcDbBlockBegin
  2
*D62
 70
     1
 10
0.0
 20
0.0
 30
0.0
  3
*D62
  1

  0
LINE
  5
D9F
330
D92
100
AcDbEntity
  8
图层3
 62
     0
440
 16777216
370
    -2
100
AcDbLine
 10
687.081534644843
 20
690.3443127011581
 30
0.0
 11
687.081534644843
 21
914.0427431258713
 31
0.0
  0
LINE
  5
DA0
330
D92
100
AcDbEntity
  8
图层3
 62
     0
440
 16777216
370
    -2
100
AcDbLine
 10
1409.681534644844
 20
690.3443127011577
 30
0.0
 11
1409.681534644844
 21
914.0427431258713
 31
0.0
  0
LINE
  5
DA1
330
D92
100
AcDbEntity
  8
图层3
 62
     0
440
 16777216
370
    -2
100
AcDbLine
 10
697.081534644843
 20
912.7927431258713
 30
0.0
 11
1399.681534644844
 21
912.7927431258713
 31
0.0
  0
SOLID
  5
DA2
330
D92
100
AcDbEntity
  8
图层3
 62
     0
440
 16777216
100
AcDbTrace
 10
697.081534644843
 20
914.4594097925379
 30
0.0
 11
697.081534644843
 21
911.1260764592046
 31
0.0
 12
687.081534644843
 22
912.7927431258713
 32
0.0
 13
687.081534644843
 23
912.7927431258713
 33
0.0
  0
SOLID
  5
DA3
330
D92
100
AcDbEntity
  8
图层3
 62
     0
440
 16777216
100
AcDbTrace
 10
1399.681534644844
 20
914.4594097925379
 30
0.0
 11
1399.681534644844
 21
911.1260764592046
 31
0.0
 12
1409.681534644844
 22
912.7927431258713
 32
0.0
 13
1409.681534644844
 23
912.7927431258713
 33
0.0
  0
MTEXT
  5
DA4
330
D92
100
AcDbEntity
  8
图层3
 62
     0
440
 16777216
100
AcDbMText
 10
1048.381534644843
 20
923.2927431258714
 30
0.0
 40
11.0
 41
0.0
 71
     5
 72
     1
  1
722.6 [28 1/2]
 73
     1
 44
1.0
  0
POINT
  5
DA5
330
D92
100
AcDbEntity
  8
Defpoints
 62
     0
440
 16777216
100
AcDbPoint
 10
687.081534644843
 20
682.3443127011578
 30
0.0
  0
POINT
  5
DA6
330
D92
100
AcDbEntity
  8
Defpoints
 62
     0
440
 16777216
100
AcDbPoint
 10
1409.681534644844
 20
682.3443127011577
 30
0.0
  0
POINT
  5
DA7
330
D92
100
AcDbEntity
  8
Defpoints
 62
     0
440
 16777216
100
AcDbPoint
 10
1409.681534644844
 20
912.7927431258713
 30
0.0
  0
ENDBLK
  5
D94
330
D92
100
AcDbEntity
  8
0
100
AcDbBlockEnd
  0
BLOCK
  5
DAB
330
DAA
100
AcDbEntity
  8
0
100
AcDbBlockBegin
  2
*D63
 70
     1
 10
0.0
 20
0.0
 30
0.0
  3
*D63
  1

  0
LINE
  5
DB7
330
DAA
100
AcDbEntity
  8
图层3
 62
     0
440
 16777216
370
    -2
100
AcDbLine
 10
673.081534644843
 20
690.3443127011692
 30
0.0
 11
673.081534644843
 21
950.1602484905616
 31
0.0
  0
LINE
  5
DB8
330
DAA
100
AcDbEntity
  8
图层3
 62
     0
440
 16777216
370
    -2
100
AcDbLine
 10
1423.681534644844
 20
690.3443127011577
 30
0.0
 11
1423.681534644844
 21
950.1602484905616
 31
0.0
  0
LINE
  5
DB9
330
DAA
100
AcDbEntity
  8
图层3
 62
     0
440
 16777216
370
    -2
100
AcDbLine
 10
683.081534644843
 20
948.9102484905616
 30
0.0
 11
1413.681534644844
 21
948.9102484905616
 31
0.0
  0
SOLID
  5
DBA
330
DAA
100
AcDbEntity
  8
图层3
 62
     0
440
 16777216
100
AcDbTrace
 10
683.081534644843
 20
950.5769151572282
 30
0.0
 11
683.081534644843
 21
947.2435818238947
 31
0.0
 12
673.081534644843
 22
948.9102484905616
 32
0.0
 13
673.081534644843
 23
948.9102484905616
 33
0.0
  0
SOLID
  5
DBB
330
DAA
100
AcDbEntity
  8
图层3
 62
     0
440
 16777216
100
AcDbTrace
 10
1413.681534644844
 20
950.5769151572282
 30
0.0
 11
1413.681534644844
 21
947.2435818238947
 31
0.0
 12
1423.681534644844
 22
948.9102484905616
 32
0.0
 13
1423.681534644844
 23
948.9102484905616
 33
0.0
  0
MTEXT
  5
DBC
330
DAA
100
AcDbEntity
  8
图层3
 62
     0
440
 16777216
100
AcDbMText
 10
1048.381534644843
 20
959.4102484905617
 30
0.0
 40
11.0
 41
0.0
 71
     5
 72
     1
  1
750.6 [29 1/2]
 73
     1
 44
1.0
  0
POINT
  5
DBD
330
DAA
100
AcDbEntity
  8
Defpoints
 62
     0
440
 16777216
100
AcDbPoint
 10
673.081534644843
 20
682.3443127011691
 30
0.0
  0
POINT
  5
DBE
330
DAA
100
AcDbEntity
  8
Defpoints
 62
     0
440
 16777216
100
AcDbPoint
 10
1423.681534644844
 20
682.3443127011577
 30
0.0
  0
POINT
  5
DBF
330
DAA
100
AcDbEntity
  8
Defpoints
 62
     0
440
 16777216
100
AcDbPoint
 10
1423.681534644844
 20
948.9102484905616
 30
0.0
  0
ENDBLK
  5
DAC
330
DAA
100
AcDbEntity
  8
0
100
AcDbBlockEnd
  0
BLOCK
  5
DC3
330
DC2
100
AcDbEntity
  8
0
100
AcDbBlockBegin
  2
*D64
 70
     1
 10
0.0
 20
0.0
 30
0.0
  3
*D64
  1

  0
LINE
  5
DCF
330
DC2
100
AcDbEntity
  8
图层3
 62
     0
440
 16777216
370
    -2
100
AcDbLine
 10
1040.381534644843
 20
876.3901995875412
 30
0.0
 11
649.368320215419
 21
876.3901995875412
 31
0.0
  0
LINE
  5
DD0
330
DC2
100
AcDbEntity
  8
图层3
 62
     0
440
 16777216
370
    -2
100
AcDbLine
 10
1040.381534644843
 20
488.2984258147748
 30
0.0
 11
649.3683202154187
 21
488.2984258147748
 31
0.0
  0
LINE
  5
DD1
330
DC2
100
AcDbEntity
  8
图层3
 62
     0
440
 16777216
370
    -2
100
AcDbLine
 10
650.618320215419
 20
866.3901995875415
 30
0.0
 11
650.6183202154187
 21
498.298425814775
 31
0.0
  0
SOLID
  5
DD2
330
DC2
100
AcDbEntity
  8
图层3
 62
     0
440
 16777216
100
AcDbTrace
 10
648.9516535487522
 20
866.3901995875415
 30
0.0
 11
652.2849868820856
 21
866.3901995875415
 31
0.0
 12
650.618320215419
 22
876.3901995875412
 32
0.0
 13
650.618320215419
 23
876.3901995875412
 33
0.0
  0
SOLID
  5
DD3
330
DC2
100
AcDbEntity
  8
图层3
 62
     0
440
 16777216
100
AcDbTrace
 10
648.9516535487522
 20
498.298425814775
 30
0.0
 11
652.2849868820855
 21
498.298425814775
 31
0.0
 12
650.6183202154187
 22
488.2984258147748
 32
0.0
 13
650.6183202154187
 23
488.2984258147748
 33
0.0
  0
MTEXT
  5
DD4
330
DC2
100
AcDbEntity
  8
图层3
 62
     0
440
 16777216
100
AcDbMText
 10
640.1183202154187
 20
682.3443127011584
 30
0.0
 40
11.0
 41
0.0
 71
     5
 72
     1
  1
388.09 [15 1/4]
 11
0.0000000000000001
 21
1.0
 31
0.0
 73
     1
 44
1.0
  0
POINT
  5
DD5
330
DC2
100
AcDbEntity
  8
Defpoints
 62
     0
440
 16777216
100
AcDbPoint
 10
1048.381534644843
 20
876.3901995875412
 30
0.0
  0
POINT
  5
DD6
330
DC2
100
AcDbEntity
  8
Defpoints
 62
     0
440
 16777216
100
AcDbPoint
 10
1048.381534644843
 20
488.2984258147748
 30
0.0
  0
POINT
  5
DD7
330
DC2
100
AcDbEntity
  8
Defpoints
 62
     0
440
 16777216
100
AcDbPoint
 10
650.6183202154187
 20
488.2984258147748
 30
0.0
  0
ENDBLK
  5
DC4
330
DC2
100
AcDbEntity
  8
0
100
AcDbBlockEnd
  0
BLOCK
  5
DDB
330
DDA
100
AcDbEntity
  8
0
100
AcDbBlockBegin
  2
*D65
 70
     1
 10
0.0
 20
0.0
 30
0.0
  3
*D65
  1

  0
LINE
  5
DE7
330
DDA
100
AcDbEntity
  8
图层3
 62
     0
440
 16777216
370
    -2
100
AcDbLine
 10
1040.381534644843
 20
474.298425814775
 30
0.0
 11
615.1204038268822
 21
474.2984258147751
 31
0.0
  0
LINE
  5
DE8
330
DDA
100
AcDbEntity
  8
图层3
 62
     0
440
 16777216
370
    -2
100
AcDbLine
 10
1040.381534644843
 20
890.3901995875415
 30
0.0
 11
615.1204038268822
 21
890.3901995875415
 31
0.0
  0
LINE
  5
DE9
330
DDA
100
AcDbEntity
  8
图层3
 62
     0
440
 16777216
370
    -2
100
AcDbLine
 10
616.3704038268822
 20
484.2984258147748
 30
0.0
 11
616.3704038268822
 21
880.3901995875415
 31
0.0
  0
SOLID
  5
DEA
330
DDA
100
AcDbEntity
  8
图层3
 62
     0
440
 16777216
100
AcDbTrace
 10
614.7037371602157
 20
484.2984258147748
 30
0.0
 11
618.037070493549
 21
484.2984258147748
 31
0.0
 12
616.3704038268822
 22
474.2984258147751
 32
0.0
 13
616.3704038268822
 23
474.2984258147751
 33
0.0
  0
SOLID
  5
DEB
330
DDA
100
AcDbEntity
  8
图层3
 62
     0
440
 16777216
100
AcDbTrace
 10
614.7037371602157
 20
880.3901995875415
 30
0.0
 11
618.0370704935491
 21
880.3901995875415
 31
0.0
 12
616.3704038268822
 22
890.3901995875415
 32
0.0
 13
616.3704038268822
 23
890.3901995875415
 33
0.0
  0
MTEXT
  5
DEC
330
DDA
100
AcDbEntity
  8
图层3
 62
     0
440
 16777216
100
AcDbMText
 10
605.8704038268822
 20
682.3443127011585
 30
0.0
 40
11.0
 41
0.0
 71
     5
 72
     1
  1
416.09 [16 3/8]
 11
0.0000000000000001
 21
1.0
 31
0.0
 73
     1
 44
1.0
  0
POINT
  5
DED
330
DDA
100
AcDbEntity
  8
Defpoints
 62
     0
440
 16777216
100
AcDbPoint
 10
1048.381534644843
 20
474.298425814775
 30
0.0
  0
POINT
  5
DEE
330
DDA
100
AcDbEntity
  8
Defpoints
 62
     0
440
 16777216
100
AcDbPoint
 10
1048.381534644843
 20
890.3901995875415
 30
0.0
  0
POINT
  5
DEF
330
DDA
100
AcDbEntity
  8
Defpoints
 62
     0
440
 16777216
100
AcDbPoint
 10
616.3704038268822
 20
890.3901995875415
 30
0.0
  0
ENDBLK
  5
DDC
330
DDA
100
AcDbEntity
  8
0
100
AcDbBlockEnd
  0
BLOCK
  5
E31
330
E30
100
AcDbEntity
  8
0
100
AcDbBlockBegin
  2
*D66
 70
     1
 10
0.0
 20
0.0
 30
0.0
  3
*D66
  1

  0
LINE
  5
E39
330
E30
100
AcDbEntity
  8
图层3
 62
     0
440
 16777216
370
    -2
100
AcDbLine
 10
1202.846892008251
 20
794.1959553892099
 30
0.0
 11
1325.180225341584
 21
794.1959553892099
 31
0.0
  0
LINE
  5
E3A
330
E30
100
AcDbEntity
  8
图层3
 62
     0
440
 16777216
370
    -2
100
AcDbLine
 10
1325.180225341584
 20
794.1959553892099
 30
0.0
 11
1373.373385271346
 21
849.9112774627851
 31
0.0
  0
MTEXT
  5
E3B
330
E30
100
AcDbEntity
  8
图层3
 62
     0
440
 16777216
100
AcDbMText
 10
1261.513558674917
 20
804.6959553892103
 30
0.0
 40
11.0
 41
0.0
 71
     5
 72
     1
  1
R78 [R3 1/8]
 73
     1
 44
1.0
  0
SOLID
  5
E3C
330
E30
100
AcDbEntity
  8
图层3
 62
     0
440
 16777216
100
AcDbTrace
 10
1372.112857622622
 20
851.0016204476217
 30
0.0
 11
1374.633912920069
 21
848.8209344779491
 31
0.0
 12
1379.915443180363
 22
857.4744433551259
 32
0.0
 13
1379.915443180363
 23
857.4744433551259
 33
0.0
  0
POINT
  5
E3D
330
E30
100
AcDbEntity
  8
Defpoints
 62
     0
440
 16777216
100
AcDbPoint
 10
1379.915443180363
 20
857.4744433551259
 30
0.0
  0
POINT
  5
E3E
330
E30
100
AcDbEntity
  8
Defpoints
 62
     0
440
 16777216
100
AcDbPoint
 10
1328.887391490028
 20
798.481749394871
 30
0.0
  0
ENDBLK
  5
E32
330
E30
100
AcDbEntity
  8
0
100
AcDbBlockEnd
  0
BLOCK
  5
E42
330
E41
100
AcDbEntity
  8
0
100
AcDbBlockBegin
  2
*D67
 70
     1
 10
0.0
 20
0.0
 30
0.0
  3
*D67
  1

  0
LINE
  5
E4A
330
E41
100
AcDbEntity
  8
图层3
 62
     0
440
 16777216
370
    -2
100
AcDbLine
 10
1202.509314300197
 20
566.5340726433237
 30
0.0
 11
1328.509314300197
 21
566.5340726433237
 31
0.0
  0
LINE
  5
E4B
330
E41
100
AcDbEntity
  8
图层3
 62
     0
440
 16777216
370
    -2
100
AcDbLine
 10
1328.509314300197
 20
566.5340726433237
 30
0.0
 11
1385.598969964774
 21
517.1273806259461
 31
0.0
  0
MTEXT
  5
E4C
330
E41
100
AcDbEntity
  8
图层3
 62
     0
440
 16777216
100
AcDbMText
 10
1263.009314300197
 20
577.0340726433237
 30
0.0
 40
11.0
 41
0.0
 71
     5
 72
     1
  1
R85 [R3 3/8]
 73
     1
 44
1.0
  0
SOLID
  5
E4D
330
E41
100
AcDbEntity
  8
图层3
 62
     0
440
 16777216
100
AcDbTrace
 10
1386.689625417697
 20
518.387637925385
 30
0.0
 11
1384.508314511852
 21
515.8671233265072
 31
0.0
 12
1393.160513761407
 22
510.5834479084125
 32
0.0
 13
1393.160513761407
 23
510.5834479084125
 33
0.0
  0
POINT
  5
E4E
330
E41
100
AcDbEntity
  8
Defpoints
 62
     0
440
 16777216
100
AcDbPoint
 10
1393.160513761407
 20
510.5834479084125
 30
0.0
  0
POINT
  5
E4F
330
E41
100
AcDbEntity
  8
Defpoints
 62
     0
440
 16777216
100
AcDbPoint
 10
1328.887391490029
 20
566.2068760074463
 30
0.0
  0
ENDBLK
  5
E43
330
E41
100
AcDbEntity
  8
0
100
AcDbBlockEnd
  0
BLOCK
  5
E53
330
E52
100
AcDbEntity
  8
0
100
AcDbBlockBegin
  2
*D68
 70
     1
 10
0.0
 20
0.0
 30
0.0
  3
*D68
  1

  0
LINE
  5
E5B
330
E52
100
AcDbEntity
  8
图层3
 62
     0
440
 16777216
370
    -2
100
AcDbLine
 10
810.5895567512535
 20
606.9073003898592
 30
0.0
 11
708.510625697442
 21
509.6401844929062
 31
0.0
  0
MTEXT
  5
E5C
330
E52
100
AcDbEntity
  8
图层3
 62
     0
440
 16777216
100
AcDbMText
 10
755.9266156098162
 20
569.3245534736509
 30
0.0
 40
11.0
 41
0.0
 71
     5
 72
     1
  1
R92 [R3 5/8]
 11
0.7239640500270315
 21
0.6898377013968271
 31
0.0
 73
     1
 44
1.0
  0
SOLID
  5
E5D
330
E52
100
AcDbEntity
  8
图层3
 62
     0
440
 16777216
100
AcDbTrace
 10
707.3608961951138
 20
510.8467912429516
 30
0.0
 11
709.66035519977
 21
508.4335777428614
 31
0.0
 12
701.2709851971717
 22
502.7418074789381
 32
0.0
 13
701.2709851971717
 23
502.7418074789381
 33
0.0
  0
POINT
  5
E5E
330
E52
100
AcDbEntity
  8
Defpoints
 62
     0
440
 16777216
100
AcDbPoint
 10
701.2709851971717
 20
502.7418074789381
 30
0.0
  0
POINT
  5
E5F
330
E52
100
AcDbEntity
  8
Defpoints
 62
     0
440
 16777216
100
AcDbPoint
 10
767.8756777996587
 20
566.2068760074462
 30
0.0
  0
ENDBLK
  5
E54
330
E52
100
AcDbEntity
  8
0
100
AcDbBlockEnd
  0
BLOCK
  5
E63
330
E62
100
AcDbEntity
  8
0
100
AcDbBlockBegin
  2
*D69
 70
     1
 10
0.0
 20
0.0
 30
0.0
  3
*D69
  1

  0
LINE
  5
E64
330
E62
100
AcDbEntity
  8
图层3
 62
     0
440
 16777216
370
    -2
100
AcDbLine
 10
-3349.418911220502
 20
1604.983082945096
 30
0.0
 11
-3448.107649309969
 21
1604.983082945096
 31
0.0
  0
LINE
  5
E65
330
E62
100
AcDbEntity
  8
图层3
 62
     0
440
 16777216
370
    -2
100
AcDbLine
 10
-3349.418911220502
 20
2021.983082945096
 30
0.0
 11
-3448.107649309969
 21
2021.983082945096
 31
0.0
  0
LINE
  5
E66
330
E62
100
AcDbEntity
  8
图层3
 62
     0
440
 16777216
370
    -2
100
AcDbLine
 10
-3445.107649309969
 20
1617.983082945096
 30
0.0
 11
-3445.107649309969
 21
2008.983082945096
 31
0.0
  0
SOLID
  5
E67
330
E62
100
AcDbEntity
  8
图层3
 62
     0
440
 16777216
100
AcDbTrace
 10
-3447.274315976635
 20
1617.983082945096
 30
0.0
 11
-3442.940982643301
 21
1617.983082945096
 31
0.0
 12
-3445.107649309969
 22
1604.983082945096
 32
0.0
 13
-3445.107649309969
 23
1604.983082945096
 33
0.0
  0
SOLID
  5
E68
330
E62
100
AcDbEntity
  8
图层3
 62
     0
440
 16777216
100
AcDbTrace
 10
-3447.274315976635
 20
2008.983082945096
 30
0.0
 11
-3442.940982643301
 21
2008.983082945096
 31
0.0
 12
-3445.107649309969
 22
2021.983082945096
 32
0.0
 13
-3445.107649309969
 23
2021.983082945096
 33
0.0
  0
MTEXT
  5
E69
330
E62
100
AcDbEntity
  8
图层3
 62
     0
440
 16777216
100
AcDbMText
 10
-3458.607649309968
 20
1813.483082945095
 30
0.0
 40
13.0
 41
0.0
 71
     5
 72
     1
  1
417 [16 3/8]
 11
0.0000000000000001
 21
1.0
 31
0.0
 73
     1
 44
1.0
  0
POINT
  5
E6A
330
E62
100
AcDbEntity
  8
Defpoints
 62
     0
440
 16777216
100
AcDbPoint
 10
-3329.418911220503
 20
1604.983082945096
 30
0.0
  0
POINT
  5
E6B
330
E62
100
AcDbEntity
  8
Defpoints
 62
     0
440
 16777216
100
AcDbPoint
 10
-3329.418911220503
 20
2021.983082945096
 30
0.0
  0
POINT
  5
E6C
330
E62
100
AcDbEntity
  8
Defpoints
 62
     0
440
 16777216
100
AcDbPoint
 10
-3445.107649309969
 20
2021.983082945096
 30
0.0
  0
ENDBLK
  5
E6D
330
E62
100
AcDbEntity
  8
0
100
AcDbBlockEnd
  0
BLOCK
  5
E6F
330
E6E
100
AcDbEntity
  8
0
100
AcDbBlockBegin
  2
*D70
 70
     1
 10
0.0
 20
0.0
 30
0.0
  3
*D70
  1

  0
LINE
  5
E70
330
E6E
100
AcDbEntity
  8
图层3
 62
     0
440
 16777216
370
    -2
100
AcDbLine
 10
-3349.418911220502
 20
1599.983082945096
 30
0.0
 11
-3486.364443564664
 21
1599.983082945096
 31
0.0
  0
LINE
  5
E71
330
E6E
100
AcDbEntity
  8
图层3
 62
     0
440
 16777216
370
    -2
100
AcDbLine
 10
-3349.418911220502
 20
2026.983082945096
 30
0.0
 11
-3486.364443564664
 21
2026.983082945096
 31
0.0
  0
LINE
  5
E72
330
E6E
100
AcDbEntity
  8
图层3
 62
     0
440
 16777216
370
    -2
100
AcDbLine
 10
-3483.364443564664
 20
1612.983082945095
 30
0.0
 11
-3483.364443564664
 21
2013.983082945096
 31
0.0
  0
SOLID
  5
E73
330
E6E
100
AcDbEntity
  8
图层3
 62
     0
440
 16777216
100
AcDbTrace
 10
-3485.53111023133
 20
1612.983082945095
 30
0.0
 11
-3481.197776897997
 21
1612.983082945095
 31
0.0
 12
-3483.364443564664
 22
1599.983082945096
 32
0.0
 13
-3483.364443564664
 23
1599.983082945096
 33
0.0
  0
SOLID
  5
E74
330
E6E
100
AcDbEntity
  8
图层3
 62
     0
440
 16777216
100
AcDbTrace
 10
-3485.53111023133
 20
2013.983082945096
 30
0.0
 11
-3481.197776897997
 21
2013.983082945096
 31
0.0
 12
-3483.364443564664
 22
2026.983082945096
 32
0.0
 13
-3483.364443564664
 23
2026.983082945096
 33
0.0
  0
MTEXT
  5
E75
330
E6E
100
AcDbEntity
  8
图层3
 62
     0
440
 16777216
100
AcDbMText
 10
-3496.864443564664
 20
1813.483082945095
 30
0.0
 40
13.0
 41
0.0
 71
     5
 72
     1
  1
427 [16 3/4]
 11
0.0000000000000001
 21
1.0
 31
0.0
 73
     1
 44
1.0
  0
POINT
  5
E76
330
E6E
100
AcDbEntity
  8
Defpoints
 62
     0
440
 16777216
100
AcDbPoint
 10
-3329.418911220503
 20
1599.983082945096
 30
0.0
  0
POINT
  5
E77
330
E6E
100
AcDbEntity
  8
Defpoints
 62
     0
440
 16777216
100
AcDbPoint
 10
-3329.418911220503
 20
2026.983082945096
 30
0.0
  0
POINT
  5
E78
330
E6E
100
AcDbEntity
  8
Defpoints
 62
     0
440
 16777216
100
AcDbPoint
 10
-3483.364443564664
 20
2026.983082945096
 30
0.0
  0
ENDBLK
  5
E79
330
E6E
100
AcDbEntity
  8
0
100
AcDbBlockEnd
  0
BLOCK
  5
E7B
330
E7A
100
AcDbEntity
  8
0
100
AcDbBlockBegin
  2
*D71
 70
     1
 10
0.0
 20
0.0
 30
0.0
  3
*D71
  1

  0
LINE
  5
E7C
330
E7A
100
AcDbEntity
  8
图层3
 62
     0
440
 16777216
370
    -2
100
AcDbLine
 10
-3349.418911220502
 20
1594.983082945096
 30
0.0
 11
-3523.771090140363
 21
1594.983082945096
 31
0.0
  0
LINE
  5
E7D
330
E7A
100
AcDbEntity
  8
图层3
 62
     0
440
 16777216
370
    -2
100
AcDbLine
 10
-3349.418911220502
 20
2031.983082945096
 30
0.0
 11
-3523.771090140363
 21
2031.983082945096
 31
0.0
  0
LINE
  5
E7E
330
E7A
100
AcDbEntity
  8
图层3
 62
     0
440
 16777216
370
    -2
100
AcDbLine
 10
-3520.771090140363
 20
1607.983082945096
 30
0.0
 11
-3520.771090140363
 21
2018.983082945096
 31
0.0
  0
SOLID
  5
E7F
330
E7A
100
AcDbEntity
  8
图层3
 62
     0
440
 16777216
100
AcDbTrace
 10
-3522.937756807029
 20
1607.983082945096
 30
0.0
 11
-3518.604423473697
 21
1607.983082945096
 31
0.0
 12
-3520.771090140363
 22
1594.983082945096
 32
0.0
 13
-3520.771090140363
 23
1594.983082945096
 33
0.0
  0
SOLID
  5
E80
330
E7A
100
AcDbEntity
  8
图层3
 62
     0
440
 16777216
100
AcDbTrace
 10
-3522.937756807029
 20
2018.983082945096
 30
0.0
 11
-3518.604423473697
 21
2018.983082945096
 31
0.0
 12
-3520.771090140363
 22
2031.983082945096
 32
0.0
 13
-3520.771090140363
 23
2031.983082945096
 33
0.0
  0
MTEXT
  5
E81
330
E7A
100
AcDbEntity
  8
图层3
 62
     0
440
 16777216
100
AcDbMText
 10
-3534.271090140363
 20
1813.483082945095
 30
0.0
 40
13.0
 41
0.0
 71
     5
 72
     1
  1
437 [17 1/4]
 11
0.0000000000000001
 21
1.0
 31
0.0
 73
     1
 44
1.0
  0
POINT
  5
E82
330
E7A
100
AcDbEntity
  8
Defpoints
 62
     0
440
 16777216
100
AcDbPoint
 10
-3329.418911220503
 20
1594.983082945096
 30
0.0
  0
POINT
  5
E83
330
E7A
100
AcDbEntity
  8
Defpoints
 62
     0
440
 16777216
100
AcDbPoint
 10
-3329.418911220503
 20
2031.983082945096
 30
0.0
  0
POINT
  5
E84
330
E7A
100
AcDbEntity
  8
Defpoints
 62
     0
440
 16777216
100
AcDbPoint
 10
-3520.771090140363
 20
2031.983082945096
 30
0.0
  0
ENDBLK
  5
E85
330
E7A
100
AcDbEntity
  8
0
100
AcDbBlockEnd
  0
BLOCK
  5
E87
330
E86
100
AcDbEntity
  8
0
100
AcDbBlockBegin
  2
*D72
 70
     1
 10
0.0
 20
0.0
 30
0.0
  3
*D72
  1

  0
LINE
  5
E88
330
E86
100
AcDbEntity
  8
图层3
 62
     0
440
 16777216
370
    -2
100
AcDbLine
 10
-3407.418911220502
 20
1662.983082945095
 30
0.0
 11
-3407.418911220502
 21
1554.049471409759
 31
0.0
  0
LINE
  5
E89
330
E86
100
AcDbEntity
  8
图层3
 62
     0
440
 16777216
370
    -2
100
AcDbLine
 10
-2652.418911220502
 20
1662.983082945095
 30
0.0
 11
-2652.418911220502
 21
1554.049471409759
 31
0.0
  0
LINE
  5
E8A
330
E86
100
AcDbEntity
  8
图层3
 62
     0
440
 16777216
370
    -2
100
AcDbLine
 10
-3394.418911220502
 20
1557.049471409759
 30
0.0
 11
-2665.418911220502
 21
1557.049471409759
 31
0.0
  0
SOLID
  5
E8B
330
E86
100
AcDbEntity
  8
图层3
 62
     0
440
 16777216
100
AcDbTrace
 10
-3394.418911220502
 20
1559.216138076426
 30
0.0
 11
-3394.418911220502
 21
1554.882804743092
 31
0.0
 12
-3407.418911220502
 22
1557.049471409759
 32
0.0
 13
-3407.418911220502
 23
1557.049471409759
 33
0.0
  0
SOLID
  5
E8C
330
E86
100
AcDbEntity
  8
图层3
 62
     0
440
 16777216
100
AcDbTrace
 10
-2665.418911220502
 20
1559.216138076426
 30
0.0
 11
-2665.418911220502
 21
1554.882804743092
 31
0.0
 12
-2652.418911220502
 22
1557.049471409759
 32
0.0
 13
-2652.418911220502
 23
1557.049471409759
 33
0.0
  0
MTEXT
  5
E8D
330
E86
100
AcDbEntity
  8
图层3
 62
     0
440
 16777216
100
AcDbMText
 10
-3029.918911220502
 20
1570.549471409759
 30
0.0
 40
13.0
 41
0.0
 71
     5
 72
     1
  1
755 [29 3/4]
 73
     1
 44
1.0
  0
POINT
  5
E8E
330
E86
100
AcDbEntity
  8
Defpoints
 62
     0
440
 16777216
100
AcDbPoint
 10
-3407.418911220502
 20
1682.983082945096
 30
0.0
  0
POINT
  5
E8F
330
E86
100
AcDbEntity
  8
Defpoints
 62
     0
440
 16777216
100
AcDbPoint
 10
-2652.418911220502
 20
1682.983082945096
 30
0.0
  0
POINT
  5
E90
330
E86
100
AcDbEntity
  8
Defpoints
 62
     0
440
 16777216
100
AcDbPoint
 10
-2652.418911220502
 20
1557.049471409759
 30
0.0
  0
ENDBLK
  5
E91
330
E86
100
AcDbEntity
  8
0
100
AcDbBlockEnd
  0
BLOCK
  5
E93
330
E92
100
AcDbEntity
  8
0
100
AcDbBlockBegin
  2
*D73
 70
     1
 10
0.0
 20
0.0
 30
0.0
  3
*D73
  1

  0
LINE
  5
E94
330
E92
100
AcDbEntity
  8
图层3
 62
     0
440
 16777216
370
    -2
100
AcDbLine
 10
-3412.418911220502
 20
1662.983082945095
 30
0.0
 11
-3412.418911220502
 21
1518.377635084528
 31
0.0
  0
LINE
  5
E95
330
E92
100
AcDbEntity
  8
图层3
 62
     0
440
 16777216
370
    -2
100
AcDbLine
 10
-2647.418911220502
 20
1662.983082945096
 30
0.0
 11
-2647.418911220502
 21
1518.377635084528
 31
0.0
  0
LINE
  5
E96
330
E92
100
AcDbEntity
  8
图层3
 62
     0
440
 16777216
370
    -2
100
AcDbLine
 10
-3399.418911220502
 20
1521.377635084528
 30
0.0
 11
-2660.418911220503
 21
1521.377635084528
 31
0.0
  0
SOLID
  5
E97
330
E92
100
AcDbEntity
  8
图层3
 62
     0
440
 16777216
100
AcDbTrace
 10
-3399.418911220502
 20
1523.544301751195
 30
0.0
 11
-3399.418911220502
 21
1519.210968417861
 31
0.0
 12
-3412.418911220502
 22
1521.377635084528
 32
0.0
 13
-3412.418911220502
 23
1521.377635084528
 33
0.0
  0
SOLID
  5
E98
330
E92
100
AcDbEntity
  8
图层3
 62
     0
440
 16777216
100
AcDbTrace
 10
-2660.418911220503
 20
1523.544301751195
 30
0.0
 11
-2660.418911220503
 21
1519.210968417861
 31
0.0
 12
-2647.418911220502
 22
1521.377635084528
 32
0.0
 13
-2647.418911220502
 23
1521.377635084528
 33
0.0
  0
MTEXT
  5
E99
330
E92
100
AcDbEntity
  8
图层3
 62
     0
440
 16777216
100
AcDbMText
 10
-3029.918911220502
 20
1534.877635084528
 30
0.0
 40
13.0
 41
0.0
 71
     5
 72
     1
  1
765 [30 1/8]
 73
     1
 44
1.0
  0
POINT
  5
E9A
330
E92
100
AcDbEntity
  8
Defpoints
 62
     0
440
 16777216
100
AcDbPoint
 10
-3412.418911220502
 20
1682.983082945096
 30
0.0
  0
POINT
  5
E9B
330
E92
100
AcDbEntity
  8
Defpoints
 62
     0
440
 16777216
100
AcDbPoint
 10
-2647.418911220502
 20
1682.983082945096
 30
0.0
  0
POINT
  5
E9C
330
E92
100
AcDbEntity
  8
Defpoints
 62
     0
440
 16777216
100
AcDbPoint
 10
-2647.418911220502
 20
1521.377635084528
 30
0.0
  0
ENDBLK
  5
E9D
330
E92
100
AcDbEntity
  8
0
100
AcDbBlockEnd
  0
BLOCK
  5
E9F
330
E9E
100
AcDbEntity
  8
0
100
AcDbBlockBegin
  2
*D74
 70
     1
 10
0.0
 20
0.0
 30
0.0
  3
*D74
  1

  0
LINE
  5
EA0
330
E9E
100
AcDbEntity
  8
图层3
 62
     0
440
 16777216
370
    -2
100
AcDbLine
 10
-3417.418911220502
 20
1662.983082945095
 30
0.0
 11
-3417.418911220502
 21
1482.705810176075
 31
0.0
  0
LINE
  5
EA1
330
E9E
100
AcDbEntity
  8
图层3
 62
     0
440
 16777216
370
    -2
100
AcDbLine
 10
-2642.418911220503
 20
1662.983082945095
 30
0.0
 11
-2642.418911220503
 21
1482.705810176075
 31
0.0
  0
LINE
  5
EA2
330
E9E
100
AcDbEntity
  8
图层3
 62
     0
440
 16777216
370
    -2
100
AcDbLine
 10
-3404.418911220503
 20
1485.705810176075
 30
0.0
 11
-2655.418911220503
 21
1485.705810176075
 31
0.0
  0
SOLID
  5
EA3
330
E9E
100
AcDbEntity
  8
图层3
 62
     0
440
 16777216
100
AcDbTrace
 10
-3404.418911220503
 20
1487.872476842742
 30
0.0
 11
-3404.418911220503
 21
1483.539143509408
 31
0.0
 12
-3417.418911220502
 22
1485.705810176075
 32
0.0
 13
-3417.418911220502
 23
1485.705810176075
 33
0.0
  0
SOLID
  5
EA4
330
E9E
100
AcDbEntity
  8
图层3
 62
     0
440
 16777216
100
AcDbTrace
 10
-2655.418911220503
 20
1487.872476842742
 30
0.0
 11
-2655.418911220503
 21
1483.539143509408
 31
0.0
 12
-2642.418911220503
 22
1485.705810176075
 32
0.0
 13
-2642.418911220503
 23
1485.705810176075
 33
0.0
  0
MTEXT
  5
EA5
330
E9E
100
AcDbEntity
  8
图层3
 62
     0
440
 16777216
100
AcDbMText
 10
-3029.918911220502
 20
1499.205810176075
 30
0.0
 40
13.0
 41
0.0
 71
     5
 72
     1
  1
775 [30 1/2]
 73
     1
 44
1.0
  0
POINT
  5
EA6
330
E9E
100
AcDbEntity
  8
Defpoints
 62
     0
440
 16777216
100
AcDbPoint
 10
-3417.418911220502
 20
1682.983082945096
 30
0.0
  0
POINT
  5
EA7
330
E9E
100
AcDbEntity
  8
Defpoints
 62
     0
440
 16777216
100
AcDbPoint
 10
-2642.418911220503
 20
1682.983082945096
 30
0.0
  0
POINT
  5
EA8
330
E9E
100
AcDbEntity
  8
Defpoints
 62
     0
440
 16777216
100
AcDbPoint
 10
-2642.418911220503
 20
1485.705810176075
 30
0.0
  0
ENDBLK
  5
EA9
330
E9E
100
AcDbEntity
  8
0
100
AcDbBlockEnd
  0
BLOCK
  5
EAB
330
EAA
100
AcDbEntity
  8
0
100
AcDbBlockBegin
  2
*D75
 70
     1
 10
0.0
 20
0.0
 30
0.0
  3
*D75
  1

  0
LINE
  5
EAC
330
EAA
100
AcDbEntity
  8
图层3
 62
     0
440
 16777216
370
    -2
100
AcDbLine
 10
-2893.716272849506
 20
1927.211985597099
 30
0.0
 11
-2748.049606182839
 21
1927.211985597099
 31
0.0
  0
LINE
  5
EAD
330
EAA
100
AcDbEntity
  8
图层3
 62
     0
440
 16777216
370
    -2
100
AcDbLine
 10
-2748.049606182839
 20
1927.211985597099
 30
0.0
 11
-2683.323219197813
 21
1988.782589559614
 31
0.0
  0
MTEXT
  5
EAE
330
EAA
100
AcDbEntity
  8
图层3
 62
     0
440
 16777216
100
AcDbMText
 10
-2824.382939516172
 20
1940.7119855971
 30
0.0
 40
13.0
 41
0.0
 71
     5
 72
     1
  1
R78 [R3 1/8]
 73
     1
 44
1.0
  0
SOLID
  5
EAF
330
EAA
100
AcDbEntity
  8
图层3
 62
     0
440
 16777216
100
AcDbTrace
 10
-2684.816536084963
 20
1990.35244596037
 30
0.0
 11
-2681.829902310663
 21
1987.212733158858
 31
0.0
 12
-2673.904080793275
 22
1997.742490882518
 32
0.0
 13
-2673.904080793275
 23
1997.742490882518
 33
0.0
  0
POINT
  5
EB0
330
EAA
100
AcDbEntity
  8
Defpoints
 62
     0
440
 16777216
100
AcDbPoint
 10
-2673.904080793275
 20
1997.742490882518
 30
0.0
  0
POINT
  5
EB1
330
EAA
100
AcDbEntity
  8
Defpoints
 62
     0
440
 16777216
100
AcDbPoint
 10
-2730.418911220502
 20
1943.983082945096
 30
0.0
  0
ENDBLK
  5
EB2
330
EAA
100
AcDbEntity
  8
0
100
AcDbBlockEnd
  0
BLOCK
  5
EB4
330
EB3
100
AcDbEntity
  8
0
100
AcDbBlockBegin
  2
*D76
 70
     1
 10
0.0
 20
0.0
 30
0.0
  3
*D76
  1

  0
LINE
  5
EB5
330
EB3
100
AcDbEntity
  8
图层3
 62
     0
440
 16777216
370
    -2
100
AcDbLine
 10
-2890.207730754681
 20
1696.186967834188
 30
0.0
 11
-2744.541064088014
 21
1696.186967834189
 31
0.0
  0
LINE
  5
EB6
330
EB3
100
AcDbEntity
  8
图层3
 62
     0
440
 16777216
370
    -2
100
AcDbLine
 10
-2744.541064088014
 20
1696.186967834189
 30
0.0
 11
-2679.286978424341
 21
1635.175913519068
 31
0.0
  0
MTEXT
  5
EB7
330
EB3
100
AcDbEntity
  8
图层3
 62
     0
440
 16777216
100
AcDbMText
 10
-2820.874397421349
 20
1709.686967834189
 30
0.0
 40
13.0
 41
0.0
 71
     5
 72
     1
  1
R83 [R3 1/4]
 73
     1
 44
1.0
  0
SOLID
  5
EB8
330
EB3
100
AcDbEntity
  8
图层3
 62
     0
440
 16777216
100
AcDbTrace
 10
-2677.807232704012
 20
1636.758568581807
 30
0.0
 11
-2680.76672414467
 21
1633.59325845633
 31
0.0
 12
-2669.791048047911
 22
1626.297439197092
 32
0.0
 13
-2669.791048047911
 23
1626.297439197092
 33
0.0
  0
POINT
  5
EB9
330
EB3
100
AcDbEntity
  8
Defpoints
 62
     0
440
 16777216
100
AcDbPoint
 10
-2669.791048047911
 20
1626.297439197092
 30
0.0
  0
POINT
  5
EBA
330
EB3
100
AcDbEntity
  8
Defpoints
 62
     0
440
 16777216
100
AcDbPoint
 10
-2730.418911220502
 20
1682.983082945096
 30
0.0
  0
ENDBLK
  5
EBB
330
EB3
100
AcDbEntity
  8
0
100
AcDbBlockEnd
  0
BLOCK
  5
EBD
330
EBC
100
AcDbEntity
  8
0
100
AcDbBlockBegin
  2
*D77
 70
     1
 10
0.0
 20
0.0
 30
0.0
  3
*D77
  1

  0
LINE
  5
EBE
330
EBC
100
AcDbEntity
  8
图层3
 62
     0
440
 16777216
370
    -2
100
AcDbLine
 10
-3173.770339987019
 20
1693.269288545967
 30
0.0
 11
-3319.437006653687
 21
1693.269288545967
 31
0.0
  0
LINE
  5
EBF
330
EBC
100
AcDbEntity
  8
图层3
 62
     0
440
 16777216
370
    -2
100
AcDbLine
 10
-3319.437006653687
 20
1693.269288545967
 30
0.0
 11
-3381.649807209662
 21
1629.159914103323
 31
0.0
  0
MTEXT
  5
EC0
330
EBC
100
AcDbEntity
  8
图层3
 62
     0
440
 16777216
100
AcDbMText
 10
-3243.103673320353
 20
1706.769288545967
 30
0.0
 40
13.0
 41
0.0
 71
     5
 72
     1
  1
R88 [R3 1/2]
 73
     1
 44
1.0
  0
SOLID
  5
EC1
330
EBC
100
AcDbEntity
  8
图层3
 62
     0
440
 16777216
100
AcDbTrace
 10
-3383.204698753978
 20
1630.66880665412
 30
0.0
 11
-3380.094915665343
 21
1627.651021552525
 31
0.0
 12
-3390.703162514448
 22
1619.830564837416
 32
0.0
 13
-3390.703162514448
 23
1619.830564837416
 33
0.0
  0
POINT
  5
EC2
330
EBC
100
AcDbEntity
  8
Defpoints
 62
     0
440
 16777216
100
AcDbPoint
 10
-3390.703162514448
 20
1619.830564837416
 30
0.0
  0
POINT
  5
EC3
330
EBC
100
AcDbEntity
  8
Defpoints
 62
     0
440
 16777216
100
AcDbPoint
 10
-3329.418911220503
 20
1682.983082945096
 30
0.0
  0
ENDBLK
  5
EC4
330
EBC
100
AcDbEntity
  8
0
100
AcDbBlockEnd
  0
BLOCK
  5
F57
330
F56
100
AcDbEntity
  8
0
100
AcDbBlockBegin
  2
*D78
 70
     1
 10
0.0
 20
0.0
 30
0.0
  3
*D78
  1

  0
LINE
  5
FCB
330
F56
100
AcDbEntity
  8
图层3
 62
     0
440
 16777216
370
    -2
100
AcDbLine
 10
745.4317461441717
 20
561.1822260630281
 30
0.0
 11
636.4930080547066
 21
561.1822260630281
 31
0.0
  0
LINE
  5
FCC
330
F56
100
AcDbEntity
  8
图层3
 62
     0
440
 16777216
370
    -2
100
AcDbLine
 10
745.4317461441717
 20
978.1822260630287
 30
0.0
 11
636.4930080547065
 21
978.1822260630287
 31
0.0
  0
LINE
  5
FCD
330
F56
100
AcDbEntity
  8
图层3
 62
     0
440
 16777216
370
    -2
100
AcDbLine
 10
637.7430080547067
 20
571.1822260630281
 30
0.0
 11
637.7430080547063
 21
968.1822260630287
 31
0.0
  0
SOLID
  5
FCE
330
F56
100
AcDbEntity
  8
图层3
 62
     0
440
 16777216
100
AcDbTrace
 10
636.0763413880398
 20
571.1822260630281
 30
0.0
 11
639.4096747213732
 21
571.1822260630281
 31
0.0
 12
637.7430080547067
 22
561.1822260630281
 32
0.0
 13
637.7430080547067
 23
561.1822260630281
 33
0.0
  0
SOLID
  5
FCF
330
F56
100
AcDbEntity
  8
图层3
 62
     0
440
 16777216
100
AcDbTrace
 10
636.0763413880397
 20
968.1822260630287
 30
0.0
 11
639.4096747213731
 21
968.1822260630287
 31
0.0
 12
637.7430080547063
 22
978.1822260630287
 32
0.0
 13
637.7430080547063
 23
978.1822260630287
 33
0.0
  0
MTEXT
  5
FD0
330
F56
100
AcDbEntity
  8
图层3
 62
     0
440
 16777216
100
AcDbMText
 10
627.2430080547064
 20
769.682226063028
 30
0.0
 40
11.0
 41
0.0
 71
     5
 72
     1
  1
417 [16 3/8]
 11
0.0000000000000001
 21
1.0
 31
0.0
 73
     1
 44
1.0
  0
POINT
  5
FD1
330
F56
100
AcDbEntity
  8
Defpoints
 62
     0
440
 16777216
100
AcDbPoint
 10
753.4317461441717
 20
561.1822260630281
 30
0.0
  0
POINT
  5
FD2
330
F56
100
AcDbEntity
  8
Defpoints
 62
     0
440
 16777216
100
AcDbPoint
 10
753.4317461441717
 20
978.1822260630287
 30
0.0
  0
POINT
  5
FD3
330
F56
100
AcDbEntity
  8
Defpoints
 62
     0
440
 16777216
100
AcDbPoint
 10
637.7430080547063
 20
978.1822260630287
 30
0.0
  0
ENDBLK
  5
F58
330
F56
100
AcDbEntity
  8
0
100
AcDbBlockEnd
  0
BLOCK
  5
F63
330
F62
100
AcDbEntity
  8
0
100
AcDbBlockBegin
  2
*D79
 70
     1
 10
0.0
 20
0.0
 30
0.0
  3
*D79
  1

  0
LINE
  5
FD4
330
F62
100
AcDbEntity
  8
图层3
 62
     0
440
 16777216
370
    -2
100
AcDbLine
 10
745.4317461441717
 20
556.1822260630281
 30
0.0
 11
598.2362138000104
 21
556.1822260630281
 31
0.0
  0
LINE
  5
FD5
330
F62
100
AcDbEntity
  8
图层3
 62
     0
440
 16777216
370
    -2
100
AcDbLine
 10
745.4317461441717
 20
983.1822260630287
 30
0.0
 11
598.2362138000102
 21
983.1822260630287
 31
0.0
  0
LINE
  5
FD6
330
F62
100
AcDbEntity
  8
图层3
 62
     0
440
 16777216
370
    -2
100
AcDbLine
 10
599.4862138000104
 20
566.1822260630279
 30
0.0
 11
599.4862138000102
 21
973.1822260630286
 31
0.0
  0
SOLID
  5
FD7
330
F62
100
AcDbEntity
  8
图层3
 62
     0
440
 16777216
100
AcDbTrace
 10
597.8195471333436
 20
566.1822260630279
 30
0.0
 11
601.152880466677
 21
566.1822260630279
 31
0.0
 12
599.4862138000104
 22
556.1822260630281
 32
0.0
 13
599.4862138000104
 23
556.1822260630281
 33
0.0
  0
SOLID
  5
FD8
330
F62
100
AcDbEntity
  8
图层3
 62
     0
440
 16777216
100
AcDbTrace
 10
597.8195471333436
 20
973.1822260630286
 30
0.0
 11
601.1528804666768
 21
973.1822260630286
 31
0.0
 12
599.4862138000102
 22
983.1822260630287
 32
0.0
 13
599.4862138000102
 23
983.1822260630287
 33
0.0
  0
MTEXT
  5
FD9
330
F62
100
AcDbEntity
  8
图层3
 62
     0
440
 16777216
100
AcDbMText
 10
588.9862138000104
 20
769.682226063028
 30
0.0
 40
11.0
 41
0.0
 71
     5
 72
     1
  1
427 [16 3/4]
 11
0.0000000000000001
 21
1.0
 31
0.0
 73
     1
 44
1.0
  0
POINT
  5
FDA
330
F62
100
AcDbEntity
  8
Defpoints
 62
     0
440
 16777216
100
AcDbPoint
 10
753.4317461441717
 20
556.1822260630281
 30
0.0
  0
POINT
  5
FDB
330
F62
100
AcDbEntity
  8
Defpoints
 62
     0
440
 16777216
100
AcDbPoint
 10
753.4317461441717
 20
983.1822260630287
 30
0.0
  0
POINT
  5
FDC
330
F62
100
AcDbEntity
  8
Defpoints
 62
     0
440
 16777216
100
AcDbPoint
 10
599.4862138000102
 20
983.1822260630287
 30
0.0
  0
ENDBLK
  5
F64
330
F62
100
AcDbEntity
  8
0
100
AcDbBlockEnd
  0
BLOCK
  5
F6F
330
F6E
100
AcDbEntity
  8
0
100
AcDbBlockBegin
  2
*D80
 70
     1
 10
0.0
 20
0.0
 30
0.0
  3
*D80
  1

  0
LINE
  5
FDD
330
F6E
100
AcDbEntity
  8
图层3
 62
     0
440
 16777216
370
    -2
100
AcDbLine
 10
745.4317461441717
 20
551.1822260630281
 30
0.0
 11
560.8295672243116
 21
551.1822260630281
 31
0.0
  0
LINE
  5
FDE
330
F6E
100
AcDbEntity
  8
图层3
 62
     0
440
 16777216
370
    -2
100
AcDbLine
 10
745.4317461441717
 20
988.1822260630286
 30
0.0
 11
560.8295672243116
 21
988.1822260630286
 31
0.0
  0
LINE
  5
FDF
330
F6E
100
AcDbEntity
  8
图层3
 62
     0
440
 16777216
370
    -2
100
AcDbLine
 10
562.0795672243116
 20
561.1822260630281
 30
0.0
 11
562.0795672243116
 21
978.1822260630287
 31
0.0
  0
SOLID
  5
FE0
330
F6E
100
AcDbEntity
  8
图层3
 62
     0
440
 16777216
100
AcDbTrace
 10
560.4129005576451
 20
561.1822260630281
 30
0.0
 11
563.7462338909783
 21
561.1822260630281
 31
0.0
 12
562.0795672243116
 22
551.1822260630281
 32
0.0
 13
562.0795672243116
 23
551.1822260630281
 33
0.0
  0
SOLID
  5
FE1
330
F6E
100
AcDbEntity
  8
图层3
 62
     0
440
 16777216
100
AcDbTrace
 10
560.4129005576448
 20
978.1822260630287
 30
0.0
 11
563.7462338909783
 21
978.1822260630287
 31
0.0
 12
562.0795672243116
 22
988.1822260630286
 32
0.0
 13
562.0795672243116
 23
988.1822260630286
 33
0.0
  0
MTEXT
  5
FE2
330
F6E
100
AcDbEntity
  8
图层3
 62
     0
440
 16777216
100
AcDbMText
 10
551.5795672243116
 20
769.682226063028
 30
0.0
 40
11.0
 41
0.0
 71
     5
 72
     1
  1
437 [17 1/4]
 11
0.0000000000000001
 21
1.0
 31
0.0
 73
     1
 44
1.0
  0
POINT
  5
FE3
330
F6E
100
AcDbEntity
  8
Defpoints
 62
     0
440
 16777216
100
AcDbPoint
 10
753.4317461441717
 20
551.1822260630281
 30
0.0
  0
POINT
  5
FE4
330
F6E
100
AcDbEntity
  8
Defpoints
 62
     0
440
 16777216
100
AcDbPoint
 10
753.4317461441717
 20
988.1822260630286
 30
0.0
  0
POINT
  5
FE5
330
F6E
100
AcDbEntity
  8
Defpoints
 62
     0
440
 16777216
100
AcDbPoint
 10
562.0795672243116
 20
988.1822260630286
 30
0.0
  0
ENDBLK
  5
F70
330
F6E
100
AcDbEntity
  8
0
100
AcDbBlockEnd
  0
BLOCK
  5
F7B
330
F7A
100
AcDbEntity
  8
0
100
AcDbBlockBegin
  2
*D81
 70
     1
 10
0.0
 20
0.0
 30
0.0
  3
*D81
  1

  0
LINE
  5
FE6
330
F7A
100
AcDbEntity
  8
图层3
 62
     0
440
 16777216
370
    -2
100
AcDbLine
 10
675.4317461441715
 20
631.1822260630279
 30
0.0
 11
675.4317461441715
 21
511.9986145276916
 31
0.0
  0
LINE
  5
FE7
330
F7A
100
AcDbEntity
  8
图层3
 62
     0
440
 16777216
370
    -2
100
AcDbLine
 10
1430.431746144171
 20
631.1822260630279
 30
0.0
 11
1430.431746144171
 21
511.9986145276916
 31
0.0
  0
LINE
  5
FE8
330
F7A
100
AcDbEntity
  8
图层3
 62
     0
440
 16777216
370
    -2
100
AcDbLine
 10
685.4317461441715
 20
513.2486145276916
 30
0.0
 11
1420.431746144171
 21
513.2486145276916
 31
0.0
  0
SOLID
  5
FE9
330
F7A
100
AcDbEntity
  8
图层3
 62
     0
440
 16777216
100
AcDbTrace
 10
685.4317461441715
 20
514.9152811943582
 30
0.0
 11
685.4317461441715
 21
511.5819478610248
 31
0.0
 12
675.4317461441715
 22
513.2486145276916
 32
0.0
 13
675.4317461441715
 23
513.2486145276916
 33
0.0
  0
SOLID
  5
FEA
330
F7A
100
AcDbEntity
  8
图层3
 62
     0
440
 16777216
100
AcDbTrace
 10
1420.431746144171
 20
514.9152811943582
 30
0.0
 11
1420.431746144171
 21
511.5819478610248
 31
0.0
 12
1430.431746144171
 22
513.2486145276916
 32
0.0
 13
1430.431746144171
 23
513.2486145276916
 33
0.0
  0
MTEXT
  5
FEB
330
F7A
100
AcDbEntity
  8
图层3
 62
     0
440
 16777216
100
AcDbMText
 10
1052.931746144171
 20
523.7486145276916
 30
0.0
 40
11.0
 41
0.0
 71
     5
 72
     1
  1
755 [29 3/4]
 73
     1
 44
1.0
  0
POINT
  5
FEC
330
F7A
100
AcDbEntity
  8
Defpoints
 62
     0
440
 16777216
100
AcDbPoint
 10
675.4317461441715
 20
639.1822260630277
 30
0.0
  0
POINT
  5
FED
330
F7A
100
AcDbEntity
  8
Defpoints
 62
     0
440
 16777216
100
AcDbPoint
 10
1430.431746144171
 20
639.1822260630277
 30
0.0
  0
POINT
  5
FEE
330
F7A
100
AcDbEntity
  8
Defpoints
 62
     0
440
 16777216
100
AcDbPoint
 10
1430.431746144171
 20
513.2486145276916
 30
0.0
  0
ENDBLK
  5
F7C
330
F7A
100
AcDbEntity
  8
0
100
AcDbBlockEnd
  0
BLOCK
  5
F87
330
F86
100
AcDbEntity
  8
0
100
AcDbBlockBegin
  2
*D82
 70
     1
 10
0.0
 20
0.0
 30
0.0
  3
*D82
  1

  0
LINE
  5
FEF
330
F86
100
AcDbEntity
  8
图层3
 62
     0
440
 16777216
370
    -2
100
AcDbLine
 10
670.4317461441713
 20
631.1822260630279
 30
0.0
 11
670.4317461441713
 21
476.3267782024604
 31
0.0
  0
LINE
  5
FF0
330
F86
100
AcDbEntity
  8
图层3
 62
     0
440
 16777216
370
    -2
100
AcDbLine
 10
1435.431746144171
 20
631.1822260630282
 30
0.0
 11
1435.431746144171
 21
476.3267782024604
 31
0.0
  0
LINE
  5
FF1
330
F86
100
AcDbEntity
  8
图层3
 62
     0
440
 16777216
370
    -2
100
AcDbLine
 10
680.4317461441715
 20
477.5767782024604
 30
0.0
 11
1425.431746144171
 21
477.5767782024604
 31
0.0
  0
SOLID
  5
FF2
330
F86
100
AcDbEntity
  8
图层3
 62
     0
440
 16777216
100
AcDbTrace
 10
680.4317461441715
 20
479.2434448691271
 30
0.0
 11
680.4317461441715
 21
475.9101115357936
 31
0.0
 12
670.4317461441713
 22
477.5767782024604
 32
0.0
 13
670.4317461441713
 23
477.5767782024604
 33
0.0
  0
SOLID
  5
FF3
330
F86
100
AcDbEntity
  8
图层3
 62
     0
440
 16777216
100
AcDbTrace
 10
1425.431746144171
 20
479.2434448691271
 30
0.0
 11
1425.431746144171
 21
475.9101115357936
 31
0.0
 12
1435.431746144171
 22
477.5767782024604
 32
0.0
 13
1435.431746144171
 23
477.5767782024604
 33
0.0
  0
MTEXT
  5
FF4
330
F86
100
AcDbEntity
  8
图层3
 62
     0
440
 16777216
100
AcDbMText
 10
1052.931746144171
 20
488.0767782024603
 30
0.0
 40
11.0
 41
0.0
 71
     5
 72
     1
  1
765 [30 1/8]
 73
     1
 44
1.0
  0
POINT
  5
FF5
330
F86
100
AcDbEntity
  8
Defpoints
 62
     0
440
 16777216
100
AcDbPoint
 10
670.4317461441713
 20
639.1822260630277
 30
0.0
  0
POINT
  5
FF6
330
F86
100
AcDbEntity
  8
Defpoints
 62
     0
440
 16777216
100
AcDbPoint
 10
1435.431746144171
 20
639.1822260630282
 30
0.0
  0
POINT
  5
FF7
330
F86
100
AcDbEntity
  8
Defpoints
 62
     0
440
 16777216
100
AcDbPoint
 10
1435.431746144171
 20
477.5767782024604
 30
0.0
  0
ENDBLK
  5
F88
330
F86
100
AcDbEntity
  8
0
100
AcDbBlockEnd
  0
BLOCK
  5
F93
330
F92
100
AcDbEntity
  8
0
100
AcDbBlockBegin
  2
*D83
 70
     1
 10
0.0
 20
0.0
 30
0.0
  3
*D83
  1

  0
LINE
  5
FF8
330
F92
100
AcDbEntity
  8
图层3
 62
     0
440
 16777216
370
    -2
100
AcDbLine
 10
665.4317461441713
 20
631.1822260630279
 30
0.0
 11
665.4317461441713
 21
440.654953294007
 31
0.0
  0
LINE
  5
FF9
330
F92
100
AcDbEntity
  8
图层3
 62
     0
440
 16777216
370
    -2
100
AcDbLine
 10
1440.431746144171
 20
631.1822260630279
 30
0.0
 11
1440.431746144171
 21
440.654953294007
 31
0.0
  0
LINE
  5
FFA
330
F92
100
AcDbEntity
  8
图层3
 62
     0
440
 16777216
370
    -2
100
AcDbLine
 10
675.4317461441715
 20
441.904953294007
 30
0.0
 11
1430.431746144171
 21
441.904953294007
 31
0.0
  0
SOLID
  5
FFB
330
F92
100
AcDbEntity
  8
图层3
 62
     0
440
 16777216
100
AcDbTrace
 10
675.4317461441715
 20
443.5716199606736
 30
0.0
 11
675.4317461441715
 21
440.2382866273404
 31
0.0
 12
665.4317461441713
 22
441.904953294007
 32
0.0
 13
665.4317461441713
 23
441.904953294007
 33
0.0
  0
SOLID
  5
FFC
330
F92
100
AcDbEntity
  8
图层3
 62
     0
440
 16777216
100
AcDbTrace
 10
1430.431746144171
 20
443.5716199606736
 30
0.0
 11
1430.431746144171
 21
440.2382866273404
 31
0.0
 12
1440.431746144171
 22
441.904953294007
 32
0.0
 13
1440.431746144171
 23
441.904953294007
 33
0.0
  0
MTEXT
  5
FFD
330
F92
100
AcDbEntity
  8
图层3
 62
     0
440
 16777216
100
AcDbMText
 10
1052.931746144171
 20
452.4049532940071
 30
0.0
 40
11.0
 41
0.0
 71
     5
 72
     1
  1
775 [30 1/2]
 73
     1
 44
1.0
  0
POINT
  5
FFE
330
F92
100
AcDbEntity
  8
Defpoints
 62
     0
440
 16777216
100
AcDbPoint
 10
665.4317461441713
 20
639.1822260630277
 30
0.0
  0
POINT
  5
FFF
330
F92
100
AcDbEntity
  8
Defpoints
 62
     0
440
 16777216
100
AcDbPoint
 10
1440.431746144171
 20
639.1822260630277
 30
0.0
  0
POINT
  5
1000
330
F92
100
AcDbEntity
  8
Defpoints
 62
     0
440
 16777216
100
AcDbPoint
 10
1440.431746144171
 20
441.904953294007
 30
0.0
  0
ENDBLK
  5
F94
330
F92
100
AcDbEntity
  8
0
100
AcDbBlockEnd
  0
BLOCK
  5
F9F
330
F9E
100
AcDbEntity
  8
0
100
AcDbBlockBegin
  2
*D84
 70
     1
 10
0.0
 20
0.0
 30
0.0
  3
*D84
  1

  0
LINE
  5
1019
330
F9E
100
AcDbEntity
  8
图层3
 62
     0
440
 16777216
370
    -2
100
AcDbLine
 10
1199.801051181833
 20
883.4111287150317
 30
0.0
 11
1334.801051181834
 21
883.4111287150317
 31
0.0
  0
LINE
  5
101A
330
F9E
100
AcDbEntity
  8
图层3
 62
     0
440
 16777216
370
    -2
100
AcDbLine
 10
1334.801051181834
 20
883.4111287150317
 30
0.0
 11
1401.701085490984
 21
947.049402213601
 31
0.0
  0
MTEXT
  5
101B
330
F9E
100
AcDbEntity
  8
图层3
 62
     0
440
 16777216
100
AcDbMText
 10
1258.4677178485
 20
893.9111287150314
 30
0.0
 40
11.0
 41
0.0
 71
     5
 72
     1
  1
R78 [R3 1/8]
 73
     1
 44
1.0
  0
SOLID
  5
101C
330
F9E
100
AcDbEntity
  8
图层3
 62
     0
440
 16777216
100
AcDbTrace
 10
1400.552380193176
 20
948.2569840603366
 30
0.0
 11
1402.849790788792
 21
945.8418203668657
 31
0.0
 12
1408.946576571398
 22
953.9416340004496
 32
0.0
 13
1408.946576571398
 23
953.9416340004496
 33
0.0
  0
POINT
  5
101D
330
F9E
100
AcDbEntity
  8
Defpoints
 62
     0
440
 16777216
100
AcDbPoint
 10
1408.946576571398
 20
953.9416340004496
 30
0.0
  0
POINT
  5
101E
330
F9E
100
AcDbEntity
  8
Defpoints
 62
     0
440
 16777216
100
AcDbPoint
 10
1352.431746144171
 20
900.1822260630284
 30
0.0
  0
ENDBLK
  5
FA0
330
F9E
100
AcDbEntity
  8
0
100
AcDbBlockEnd
  0
BLOCK
  5
FA8
330
FA7
100
AcDbEntity
  8
0
100
AcDbBlockBegin
  2
*D85
 70
     1
 10
0.0
 20
0.0
 30
0.0
  3
*D85
  1

  0
LINE
  5
101F
330
FA7
100
AcDbEntity
  8
图层3
 62
     0
440
 16777216
370
    -2
100
AcDbLine
 10
1203.309593276659
 20
652.3861109521212
 30
0.0
 11
1338.30959327666
 21
652.3861109521212
 31
0.0
  0
LINE
  5
1020
330
FA7
100
AcDbEntity
  8
图层3
 62
     0
440
 16777216
370
    -2
100
AcDbLine
 10
1338.30959327666
 20
652.3861109521212
 30
0.0
 11
1405.75504748874
 21
589.3261779473142
 31
0.0
  0
MTEXT
  5
1021
330
FA7
100
AcDbEntity
  8
图层3
 62
     0
440
 16777216
100
AcDbMText
 10
1261.976259943325
 20
662.8861109521213
 30
0.0
 40
11.0
 41
0.0
 71
     5
 72
     1
  1
R83 [R3 1/4]
 73
     1
 44
1.0
  0
SOLID
  5
1022
330
FA7
100
AcDbEntity
  8
图层3
 62
     0
440
 16777216
100
AcDbTrace
 10
1406.893313427455
 20
590.5436049186516
 30
0.0
 11
1404.616781550025
 21
588.1087509759773
 31
0.0
 12
1413.059609316763
 22
582.4965823150249
 32
0.0
 13
1413.059609316763
 23
582.4965823150249
 33
0.0
  0
POINT
  5
1023
330
FA7
100
AcDbEntity
  8
Defpoints
 62
     0
440
 16777216
100
AcDbPoint
 10
1413.059609316763
 20
582.4965823150249
 30
0.0
  0
POINT
  5
1024
330
FA7
100
AcDbEntity
  8
Defpoints
 62
     0
440
 16777216
100
AcDbPoint
 10
1352.431746144171
 20
639.1822260630277
 30
0.0
  0
ENDBLK
  5
FA9
330
FA7
100
AcDbEntity
  8
0
100
AcDbBlockEnd
  0
BLOCK
  5
FB1
330
FB0
100
AcDbEntity
  8
0
100
AcDbBlockBegin
  2
*D86
 70
     1
 10
0.0
 20
0.0
 30
0.0
  3
*D86
  1

  0
LINE
  5
1013
330
FB0
100
AcDbEntity
  8
图层3
 62
     0
440
 16777216
370
    -2
100
AcDbLine
 10
898.4136507109884
 20
649.4684316638987
 30
0.0
 11
763.4136507109871
 21
649.468431663899
 31
0.0
  0
LINE
  5
1014
330
FB0
100
AcDbEntity
  8
图层3
 62
     0
440
 16777216
370
    -2
100
AcDbLine
 10
763.4136507109871
 20
649.468431663899
 30
0.0
 11
699.1116143154471
 21
583.2061304675837
 31
0.0
  0
MTEXT
  5
1015
330
FB0
100
AcDbEntity
  8
图层3
 62
     0
440
 16777216
100
AcDbMText
 10
839.7469840443219
 20
659.9684316638987
 30
0.0
 40
11.0
 41
0.0
 71
     5
 72
     1
  1
R88 [R3 1/2]
 73
     1
 44
1.0
  0
SOLID
  5
1016
330
FB0
100
AcDbEntity
  8
图层3
 62
     0
440
 16777216
100
AcDbTrace
 10
697.915543896741
 20
584.3668170451206
 30
0.0
 11
700.3076847341531
 21
582.0454438900468
 31
0.0
 12
692.1474948502263
 22
576.0297079553473
 32
0.0
 13
692.1474948502263
 23
576.0297079553473
 33
0.0
  0
POINT
  5
1017
330
FB0
100
AcDbEntity
  8
Defpoints
 62
     0
440
 16777216
100
AcDbPoint
 10
692.1474948502263
 20
576.0297079553473
 30
0.0
  0
POINT
  5
1018
330
FB0
100
AcDbEntity
  8
Defpoints
 62
     0
440
 16777216
100
AcDbPoint
 10
753.4317461441716
 20
639.182226063028
 30
0.0
  0
ENDBLK
  5
FB2
330
FB0
100
AcDbEntity
  8
0
100
AcDbBlockEnd
  0
ENDSEC
  0
SECTION
  2
ENTITIES
  0
LWPOLYLINE
  5
570
330
1F
100
AcDbEntity
  8
图层3
100
AcDbPolyline
 90
        4
 70
     1
 43
0.0
 10
1626.639980804352
 20
236.885967624582
 10
453.9126484571879
 20
236.885967624582
 10
453.9126484571879
 20
1041.54296130018
 10
1626.639980804352
 20
1041.54296130018
  0
TEXT
  5
9ED
330
1F
100
AcDbEntity
  8
图层3
100
AcDbText
 10
903.2829939615297
 20
315.1162694228569
 30
0.0
 40
33.69409863958936
  1
207044
100
AcDbText
  0
LINE
  5
F11
330
1F
100
AcDbEntity
  8
图层3
  6
DASHED2
 62
   242
420
 13443111
100
AcDbLine
 10
753.4317461441714
 20
983.1822260630284
 30
0.0
 11
954.4317461441714
 21
983.1822260630284
 31
0.0
  0
LINE
  5
F12
102
{ACAD_REACTORS
330
F3D
102
}
330
1F
100
AcDbEntity
  8
图层3
100
AcDbLine
 10
753.4317461441714
 20
978.1822260630285
 30
0.0
 11
954.4317461441714
 21
978.1822260630285
 31
0.0
  0
LINE
  5
F13
330
1F
100
AcDbEntity
  8
图层3
100
AcDbLine
 10
753.4317461441714
 20
988.1822260630285
 30
0.0
 11
954.4317461441714
 21
988.1822260630285
 31
0.0
  0
LINE
  5
F14
330
1F
100
AcDbEntity
  8
图层3
  6
DASHED2
 62
   242
420
 13443111
100
AcDbLine
 10
1151.431746144171
 20
983.1822260630284
 30
0.0
 11
1352.431746144171
 21
983.1822260630277
 31
0.0
  0
LINE
  5
F15
330
1F
100
AcDbEntity
  8
图层3
100
AcDbLine
 10
1151.431746144171
 20
978.1822260630285
 30
0.0
 11
1352.431746144171
 21
978.1822260630278
 31
0.0
  0
LINE
  5
F16
330
1F
100
AcDbEntity
  8
图层3
100
AcDbLine
 10
1151.431746144171
 20
988.1822260630285
 30
0.0
 11
1352.431746144171
 21
988.1822260630279
 31
0.0
  0
LINE
  5
F17
102
{ACAD_REACTORS
330
F49
102
}
330
1F
100
AcDbEntity
  8
图层3
  6
DASHED2
 62
   242
420
 13443111
100
AcDbLine
 10
1435.431746144171
 20
900.1822260630284
 30
0.0
 11
1435.431746144171
 21
639.1822260630277
 31
0.0
  0
LINE
  5
F18
330
1F
100
AcDbEntity
  8
图层3
100
AcDbLine
 10
1430.431746144171
 20
900.1822260630284
 30
0.0
 11
1430.431746144171
 21
639.1822260630277
 31
0.0
  0
LINE
  5
F19
102
{ACAD_REACTORS
330
F4C
102
}
330
1F
100
AcDbEntity
  8
图层3
100
AcDbLine
 10
1440.431746144171
 20
900.1822260630284
 30
0.0
 11
1440.431746144171
 21
639.1822260630277
 31
0.0
  0
LINE
  5
F1A
330
1F
100
AcDbEntity
  8
图层3
  6
DASHED2
 62
   242
420
 13443111
100
AcDbLine
 10
1352.431746144171
 20
556.1822260630277
 30
0.0
 11
1151.431746144171
 21
556.1822260630283
 31
0.0
  0
LINE
  5
F1B
330
1F
100
AcDbEntity
  8
图层3
100
AcDbLine
 10
1352.431746144171
 20
561.1822260630279
 30
0.0
 11
1151.431746144171
 21
561.1822260630283
 31
0.0
  0
LINE
  5
F1C
330
1F
100
AcDbEntity
  8
图层3
100
AcDbLine
 10
1352.431746144171
 20
551.1822260630277
 30
0.0
 11
1151.431746144171
 21
551.1822260630283
 31
0.0
  0
LINE
  5
F1D
330
1F
100
AcDbEntity
  8
图层3
  6
DASHED2
 62
   242
420
 13443111
100
AcDbLine
 10
670.4317461441713
 20
639.1822260630277
 30
0.0
 11
670.4317461441713
 21
900.1822260630284
 31
0.0
  0
LINE
  5
F1E
330
1F
100
AcDbEntity
  8
图层3
100
AcDbLine
 10
675.4317461441715
 20
639.1822260630277
 30
0.0
 11
675.4317461441715
 21
900.1822260630284
 31
0.0
  0
LINE
  5
F1F
330
1F
100
AcDbEntity
  8
图层3
100
AcDbLine
 10
665.4317461441713
 20
639.1822260630277
 30
0.0
 11
665.4317461441713
 21
900.1822260630284
 31
0.0
  0
LINE
  5
F20
330
1F
100
AcDbEntity
  8
图层3
  6
DASHED2
 62
   242
420
 13443111
100
AcDbLine
 10
753.4317461441714
 20
556.1822260630277
 30
0.0
 11
954.4317461441714
 21
556.1822260630277
 31
0.0
  0
LINE
  5
F21
102
{ACAD_REACTORS
330
F3D
102
}
330
1F
100
AcDbEntity
  8
图层3
100
AcDbLine
 10
753.4317461441714
 20
561.1822260630279
 30
0.0
 11
954.4317461441714
 21
561.1822260630279
 31
0.0
  0
LINE
  5
F22
330
1F
100
AcDbEntity
  8
图层3
100
AcDbLine
 10
753.4317461441714
 20
551.1822260630277
 30
0.0
 11
954.4317461441714
 21
551.1822260630277
 31
0.0
  0
ARC
  5
F23
102
{ACAD_REACTORS
330
F40
102
}
330
1F
100
AcDbEntity
  8
图层3
  6
DASHED2
 62
   242
420
 13443111
100
AcDbCircle
 10
753.4317461441714
 20
900.1822260630284
 30
0.0
 40
83.0
100
AcDbArc
 50
90.0
 51
180.0
  0
ARC
  5
F24
330
1F
100
AcDbEntity
  8
图层3
100
AcDbCircle
 10
753.4317461441714
 20
900.1822260630284
 30
0.0
 40
78.0
100
AcDbArc
 50
90.0
 51
180.0
  0
ARC
  5
F25
102
{ACAD_REACTORS
330
F43
102
}
330
1F
100
AcDbEntity
  8
图层3
100
AcDbCircle
 10
753.4317461441714
 20
900.1822260630284
 30
0.0
 40
88.0
100
AcDbArc
 50
90.0
 51
180.0
  0
ARC
  5
F26
102
{ACAD_REACTORS
330
F40
330
F49
102
}
330
1F
100
AcDbEntity
  8
图层3
  6
DASHED2
 62
   242
420
 13443111
100
AcDbCircle
 10
753.4317461441714
 20
639.1822260630277
 30
0.0
 40
83.0
100
AcDbArc
 50
180.0
 51
270.0
  0
ARC
  5
F27
102
{ACAD_REACTORS
330
F46
102
}
330
1F
100
AcDbEntity
  8
图层3
100
AcDbCircle
 10
753.4317461441714
 20
639.1822260630277
 30
0.0
 40
78.0
100
AcDbArc
 50
180.0
 51
270.0
  0
ARC
  5
F28
102
{ACAD_REACTORS
330
F43
330
F4C
330
F55
102
}
330
1F
100
AcDbEntity
  8
图层3
100
AcDbCircle
 10
753.4317461441714
 20
639.1822260630277
 30
0.0
 40
88.0
100
AcDbArc
 50
180.0
 51
270.0
  0
ARC
  5
F29
330
1F
100
AcDbEntity
  8
图层3
  6
DASHED2
 62
   242
420
 13443111
100
AcDbCircle
 10
1352.431746144171
 20
900.1822260630284
 30
0.0
 40
83.0
100
AcDbArc
 50
0.0
 51
90.0
  0
ARC
  5
F2A
102
{ACAD_REACTORS
330
F4F
102
}
330
1F
100
AcDbEntity
  8
图层3
100
AcDbCircle
 10
1352.431746144171
 20
900.1822260630284
 30
0.0
 40
78.0
100
AcDbArc
 50
0.0
 51
90.0
  0
ARC
  5
F2B
330
1F
100
AcDbEntity
  8
图层3
100
AcDbCircle
 10
1352.431746144171
 20
900.1822260630284
 30
0.0
 40
88.0
100
AcDbArc
 50
0.0
 51
90.0
  0
ARC
  5
F2C
102
{ACAD_REACTORS
330
F52
102
}
330
1F
100
AcDbEntity
  8
图层3
  6
DASHED2
 62
   242
420
 13443111
100
AcDbCircle
 10
1352.431746144171
 20
639.1822260630277
 30
0.0
 40
83.0
100
AcDbArc
 50
270.0
 51
0.0
  0
ARC
  5
F2D
102
{ACAD_REACTORS
330
F46
102
}
330
1F
100
AcDbEntity
  8
图层3
100
AcDbCircle
 10
1352.431746144171
 20
639.1822260630277
 30
0.0
 40
78.0
100
AcDbArc
 50
270.0
 51
0.0
  0
ARC
  5
F2E
102
{ACAD_REACTORS
330
F4C
102
}
330
1F
100
AcDbEntity
  8
图层3
100
AcDbCircle
 10
1352.431746144171
 20
639.1822260630277
 30
0.0
 40
88.0
100
AcDbArc
 50
270.0
 51
0.0
  0
LINE
  5
F2F
330
1F
100
AcDbEntity
  8
图层3
  6
DASHED2
 62
   242
420
 13443111
100
AcDbLine
 10
753.4317461441714
 20
983.1822260630277
 30
0.0
 11
853.9317461441715
 21
983.1822260630277
 31
0.0
  0
LINE
  5
F30
330
1F
100
AcDbEntity
  8
图层3
100
AcDbLine
 10
753.4317461441714
 20
978.1822260630278
 30
0.0
 11
853.9317461441715
 21
978.1822260630278
 31
0.0
  0
LINE
  5
F31
330
1F
100
AcDbEntity
  8
图层3
100
AcDbLine
 10
753.4317461441714
 20
988.1822260630279
 30
0.0
 11
853.9317461441715
 21
988.1822260630279
 31
0.0
  0
LINE
  5
F32
330
1F
100
AcDbEntity
  8
图层3
  6
DASHED2
 62
   242
420
 13443111
100
AcDbLine
 10
1151.431746144171
 20
983.1822260630277
 30
0.0
 11
1251.931746144171
 21
983.1822260630277
 31
0.0
  0
LINE
  5
F33
330
1F
100
AcDbEntity
  8
图层3
100
AcDbLine
 10
1151.431746144171
 20
978.1822260630278
 30
0.0
 11
1251.931746144171
 21
978.1822260630278
 31
0.0
  0
LINE
  5
F34
330
1F
100
AcDbEntity
  8
图层3
100
AcDbLine
 10
1151.431746144171
 20
988.1822260630279
 30
0.0
 11
1251.931746144171
 21
988.1822260630279
 31
0.0
  0
LINE
  5
F35
330
1F
100
AcDbEntity
  8
图层3
100
AcDbLine
 10
954.4317461441714
 20
551.1822260630277
 30
0.0
 11
1151.431746144171
 21
551.1822260630283
 31
0.0
  0
LINE
  5
F36
330
1F
100
AcDbEntity
  8
图层3
100
AcDbLine
 10
954.4317461441714
 20
988.1822260630285
 30
0.0
 11
1151.431746144171
 21
988.1822260630285
 31
0.0
  0
LINE
  5
F37
330
1F
100
AcDbEntity
  8
图层3
  6
DASHED2
 62
   242
420
 13443111
100
AcDbLine
 10
954.4317461441714
 20
556.1822260630277
 30
0.0
 11
1151.431746144171
 21
556.1822260630283
 31
0.0
  0
LINE
  5
F38
330
1F
100
AcDbEntity
  8
图层3
100
AcDbLine
 10
954.4317461441714
 20
561.1822260630279
 30
0.0
 11
1151.431746144171
 21
561.1822260630283
 31
0.0
  0
LINE
  5
F39
330
1F
100
AcDbEntity
  8
图层3
  6
DASHED2
 62
   242
420
 13443111
100
AcDbLine
 10
954.4317461441714
 20
983.1822260630284
 30
0.0
 11
1151.431746144171
 21
983.1822260630277
 31
0.0
  0
LINE
  5
F3A
330
1F
100
AcDbEntity
  8
图层3
100
AcDbLine
 10
954.4317461441714
 20
978.1822260630285
 30
0.0
 11
1151.431746144171
 21
978.1822260630278
 31
0.0
  0
DIMENSION
  5
F3B
102
{ACAD_XDICTIONARY
360
F3C
102
}
102
{ACAD_REACTORS
330
F3D
102
}
330
1F
100
AcDbEntity
  8
图层3
100
AcDbDimension
  2
*D78
 10
637.7430080547063
 20
978.1822260630287
 30
0.0
 11
627.2430080547064
 21
769.682226063028
 31
0.0
 70
    32
 71
     5
 42
417.0000000000006
  3
ISO-25
100
AcDbAlignedDimension
 13
753.4317461441714
 23
561.1822260630279
 33
0.0
 14
753.4317461441714
 24
978.1822260630285
 34
0.0
 50
90.0
100
AcDbRotatedDimension
  0
DIMENSION
  5
F3E
102
{ACAD_XDICTIONARY
360
F3F
102
}
102
{ACAD_REACTORS
330
F40
102
}
330
1F
100
AcDbEntity
  8
图层3
100
AcDbDimension
  2
*D79
 10
599.4862138000102
 20
983.1822260630287
 30
0.0
 11
588.9862138000104
 21
769.682226063028
 31
0.0
 70
    32
 71
     5
 42
427.0000000000004
  3
ISO-25
100
AcDbAlignedDimension
 13
753.4317461441714
 23
556.1822260630277
 33
0.0
 14
753.4317461441714
 24
983.1822260630284
 34
0.0
 50
90.0
100
AcDbRotatedDimension
  0
DIMENSION
  5
F41
102
{ACAD_XDICTIONARY
360
F42
102
}
102
{ACAD_REACTORS
330
F43
102
}
330
1F
100
AcDbEntity
  8
图层3
100
AcDbDimension
  2
*D80
 10
562.0795672243116
 20
988.1822260630286
 30
0.0
 11
551.5795672243116
 21
769.682226063028
 31
0.0
 70
    32
 71
     5
 42
437.0000000000005
  3
ISO-25
100
AcDbAlignedDimension
 13
753.4317461441714
 23
551.1822260630277
 33
0.0
 14
753.4317461441714
 24
988.1822260630285
 34
0.0
 50
90.0
100
AcDbRotatedDimension
  0
DIMENSION
  5
F44
102
{ACAD_XDICTIONARY
360
F45
102
}
102
{ACAD_REACTORS
330
F46
102
}
330
1F
100
AcDbEntity
  8
图层3
100
AcDbDimension
  2
*D81
 10
1430.431746144171
 20
513.2486145276916
 30
0.0
 11
1052.931746144171
 21
523.7486145276916
 31
0.0
 70
    32
 71
     5
 42
755.0
  3
ISO-25
100
AcDbAlignedDimension
 13
675.4317461441715
 23
639.1822260630277
 33
0.0
 14
1430.431746144171
 24
639.1822260630277
 34
0.0
100
AcDbRotatedDimension
  0
DIMENSION
  5
F47
102
{ACAD_XDICTIONARY
360
F48
102
}
102
{ACAD_REACTORS
330
F49
102
}
330
1F
100
AcDbEntity
  8
图层3
100
AcDbDimension
  2
*D82
 10
1435.431746144171
 20
477.5767782024604
 30
0.0
 11
1052.931746144171
 21
488.0767782024603
 31
0.0
 70
    32
 71
     5
 42
765.0
  3
ISO-25
100
AcDbAlignedDimension
 13
670.4317461441713
 23
639.1822260630277
 33
0.0
 14
1435.431746144171
 24
639.1822260630282
 34
0.0
100
AcDbRotatedDimension
  0
DIMENSION
  5
F4A
102
{ACAD_XDICTIONARY
360
F4B
102
}
102
{ACAD_REACTORS
330
F4C
102
}
330
1F
100
AcDbEntity
  8
图层3
100
AcDbDimension
  2
*D83
 10
1440.431746144171
 20
441.904953294007
 30
0.0
 11
1052.931746144171
 21
452.4049532940071
 31
0.0
 70
    32
 71
     5
 42
775.0
  3
ISO-25
100
AcDbAlignedDimension
 13
665.4317461441713
 23
639.1822260630277
 33
0.0
 14
1440.431746144171
 24
639.1822260630277
 34
0.0
100
AcDbRotatedDimension
  0
DIMENSION
  5
F4D
102
{ACAD_XDICTIONARY
360
F4E
102
}
102
{ACAD_REACTORS
330
F4F
102
}
330
1F
100
AcDbEntity
  8
图层3
100
AcDbDimension
  2
*D84
 10
1352.431746144171
 20
900.1822260630284
 30
0.0
 11
1258.4677178485
 21
883.4111287150316
 31
0.0
 70
   164
 71
     5
 42
78.00000000000159
  3
ISO-25
100
AcDbRadialDimension
 15
1408.946576571398
 25
953.9416340004496
 35
0.0
 40
0.0
1001
ACAD
1000
DSTYLE
1002
{
1070
   288
1070
     1
1002
}
1001
ACAD_DSTYLE_DIMRADIAL_EXTENSION
1070
   387
1070
     1
1070
   388
1040
0.0
1070
   390
1040
1.570796326794896
  0
DIMENSION
  5
F50
102
{ACAD_XDICTIONARY
360
F51
102
}
102
{ACAD_REACTORS
330
F52
102
}
330
1F
100
AcDbEntity
  8
图层3
100
AcDbDimension
  2
*D85
 10
1352.431746144171
 20
639.1822260630277
 30
0.0
 11
1261.976259943325
 21
652.3861109521212
 31
0.0
 70
   164
 71
     5
 42
82.99999999999988
  3
ISO-25
100
AcDbRadialDimension
 15
1413.059609316763
 25
582.4965823150249
 35
0.0
 40
0.0
1001
ACAD
1000
DSTYLE
1002
{
1070
   288
1070
     1
1002
}
1001
ACAD_DSTYLE_DIMRADIAL_EXTENSION
1070
   387
1070
     1
1070
   388
1040
4.712388980384688
1070
   390
1040
0.0
  0
DIMENSION
  5
F53
102
{ACAD_XDICTIONARY
360
F54
102
}
102
{ACAD_REACTORS
330
F55
102
}
330
1F
100
AcDbEntity
  8
图层3
100
AcDbDimension
  2
*D86
 10
753.4317461441716
 20
639.182226063028
 30
0.0
 11
839.7469840443219
 21
649.4684316638987
 31
0.0
 70
   164
 71
     5
 42
88.00000000000204
  3
ISO-25
100
AcDbRadialDimension
 15
692.1474948502263
 25
576.0297079553473
 35
0.0
 40
0.0
1001
ACAD
1000
DSTYLE
1002
{
1070
   288
1070
     1
1002
}
1001
ACAD_DSTYLE_DIMRADIAL_EXTENSION
1070
   387
1070
     1
1070
   388
1040
3.141592653589792
1070
   390
1040
4.712388980384688
  0
ENDSEC
  0
SECTION
  2
OBJECTS
  0
DICTIONARY
  5
C
330
0
100
AcDbDictionary
281
     1
  3
ACAD_CIP_PREVIOUS_PRODUCT_INFO
350
7B4
  3
ACAD_COLOR
350
6B
  3
ACAD_DETAILVIEWSTYLE
350
7AD
  3
ACAD_GROUP
350
D
  3
ACAD_LAYOUT
350
1A
  3
ACAD_MATERIAL
350
6A
  3
ACAD_MLEADERSTYLE
350
7A9
  3
ACAD_MLINESTYLE
350
17
  3
ACAD_PLOTSETTINGS
350
19
  3
ACAD_PLOTSTYLENAME
350
E
  3
ACAD_SCALELIST
350
797
  3
ACAD_SECTIONVIEWSTYLE
350
7AB
  3
ACAD_TABLESTYLE
350
7E
  3
ACAD_VISUALSTYLE
350
77E
  3
ACDB_RECOMPOSE_DATA
350
106A
  3
AcDbVariableDictionary
350
5E
  0
DICTIONARY
  5
FB
330
2
100
AcDbDictionary
280
     1
281
     1
  3
ACAD_LAYERFILTERS
360
75B
  3
ACAD_LAYERSTATES
360
EC5
  3
ACLYDICTIONARY
360
75A
  0
DICTIONARY
  5
9EE
330
10
100
AcDbDictionary
280
     1
281
     1
  3
ADSK_XREC_LAYER_RECONCILED
360
9EF
  0
DICTIONARY
  5
9F0
330
F7
100
AcDbDictionary
280
     1
281
     1
  3
ADSK_XREC_LAYER_RECONCILED
360
9F1
  0
DICTIONARY
  5
9F2
330
F9
100
AcDbDictionary
280
     1
281
     1
  3
ADSK_XREC_LAYER_RECONCILED
360
9F3
  0
DICTIONARY
  5
9F4
330
FA
100
AcDbDictionary
280
     1
281
     1
  3
ADSK_XREC_LAYER_RECONCILED
360
9F5
  0
DICTIONARY
  5
107
330
1F
100
AcDbDictionary
280
     1
281
     1
  3
ACAD_SORTENTS
360
108
  0
DICTIONARY
  5
10A5
330
7FF
100
AcDbDictionary
280
     1
281
     1
  3
ACAD_MTEXT_2008_RT
360
10A6
  0
DICTIONARY
  5
10A7
330
8F7
100
AcDbDictionary
280
     1
281
     1
  3
ACAD_MTEXT_2008_RT
360
10A8
  0
DICTIONARY
  5
F3C
330
F3B
100
AcDbDictionary
280
     1
281
     1
  3
ACAD_DIMASSOC
360
F3D
  0
DICTIONARY
  5
F3F
330
F3E
100
AcDbDictionary
280
     1
281
     1
  3
ACAD_DIMASSOC
360
F40
  0
DICTIONARY
  5
F42
330
F41
100
AcDbDictionary
280
     1
281
     1
  3
ACAD_DIMASSOC
360
F43
  0
DICTIONARY
  5
F45
330
F44
100
AcDbDictionary
280
     1
281
     1
  3
ACAD_DIMASSOC
360
F46
  0
DICTIONARY
  5
F48
330
F47
100
AcDbDictionary
280
     1
281
     1
  3
ACAD_DIMASSOC
360
F49
  0
DICTIONARY
  5
F4B
330
F4A
100
AcDbDictionary
280
     1
281
     1
  3
ACAD_DIMASSOC
360
F4C
  0
DICTIONARY
  5
F4E
330
F4D
100
AcDbDictionary
280
     1
281
     1
  3
ACAD_DIMASSOC
360
F4F
  0
DICTIONARY
  5
F51
330
F50
100
AcDbDictionary
280
     1
281
     1
  3
ACAD_DIMASSOC
360
F52
  0
DICTIONARY
  5
F54
330
F53
100
AcDbDictionary
280
     1
281
     1
  3
ACAD_DIMASSOC
360
F55
  0
XRECORD
  5
7B4
102
{ACAD_REACTORS
330
C
102
}
330
C
100
AcDbXrecord
280
     1
300
ACD
300
2018
300
ACD_F_S
  0
DICTIONARY
  5
6B
102
{ACAD_REACTORS
330
C
102
}
330
C
100
AcDbDictionary
281
     1
  0
DICTIONARY
  5
7AD
102
{ACAD_REACTORS
330
C
102
}
330
C
100
AcDbDictionary
281
     1
  3
Metric50
350
7AE
  0
DICTIONARY
  5
D
102
{ACAD_REACTORS
330
C
102
}
330
C
100
AcDbDictionary
281
     1
  0
DICTIONARY
  5
1A
102
{ACAD_REACTORS
330
C
102
}
330
C
100
AcDbDictionary
281
     1
  3
Model
350
22
  3
布局1
350
D3
  3
布局2
350
D7
  0
DICTIONARY
  5
6A
102
{ACAD_REACTORS
330
C
102
}
330
C
100
AcDbDictionary
281
     1
  3
ByBlock
350
76E
  3
ByLayer
350
766
  3
Global
350
776
  0
DICTIONARY
  5
7A9
102
{ACAD_REACTORS
330
C
102
}
330
C
100
AcDbDictionary
281
     1
  3
Standard
350
7AA
  0
DICTIONARY
  5
17
102
{ACAD_REACTORS
330
C
102
}
330
C
100
AcDbDictionary
281
     1
  3
Standard
350
18
  0
DICTIONARY
  5
19
102
{ACAD_REACTORS
330
C
102
}
330
C
100
AcDbDictionary
281
     1
  0
ACDBDICTIONARYWDFLT
  5
E
102
{ACAD_REACTORS
330
C
102
}
330
C
100
AcDbDictionary
281
     1
  3
Normal
350
F
100
AcDbDictionaryWithDefault
340
F
  0
DICTIONARY
  5
797
102
{ACAD_REACTORS
330
C
102
}
330
C
100
AcDbDictionary
281
     1
  3
A0
350
798
  3
A1
350
799
  3
A2
350
79A
  3
A3
350
79B
  3
A4
350
79C
  3
A5
350
79D
  3
A6
350
79E
  3
A7
350
79F
  3
A8
350
7A0
  3
A9
350
7A1
  3
B0
350
7A2
  3
B1
350
7A3
  3
B2
350
7A4
  3
B3
350
7A5
  3
B4
350
7A6
  3
B5
350
7A7
  3
B6
350
7A8
  0
DICTIONARY
  5
7AB
102
{ACAD_REACTORS
330
C
102
}
330
C
100
AcDbDictionary
281
     1
  3
Metric50
350
7AC
  0
DICTIONARY
  5
7E
102
{ACAD_REACTORS
330
C
102
}
330
C
100
AcDbDictionary
281
     1
  3
Standard
350
7F
  0
DICTIONARY
  5
77E
102
{ACAD_REACTORS
330
C
102
}
330
C
100
AcDbDictionary
281
     1
  3
2dWireframe
350
784
  3
Basic
350
783
  3
Brighten
350
78A
  3
ColorChange
350
78E
  3
Conceptual
350
787
  3
Dim
350
789
  3
EdgeColorOff
350
796
  3
Facepattern
350
78D
  3
Flat
350
77F
  3
FlatWithEdges
350
780
  3
Gouraud
350
781
  3
GouraudWithEdges
350
782
  3
Hidden
350
786
  3
JitterOff
350
794
  3
Linepattern
350
78C
  3
OverhangOff
350
795
  3
Realistic
350
788
  3
Shaded
350
793
  3
Shaded with edges
350
792
  3
Shades of Gray
350
78F
  3
Sketchy
350
790
  3
Thicken
350
78B
  3
Wireframe
350
785
  3
X-Ray
350
791
  0
XRECORD
  5
106A
102
{ACAD_REACTORS
330
C
102
}
330
C
100
AcDbXrecord
280
     1
 90
        1
330
7F
  0
DICTIONARY
  5
5E
102
{ACAD_REACTORS
330
C
102
}
330
C
100
AcDbDictionary
281
     1
  3
CANNOSCALE
350
9FA
  3
CMLEADERSTYLE
350
9F6
  3
CTABLESTYLE
350
84
  3
CVIEWDETAILSTYLE
350
9F7
  3
CVIEWSECTIONSTYLE
350
9F8
  3
DIMASSOC
350
5F
  3
HIDETEXT
350
63
  3
LAYEREVAL
350
9FC
  3
LAYERNOTIFY
350
9FD
  3
LIGHTINGUNITS
350
9FB
  3
LOFTANG1
350
1066
  3
LOFTANG2
350
1067
  3
LONGITUDE
350
1068
  3
MSLTSCALE
350
9F9
  0
DICTIONARY
  5
75B
102
{ACAD_REACTORS
330
FB
102
}
330
FB
100
AcDbDictionary
281
     1
  0
DICTIONARY
  5
EC5
102
{ACAD_REACTORS
330
FB
102
}
330
FB
100
AcDbDictionary
281
     1
  0
DICTIONARY
  5
75A
102
{ACAD_REACTORS
330
FB
102
}
330
FB
100
AcDbDictionary
281
     1
1001
ACAD
1000
<All
  0
XRECORD
  5
9EF
102
{ACAD_REACTORS
330
9EE
102
}
330
9EE
100
AcDbXrecord
280
     1
290
     1
  0
XRECORD
  5
9F1
102
{ACAD_REACTORS
330
9F0
102
}
330
9F0
100
AcDbXrecord
280
     1
290
     1
  0
XRECORD
  5
9F3
102
{ACAD_REACTORS
330
9F2
102
}
330
9F2
100
AcDbXrecord
280
     1
290
     1
  0
XRECORD
  5
9F5
102
{ACAD_REACTORS
330
9F4
102
}
330
9F4
100
AcDbXrecord
280
     1
290
     1
  0
SORTENTSTABLE
  5
108
102
{ACAD_REACTORS
330
107
102
}
330
107
100
AcDbSortentsTable
330
1F
331
570
  5
717
331
9ED
  5
9ED
  0
XRECORD
  5
10A6
102
{ACAD_REACTORS
330
10A5
102
}
330
10A5
100
AcDbXrecord
280
     1
 40
19636.0
  1
\U+220590.2 [\U+22053 1/2]
  0
XRECORD
  5
10A8
102
{ACAD_REACTORS
330
10A7
102
}
330
10A7
100
AcDbXrecord
280
     1
 40
19636.0
  1
\U+220590.2 [\U+22053 1/2]
  0
DIMASSOC
  5
F3D
102
{ACAD_REACTORS
330
F3C
102
}
330
F3C
100
AcDbDimAssoc
330
F3B
 90
        3
 70
     0
 71
     0
  1
AcDbOsnapPointRef
 72
     8
331
F21
 73
     2
 91
        0
 40
0.0
 10
0.0
 20
0.0
 30
0.0
 75
     1
  1
AcDbOsnapPointRef
 72
     0
 40
0.0
 10
-1688.183270263253
 20
2896.897594132596
 30
0.0
 75
     0
  1
AcDbOsnapPointRef
 72
     8
331
F12
 73
     2
 91
        0
 40
0.0
 10
0.0
 20
0.0
 30
0.0
 75
     1
  1
AcDbOsnapPointRef
 72
     8
331
F21
 73
     2
 91
        0
 40
0.0
 10
0.0
 20
0.0
 30
0.0
 75
     1
  1
AcDbOsnapPointRef
 72
     0
 40
0.0
 10
-1688.183270263253
 20
2896.897594132596
 30
0.0
 75
     0
  0
DIMASSOC
  5
F40
102
{ACAD_REACTORS
330
F3F
102
}
330
F3F
100
AcDbDimAssoc
330
F3E
 90
        3
 70
     0
 71
     0
  1
AcDbOsnapPointRef
 72
     1
331
F26
 73
     2
 91
        0
 40
4.712388980384688
 10
0.0
 20
0.0
 30
2.000000000000000E+50
 75
     0
  1
AcDbOsnapPointRef
 72
    13
331
F23
 73
     2
 91
        0
 40
1.570796326794896
 10
0.0
 20
0.0
 30
2.000000000000000E+50
 75
     0
  0
DIMASSOC
  5
F43
102
{ACAD_REACTORS
330
F42
102
}
330
F42
100
AcDbDimAssoc
330
F41
 90
        3
 70
     0
 71
     0
  1
AcDbOsnapPointRef
 72
     1
331
F28
 73
     2
 91
        0
 40
4.712388980384688
 10
0.0
 20
0.0
 30
2.000000000000000E+50
 75
     0
  1
AcDbOsnapPointRef
 72
    13
331
F25
 73
     2
 91
        0
 40
1.570796326794896
 10
0.0
 20
0.0
 30
2.000000000000000E+50
 75
     0
  0
DIMASSOC
  5
F46
102
{ACAD_REACTORS
330
F45
102
}
330
F45
100
AcDbDimAssoc
330
F44
 90
        3
 70
     0
 71
     0
  1
AcDbOsnapPointRef
 72
    13
331
F27
 73
     2
 91
        0
 40
3.141592653589792
 10
0.0
 20
0.0
 30
2.000000000000000E+50
 75
     0
  1
AcDbOsnapPointRef
 72
     1
331
F2D
 73
     2
 91
        0
 40
6.283185307179585
 10
0.0
 20
0.0
 30
2.000000000000000E+50
 75
     0
  0
DIMASSOC
  5
F49
102
{ACAD_REACTORS
330
F48
102
}
330
F48
100
AcDbDimAssoc
330
F47
 90
        3
 70
     0
 71
     0
  1
AcDbOsnapPointRef
 72
    13
331
F26
 73
     2
 91
        0
 40
3.141592653589792
 10
0.0
 20
0.0
 30
2.000000000000000E+50
 75
     0
  1
AcDbOsnapPointRef
 72
     8
331
F17
 73
     2
 91
        0
 40
0.9999999999999982
 10
0.0
 20
0.0
 30
0.0
 75
     1
  1
AcDbOsnapPointRef
 72
    13
331
F26
 73
     2
 91
        0
 40
3.141592653589792
 10
0.0
 20
0.0
 30
2.000000000000000E+50
 75
     0
  0
DIMASSOC
  5
F4C
102
{ACAD_REACTORS
330
F4B
102
}
330
F4B
100
AcDbDimAssoc
330
F4A
 90
        3
 70
     0
 71
     0
  1
AcDbOsnapPointRef
 72
    13
331
F28
 73
     2
 91
        0
 40
3.141592653589792
 10
0.0
 20
0.0
 30
2.000000000000000E+50
 75
     0
  1
AcDbOsnapPointRef
 72
     6
331
F19
 73
     2
 91
        0
 40
1.0
 10
0.0
 20
0.0
 30
0.0
332
F2E
 74
     2
 92
        0
 75
     0
  0
DIMASSOC
  5
F4F
102
{ACAD_REACTORS
330
F4E
102
}
330
F4E
100
AcDbDimAssoc
330
F4D
 90
        2
 70
     0
 71
     0
  1
AcDbOsnapPointRef
 72
     3
331
F2A
 73
     2
 91
        0
 40
0.0
 10
0.0
 20
0.0
 30
0.0
 75
     0
  0
DIMASSOC
  5
F52
102
{ACAD_REACTORS
330
F51
102
}
330
F51
100
AcDbDimAssoc
330
F50
 90
        2
 70
     0
 71
     0
  1
AcDbOsnapPointRef
 72
     3
331
F2C
 73
     2
 91
        0
 40
0.0
 10
0.0
 20
0.0
 30
0.0
 75
     0
  0
DIMASSOC
  5
F55
102
{ACAD_REACTORS
330
F54
102
}
330
F54
100
AcDbDimAssoc
330
F53
 90
        2
 70
     0
 71
     0
  1
AcDbOsnapPointRef
 72
     3
331
F28
 73
     2
 91
        0
 40
0.0
 10
0.0
 20
0.0
 30
0.0
 75
     0
  0
ACDBDETAILVIEWSTYLE
  5
7AE
102
{ACAD_XDICTIONARY
360
10A3
102
}
102
{ACAD_REACTORS
330
7AD
102
}
330
7AD
100
AcDbModelDocViewStyle
 70
     0
  3
Metric50
290
     0
100
AcDbDetailViewStyle
 70
     0
 71
     0
 90
        3
 71
     1
340
11
 62
   256
 40
5.0
340
0
 62
   256
 40
5.0
300

 40
0.0
280
     1
 71
     2
340
16
 90
       25
 62
   256
 71
     3
340
11
 62
   256
 40
5.0
 90
        0
 40
15.0
 90
        1
300
%<\AcVar ViewDetailId>% (%<\AcVar ViewScale \f "%sn">%)
 71
     4
340
16
 90
       25
 62
   256
340
16
 90
       25
 62
   256
280
     0
  0
LAYOUT
  5
22
102
{ACAD_REACTORS
330
1A
102
}
330
1A
100
AcDbPlotSettings
  1

  2
none_device
  4
ISO_A4_(210.00_x_297.00_MM)
  6

 40
7.5
 41
20.0
 42
7.5
 43
20.0
 44
210.0
 45
297.0
 46
11.54999923706054
 47
-13.65000009536743
 48
0.0
 49
0.0
140
0.0
141
0.0
142
1.0
143
8.704084754739808
 70
 11952
 72
     1
 73
     0
 74
     0
  7

 75
     0
147
0.1148885871608098
 76
     0
 77
     2
 78
   300
148
0.0
149
0.0
100
AcDbLayout
  1
Model
 70
     1
 71
     0
 10
0.0
 20
0.0
 11
12.0
 21
9.0
 12
0.0
 22
0.0
 32
0.0
 14
0.0
 24
0.0
 34
0.0
 15
0.0
 25
0.0
 35
0.0
146
0.0
 13
0.0
 23
0.0
 33
0.0
 16
1.0
 26
0.0
 36
0.0
 17
0.0
 27
1.0
 37
0.0
 76
     0
330
1F
331
764
1001
ACAD_PSEXT
1000
None
1000
None
1000
Not applicable
1000
The layout will not be plotted unless a new plotter configuration name is selected.
1070
     0
  0
LAYOUT
  5
D3
102
{ACAD_REACTORS
330
1A
102
}
330
1A
100
AcDbPlotSettings
  1

  2
C:\Documents and Settings\basas\Application Data\Autodesk\AutoCAD 2005\R16.1\enu\plotters\Default Windows System Printer.pc3
  4

  6

 40
0.0
 41
0.0
 42
0.0
 43
0.0
 44
0.0
 45
0.0
 46
0.0
 47
0.0
 48
0.0
 49
0.0
140
0.0
141
0.0
142
1.0
143
1.0
 70
   688
 72
     0
 73
     0
 74
     5
  7

 75
    16
147
1.0
 76
     0
 77
     2
 78
   300
148
0.0
149
0.0
100
AcDbLayout
  1
布局1
 70
     1
 71
     1
 10
0.0
 20
0.0
 11
12.0
 21
9.0
 12
0.0
 22
0.0
 32
0.0
 14
0.0
 24
0.0
 34
0.0
 15
0.0
 25
0.0
 35
0.0
146
0.0
 13
0.0
 23
0.0
 33
0.0
 16
1.0
 26
0.0
 36
0.0
 17
0.0
 27
1.0
 37
0.0
 76
     0
330
D2
  0
LAYOUT
  5
D7
102
{ACAD_REACTORS
330
1A
102
}
330
1A
100
AcDbPlotSettings
  1

  2
C:\Documents and Settings\basas\Application Data\Autodesk\AutoCAD 2005\R16.1\enu\plotters\Default Windows System Printer.pc3
  4

  6

 40
0.0
 41
0.0
 42
0.0
 43
0.0
 44
0.0
 45
0.0
 46
0.0
 47
0.0
 48
0.0
 49
0.0
140
0.0
141
0.0
142
1.0
143
1.0
 70
   688
 72
     0
 73
     0
 74
     5
  7

 75
    16
147
1.0
 76
     0
 77
     2
 78
   300
148
0.0
149
0.0
100
AcDbLayout
  1
布局2
 70
     1
 71
     2
 10
0.0
 20
0.0
 11
12.0
 21
9.0
 12
0.0
 22
0.0
 32
0.0
 14
0.0
 24
0.0
 34
0.0
 15
0.0
 25
0.0
 35
0.0
146
0.0
 13
0.0
 23
0.0
 33
0.0
 16
1.0
 26
0.0
 36
0.0
 17
0.0
 27
1.0
 37
0.0
 76
     0
330
D6
  0
MATERIAL
  5
76E
102
{ACAD_XDICTIONARY
360
76F
102
}
102
{ACAD_REACTORS
330
6A
102
}
330
6A
100
AcDbMaterial
  1
ByBlock
 72
     0
 43
0.0008202099737533
 43
0.0
 43
0.0
 43
0.0
 43
0.0
 43
0.0008202099737533
 43
0.0
 43
0.0
 43
0.0
 43
0.0
 43
1.0
 43
0.0
 43
0.0
 43
0.0
 43
0.0
 43
1.0
 77
     0
 47
0.0008202099737533
 47
0.0
 47
0.0
 47
0.0
 47
0.0
 47
0.0008202099737533
 47
0.0
 47
0.0
 47
0.0
 47
0.0
 47
1.0
 47
0.0
 47
0.0
 47
0.0
 47
0.0
 47
1.0
171
     0
 49
0.0008202099737533
 49
0.0
 49
0.0
 49
0.0
 49
0.0
 49
0.0008202099737533
 49
0.0
 49
0.0
 49
0.0
 49
0.0
 49
1.0
 49
0.0
 49
0.0
 49
0.0
 49
0.0
 49
1.0
175
     0
142
0.0008202099737533
142
0.0
142
0.0
142
0.0
142
0.0
142
0.0008202099737533
142
0.0
142
0.0
142
0.0
142
0.0
142
1.0
142
0.0
142
0.0
142
0.0
142
0.0
142
1.0
179
     0
144
0.0008202099737533
144
0.0
144
0.0
144
0.0
144
0.0
144
0.0008202099737533
144
0.0
144
0.0
144
0.0
144
0.0
144
1.0
144
0.0
144
0.0
144
0.0
144
0.0
144
1.0
147
0.0008202099737533
147
0.0
147
0.0
147
0.0
147
0.0
147
0.0008202099737533
147
0.0
147
0.0
147
0.0
147
0.0
147
1.0
147
0.0
147
0.0
147
0.0
147
0.0
147
1.0
  0
MATERIAL
  5
766
102
{ACAD_XDICTIONARY
360
767
102
}
102
{ACAD_REACTORS
330
6A
102
}
330
6A
100
AcDbMaterial
  1
ByLayer
 72
     0
 43
0.0008202099737533
 43
0.0
 43
0.0
 43
0.0
 43
0.0
 43
0.0008202099737533
 43
0.0
 43
0.0
 43
0.0
 43
0.0
 43
1.0
 43
0.0
 43
0.0
 43
0.0
 43
0.0
 43
1.0
 77
     0
 47
0.0008202099737533
 47
0.0
 47
0.0
 47
0.0
 47
0.0
 47
0.0008202099737533
 47
0.0
 47
0.0
 47
0.0
 47
0.0
 47
1.0
 47
0.0
 47
0.0
 47
0.0
 47
0.0
 47
1.0
171
     0
 49
0.0008202099737533
 49
0.0
 49
0.0
 49
0.0
 49
0.0
 49
0.0008202099737533
 49
0.0
 49
0.0
 49
0.0
 49
0.0
 49
1.0
 49
0.0
 49
0.0
 49
0.0
 49
0.0
 49
1.0
175
     0
142
0.0008202099737533
142
0.0
142
0.0
142
0.0
142
0.0
142
0.0008202099737533
142
0.0
142
0.0
142
0.0
142
0.0
142
1.0
142
0.0
142
0.0
142
0.0
142
0.0
142
1.0
179
     0
144
0.0008202099737533
144
0.0
144
0.0
144
0.0
144
0.0
144
0.0008202099737533
144
0.0
144
0.0
144
0.0
144
0.0
144
1.0
144
0.0
144
0.0
144
0.0
144
0.0
144
1.0
147
0.0008202099737533
147
0.0
147
0.0
147
0.0
147
0.0
147
0.0008202099737533
147
0.0
147
0.0
147
0.0
147
0.0
147
1.0
147
0.0
147
0.0
147
0.0
147
0.0
147
1.0
  0
MATERIAL
  5
776
102
{ACAD_XDICTIONARY
360
777
102
}
102
{ACAD_REACTORS
330
6A
102
}
330
6A
100
AcDbMaterial
  1
Global
 72
     0
 43
0.0008202099737533
 43
0.0
 43
0.0
 43
0.0
 43
0.0
 43
0.0008202099737533
 43
0.0
 43
0.0
 43
0.0
 43
0.0
 43
1.0
 43
0.0
 43
0.0
 43
0.0
 43
0.0
 43
1.0
 77
     0
 47
0.0008202099737533
 47
0.0
 47
0.0
 47
0.0
 47
0.0
 47
0.0008202099737533
 47
0.0
 47
0.0
 47
0.0
 47
0.0
 47
1.0
 47
0.0
 47
0.0
 47
0.0
 47
0.0
 47
1.0
171
     0
 49
0.0008202099737533
 49
0.0
 49
0.0
 49
0.0
 49
0.0
 49
0.0008202099737533
 49
0.0
 49
0.0
 49
0.0
 49
0.0
 49
1.0
 49
0.0
 49
0.0
 49
0.0
 49
0.0
 49
1.0
175
     0
142
0.0008202099737533
142
0.0
142
0.0
142
0.0
142
0.0
142
0.0008202099737533
142
0.0
142
0.0
142
0.0
142
0.0
142
1.0
142
0.0
142
0.0
142
0.0
142
0.0
142
1.0
179
     0
144
0.0008202099737533
144
0.0
144
0.0
144
0.0
144
0.0
144
0.0008202099737533
144
0.0
144
0.0
144
0.0
144
0.0
144
1.0
144
0.0
144
0.0
144
0.0
144
0.0
144
1.0
147
0.0008202099737533
147
0.0
147
0.0
147
0.0
147
0.0
147
0.0008202099737533
147
0.0
147
0.0
147
0.0
147
0.0
147
1.0
147
0.0
147
0.0
147
0.0
147
0.0
147
1.0
  0
MLEADERSTYLE
  5
7AA
102
{ACAD_XDICTIONARY
360
109F
102
}
102
{ACAD_REACTORS
330
7A9
102
}
330
7A9
100
AcDbMLeaderStyle
170
     2
171
     1
172
     0
 90
        2
 40
0.0
 41
0.0
173
     1
 91
-1056964608
340
14
 92
       -2
290
     1
 42
2.0
291
     1
 43
0.36
  3
Standard
 44
4.0
300

342
11
174
     1
178
     6
175
     1
176
     0
 93
-1056964608
 45
4.0
292
     0
297
     0
 46
4.0
 94
-1056964608
 47
1.0
 49
1.0
140
1.0
293
     1
141
0.0
294
     1
177
     0
142
1.0
295
     0
296
     0
143
0.125
1001
ACAD_MLEADERVER
1070
     2
  0
MLINESTYLE
  5
18
102
{ACAD_REACTORS
330
17
102
}
330
17
100
AcDbMlineStyle
  2
STANDARD
 70
     0
  3

 62
   256
 51
90.0
 52
90.0
 71
     2
 49
0.5
 62
   256
  6
BYLAYER
 49
-0.5
 62
   256
  6
BYLAYER
  0
ACDBPLACEHOLDER
  5
F
102
{ACAD_REACTORS
330
E
102
}
330
E
  0
SCALE
  5
798
102
{ACAD_REACTORS
330
797
102
}
330
797
100
AcDbScale
 70
     0
300
1:1
140
1.0
141
1.0
290
     1
  0
SCALE
  5
799
102
{ACAD_REACTORS
330
797
102
}
330
797
100
AcDbScale
 70
     0
300
1:2
140
1.0
141
2.0
290
     0
  0
SCALE
  5
79A
102
{ACAD_REACTORS
330
797
102
}
330
797
100
AcDbScale
 70
     0
300
1:4
140
1.0
141
4.0
290
     0
  0
SCALE
  5
79B
102
{ACAD_REACTORS
330
797
102
}
330
797
100
AcDbScale
 70
     0
300
1:5
140
1.0
141
5.0
290
     0
  0
SCALE
  5
79C
102
{ACAD_REACTORS
330
797
102
}
330
797
100
AcDbScale
 70
     0
300
1:8
140
1.0
141
8.0
290
     0
  0
SCALE
  5
79D
102
{ACAD_REACTORS
330
797
102
}
330
797
100
AcDbScale
 70
     0
300
1:10
140
1.0
141
10.0
290
     0
  0
SCALE
  5
79E
102
{ACAD_REACTORS
330
797
102
}
330
797
100
AcDbScale
 70
     0
300
1:16
140
1.0
141
16.0
290
     0
  0
SCALE
  5
79F
102
{ACAD_REACTORS
330
797
102
}
330
797
100
AcDbScale
 70
     0
300
1:20
140
1.0
141
20.0
290
     0
  0
SCALE
  5
7A0
102
{ACAD_REACTORS
330
797
102
}
330
797
100
AcDbScale
 70
     0
300
1:30
140
1.0
141
30.0
290
     0
  0
SCALE
  5
7A1
102
{ACAD_REACTORS
330
797
102
}
330
797
100
AcDbScale
 70
     0
300
1:40
140
1.0
141
40.0
290
     0
  0
SCALE
  5
7A2
102
{ACAD_REACTORS
330
797
102
}
330
797
100
AcDbScale
 70
     0
300
1:50
140
1.0
141
50.0
290
     0
  0
SCALE
  5
7A3
102
{ACAD_REACTORS
330
797
102
}
330
797
100
AcDbScale
 70
     0
300
1:100
140
1.0
141
100.0
290
     0
  0
SCALE
  5
7A4
102
{ACAD_REACTORS
330
797
102
}
330
797
100
AcDbScale
 70
     0
300
2:1
140
2.0
141
1.0
290
     0
  0
SCALE
  5
7A5
102
{ACAD_REACTORS
330
797
102
}
330
797
100
AcDbScale
 70
     0
300
4:1
140
4.0
141
1.0
290
     0
  0
SCALE
  5
7A6
102
{ACAD_REACTORS
330
797
102
}
330
797
100
AcDbScale
 70
     0
300
8:1
140
8.0
141
1.0
290
     0
  0
SCALE
  5
7A7
102
{ACAD_REACTORS
330
797
102
}
330
797
100
AcDbScale
 70
     0
300
10:1
140
10.0
141
1.0
290
     0
  0
SCALE
  5
7A8
102
{ACAD_REACTORS
330
797
102
}
330
797
100
AcDbScale
 70
     0
300
100:1
140
100.0
141
1.0
290
     0
  0
ACDBSECTIONVIEWSTYLE
  5
7AC
102
{ACAD_XDICTIONARY
360
10A1
102
}
102
{ACAD_REACTORS
330
7AB
102
}
330
7AB
100
AcDbModelDocViewStyle
 70
     0
  3
Metric50
290
     0
100
AcDbSectionViewStyle
 70
     0
 71
     0
 90
      102
 71
     1
340
11
 62
   256
 40
5.0
340
0
340
0
 62
   256
 40
5.0
300
I, O, Q, S, X, Z
 40
10.0
 90
        0
 40
2.5
 90
        0
 71
     2
340
16
 90
       25
 62
   256
340
16
 90
       50
 62
   256
 40
5.0
 40
2.5
 40
5.0
 71
     3
340
11
 62
   256
 40
5.0
 90
        0
 40
15.0
 90
        1
300
%<\AcVar ViewSectionStartId>%-%<\AcVar ViewSectionEndId>% (%<\AcVar ViewScale \f "%sn">%)
 71
     4
 62
   256
 62
   257
300
ANSI31
 40
1.0
 90
        0
290
     0
290
     0
 90
        6
 40
0.0
 40
1.570796326794896
 40
0.2617993877991494
 40
1.308996938995747
 40
-0.2617993877991494
 40
1.832595714594044
  0
TABLESTYLE
  5
7F
102
{ACAD_XDICTIONARY
360
CAD
102
}
102
{ACAD_REACTORS
330
7E
102
}
330
7E
100
AcDbTableStyle
  3
Standard
 70
     0
 71
     0
 40
1.5
 41
1.5
280
     0
281
     0
  7
Standard
140
4.5
170
     2
 62
     0
 63
     7
283
     0
274
    -2
284
     1
 64
     0
275
    -2
285
     1
 65
     0
276
    -2
286
     1
 66
     0
277
    -2
287
     1
 67
     0
278
    -2
288
     1
 68
     0
279
    -2
289
     1
 69
     0
  7
Standard
140
6.0
170
     5
 62
     0
 63
     7
283
     0
274
    -2
284
     1
 64
     0
275
    -2
285
     1
 65
     0
276
    -2
286
     1
 66
     0
277
    -2
287
     1
 67
     0
278
    -2
288
     1
 68
     0
279
    -2
289
     1
 69
     0
  7
Standard
140
4.5
170
     5
 62
     0
 63
     7
283
     0
274
    -2
284
     1
 64
     0
275
    -2
285
     1
 65
     0
276
    -2
286
     1
 66
     0
277
    -2
287
     1
 67
     0
278
    -2
288
     1
 68
     0
279
    -2
289
     1
 69
     0
  0
VISUALSTYLE
  5
784
102
{ACAD_XDICTIONARY
360
1079
102
}
102
{ACAD_REACTORS
330
77E
102
}
330
77E
100
AcDbVisualStyle
  2

 70
     4
 71
     0
 72
     2
 73
     0
 90
        0
 40
-0.6
 41
-30.0
 62
     5
 63
     7
421
 16777215
 74
     1
 91
        4
 64
     7
 65
   257
 75
     1
175
     1
 42
1.0
 92
        0
 66
   257
 43
1.0
 76
     1
 77
     6
 78
     2
 67
     7
 79
     5
170
     0
171
     0
290
     0
174
     0
 93
        1
 44
0.0
173
     0
291
     0
 45
0.0
1001
ACAD
1000
AcDbSavedByObjectVersion
1070
     0
  0
VISUALSTYLE
  5
783
102
{ACAD_XDICTIONARY
360
1077
102
}
102
{ACAD_REACTORS
330
77E
102
}
330
77E
100
AcDbVisualStyle
  2

 70
     7
 71
     1
 72
     0
 73
     1
 90
        0
 40
-0.6
 41
-30.0
 62
     5
 63
     7
421
 16777215
 74
     0
 91
        4
 64
     7
 65
   257
 75
     1
175
     1
 42
1.0
 92
        8
 66
     7
 43
1.0
 76
     1
 77
     6
 78
     2
 67
     7
 79
     5
170
     0
171
     0
290
     0
174
     0
 93
        1
 44
0.0
173
     0
291
     1
 45
0.0
1001
ACAD
1000
AcDbSavedByObjectVersion
1070
     0
  0
VISUALSTYLE
  5
78A
102
{ACAD_XDICTIONARY
360
1085
102
}
102
{ACAD_REACTORS
330
77E
102
}
330
77E
100
AcDbVisualStyle
  2

 70
    12
 71
     2
 72
     2
 73
     0
 90
        0
 40
-0.6
 41
-30.0
 62
     5
 63
     7
421
 16777215
 74
     1
 91
        4
 64
     7
 65
   257
 75
     1
175
     1
 42
1.0
 92
        8
 66
     7
 43
1.0
 76
     1
 77
     6
 78
     2
 67
     7
 79
     5
170
     0
171
     0
290
     0
174
     0
 93
        1
 44
50.0
173
     0
291
     1
 45
0.0
1001
ACAD
1000
AcDbSavedByObjectVersion
1070
     0
  0
VISUALSTYLE
  5
78E
102
{ACAD_XDICTIONARY
360
108D
102
}
102
{ACAD_REACTORS
330
77E
102
}
330
77E
100
AcDbVisualStyle
  2

 70
    16
 71
     2
 72
     2
 73
     3
 90
        0
 40
-0.6
 41
-30.0
 62
     5
 63
     8
421
  8421504
 74
     1
 91
        4
 64
     7
 65
   257
 75
     1
175
     1
 42
1.0
 92
        8
 66
     8
424
  8421504
 43
1.0
 76
     1
 77
     6
 78
     2
 67
     7
 79
     5
170
     0
171
     0
290
     0
174
     0
 93
        1
 44
0.0
173
     0
291
     1
 45
0.0
1001
ACAD
1000
AcDbSavedByObjectVersion
1070
     0
  0
VISUALSTYLE
  5
787
102
{ACAD_XDICTIONARY
360
107F
102
}
102
{ACAD_REACTORS
330
77E
102
}
330
77E
100
AcDbVisualStyle
  2

 70
     9
 71
     3
 72
     2
 73
     0
 90
        0
 40
-0.6
 41
-30.0
 62
     5
 63
     7
421
 16777215
 74
     2
 91
        2
 64
     7
 65
   257
 75
     1
175
     1
 42
179.0
 92
        8
 66
     7
 43
1.0
 76
     1
 77
     6
 78
     2
 67
     7
 79
     3
170
     0
171
     0
290
     0
174
     0
 93
        1
 44
0.0
173
     0
291
     0
 45
0.0
1001
ACAD
1000
AcDbSavedByObjectVersion
1070
     0
  0
VISUALSTYLE
  5
789
102
{ACAD_XDICTIONARY
360
1083
102
}
102
{ACAD_REACTORS
330
77E
102
}
330
77E
100
AcDbVisualStyle
  2

 70
    11
 71
     2
 72
     2
 73
     0
 90
        0
 40
-0.6
 41
-30.0
 62
     5
 63
     7
421
 16777215
 74
     1
 91
        4
 64
     7
 65
   257
 75
     1
175
     1
 42
1.0
 92
        8
 66
     7
 43
1.0
 76
     1
 77
     6
 78
     2
 67
     7
 79
     5
170
     0
171
     0
290
     0
174
     0
 93
        1
 44
-50.0
173
     0
291
     1
 45
0.0
1001
ACAD
1000
AcDbSavedByObjectVersion
1070
     0
  0
VISUALSTYLE
  5
796
102
{ACAD_XDICTIONARY
360
109D
102
}
102
{ACAD_REACTORS
330
77E
102
}
330
77E
100
AcDbVisualStyle
  2

 70
    22
 71
     2
 72
     2
 73
     0
 90
        0
 40
-0.6
 41
-30.0
 62
     5
 63
     7
421
 16777215
 74
     1
 91
        4
 64
     7
 65
   257
 75
     1
175
     1
 42
1.0
 92
        8
 66
     7
 43
1.0
 76
     1
 77
     6
 78
     2
 67
     7
 79
     5
170
     0
171
     0
290
     0
174
     0
 93
        1
 44
0.0
173
     0
291
     1
 45
0.0
1001
ACAD
1000
AcDbSavedByObjectVersion
1070
     0
  0
VISUALSTYLE
  5
78D
102
{ACAD_XDICTIONARY
360
108B
102
}
102
{ACAD_REACTORS
330
77E
102
}
330
77E
100
AcDbVisualStyle
  2

 70
    15
 71
     2
 72
     2
 73
     0
 90
        0
 40
-0.6
 41
-30.0
 62
     5
 63
     7
421
 16777215
 74
     1
 91
        4
 64
     7
 65
   257
 75
     1
175
     1
 42
1.0
 92
        8
 66
     7
 43
1.0
 76
     1
 77
     6
 78
     2
 67
     7
 79
     5
170
     0
171
     0
290
     0
174
     0
 93
        1
 44
0.0
173
     0
291
     1
 45
0.0
1001
ACAD
1000
AcDbSavedByObjectVersion
1070
     0
  0
VISUALSTYLE
  5
77F
102
{ACAD_XDICTIONARY
360
106F
102
}
102
{ACAD_REACTORS
330
77E
102
}
330
77E
100
AcDbVisualStyle
  2

 70
     0
 71
     2
 72
     1
 73
     1
 90
        2
 40
-0.6
 41
30.0
 62
     5
 63
     7
421
 16777215
 74
     0
 91
        0
 64
     7
 65
   257
 75
     1
175
     1
 42
1.0
 92
        8
 66
     7
 43
1.0
 76
     1
 77
     6
 78
     2
 67
     7
 79
     5
170
     0
171
     0
290
     0
174
     0
 93
       13
 44
0.0
173
     0
291
     1
 45
0.0
1001
ACAD
1000
AcDbSavedByObjectVersion
1070
     0
  0
VISUALSTYLE
  5
780
102
{ACAD_XDICTIONARY
360
1071
102
}
102
{ACAD_REACTORS
330
77E
102
}
330
77E
100
AcDbVisualStyle
  2

 70
     1
 71
     2
 72
     1
 73
     1
 90
        2
 40
-0.6
 41
30.0
 62
     5
 63
     7
421
 16777215
 74
     1
 91
        0
 64
     7
 65
   257
 75
     1
175
     1
 42
1.0
 92
        0
 66
   257
 43
1.0
 76
     1
 77
     6
 78
     2
 67
     7
 79
     5
170
     0
171
     0
290
     0
174
     0
 93
       13
 44
0.0
173
     0
291
     1
 45
0.0
1001
ACAD
1000
AcDbSavedByObjectVersion
1070
     0
  0
VISUALSTYLE
  5
781
102
{ACAD_XDICTIONARY
360
1073
102
}
102
{ACAD_REACTORS
330
77E
102
}
330
77E
100
AcDbVisualStyle
  2

 70
     2
 71
     2
 72
     2
 73
     1
 90
        2
 40
-0.6
 41
30.0
 62
     5
 63
     7
421
 16777215
 74
     0
 91
        0
 64
     7
 65
   257
 75
     1
175
     1
 42
1.0
 92
        0
 66
     7
 43
1.0
 76
     1
 77
     6
 78
     2
 67
     7
 79
     5
170
     0
171
     0
290
     0
174
     0
 93
       13
 44
0.0
173
     0
291
     1
 45
0.0
1001
ACAD
1000
AcDbSavedByObjectVersion
1070
     0
  0
VISUALSTYLE
  5
782
102
{ACAD_XDICTIONARY
360
1075
102
}
102
{ACAD_REACTORS
330
77E
102
}
330
77E
100
AcDbVisualStyle
  2

 70
     3
 71
     2
 72
     2
 73
     1
 90
        2
 40
-0.6
 41
30.0
 62
     5
 63
     7
421
 16777215
 74
     1
 91
        0
 64
     7
 65
   257
 75
     1
175
     1
 42
1.0
 92
        0
 66
   257
 43
1.0
 76
     1
 77
     6
 78
     2
 67
     7
 79
     5
170
     0
171
     0
290
     0
174
     0
 93
       13
 44
0.0
173
     0
291
     1
 45
0.0
1001
ACAD
1000
AcDbSavedByObjectVersion
1070
     0
  0
VISUALSTYLE
  5
786
102
{ACAD_XDICTIONARY
360
107D
102
}
102
{ACAD_REACTORS
330
77E
102
}
330
77E
100
AcDbVisualStyle
  2

 70
     6
 71
     1
 72
     2
 73
     2
 90
        0
 40
-0.6
 41
-30.0
 62
     5
 63
     7
421
 16777215
 74
     2
 91
        2
 64
     7
 65
   257
 75
     2
175
     1
 42
40.0
 92
        0
 66
   257
 43
1.0
 76
     1
 77
     6
 78
     2
 67
     7
 79
     3
170
     0
171
     0
290
     0
174
     0
 93
        1
 44
0.0
173
     0
291
     0
 45
0.0
1001
ACAD
1000
AcDbSavedByObjectVersion
1070
     0
  0
VISUALSTYLE
  5
794
102
{ACAD_XDICTIONARY
360
1099
102
}
102
{ACAD_REACTORS
330
77E
102
}
330
77E
100
AcDbVisualStyle
  2

 70
    20
 71
     2
 72
     2
 73
     0
 90
        0
 40
-0.6
 41
-30.0
 62
     5
 63
     7
421
 16777215
 74
     1
 91
        4
 64
     7
 65
   257
 75
     1
175
     1
 42
1.0
 92
       10
 66
     7
 43
1.0
 76
     1
 77
     6
 78
     2
 67
     7
 79
     5
170
     0
171
     0
290
     0
174
     0
 93
        1
 44
0.0
173
     0
291
     1
 45
0.0
1001
ACAD
1000
AcDbSavedByObjectVersion
1070
     0
  0
VISUALSTYLE
  5
78C
102
{ACAD_XDICTIONARY
360
1089
102
}
102
{ACAD_REACTORS
330
77E
102
}
330
77E
100
AcDbVisualStyle
  2

 70
    14
 71
     2
 72
     2
 73
     0
 90
        0
 40
-0.6
 41
-30.0
 62
     5
 63
     7
421
 16777215
 74
     1
 91
        4
 64
     7
 65
   257
 75
     7
175
     7
 42
1.0
 92
        8
 66
     7
 43
1.0
 76
     1
 77
     6
 78
     2
 67
     7
 79
     5
170
     0
171
     0
290
     0
174
     0
 93
        1
 44
0.0
173
     0
291
     1
 45
0.0
1001
ACAD
1000
AcDbSavedByObjectVersion
1070
     0
  0
VISUALSTYLE
  5
795
102
{ACAD_XDICTIONARY
360
109B
102
}
102
{ACAD_REACTORS
330
77E
102
}
330
77E
100
AcDbVisualStyle
  2

 70
    21
 71
     2
 72
     2
 73
     0
 90
        0
 40
-0.6
 41
-30.0
 62
     5
 63
     7
421
 16777215
 74
     1
 91
        4
 64
     7
 65
   257
 75
     1
175
     1
 42
1.0
 92
        9
 66
     7
 43
1.0
 76
     1
 77
     6
 78
     2
 67
     7
 79
     5
170
     0
171
     0
290
     0
174
     0
 93
        1
 44
0.0
173
     0
291
     1
 45
0.0
1001
ACAD
1000
AcDbSavedByObjectVersion
1070
     0
  0
VISUALSTYLE
  5
788
102
{ACAD_XDICTIONARY
360
1081
102
}
102
{ACAD_REACTORS
330
77E
102
}
330
77E
100
AcDbVisualStyle
  2

 70
     8
 71
     2
 72
     3
 73
     0
 90
        2
 40
-0.6
 41
30.0
 62
     5
 63
     7
421
 16777215
 74
     0
 91
        0
 64
     7
 65
   257
 75
     1
175
     1
 42
1.0
 92
        8
 66
   257
 43
1.0
 76
     1
 77
     6
 78
     2
 67
     7
 79
     3
170
     0
171
     0
290
     0
174
     0
 93
       13
 44
0.0
173
     0
291
     0
 45
0.0
1001
ACAD
1000
AcDbSavedByObjectVersion
1070
     0
  0
VISUALSTYLE
  5
793
102
{ACAD_XDICTIONARY
360
1097
102
}
102
{ACAD_REACTORS
330
77E
102
}
330
77E
100
AcDbVisualStyle
  2

 70
    27
 71
     2
 72
     2
 73
     1
 90
        2
 40
-0.6
 41
30.0
 62
     5
 63
     7
421
 16777215
 74
     0
 91
        4
 64
     7
 65
   257
 75
     1
175
     1
 42
1.0
 92
        8
 66
   257
 43
1.0
 76
     1
 77
     6
 78
     2
 67
     8
425
  7895160
 79
     3
170
     0
171
     0
290
     0
174
     0
 93
        5
 44
0.0
173
     0
291
     0
 45
0.0
1001
ACAD
1000
AcDbSavedByObjectVersion
1070
     0
  0
VISUALSTYLE
  5
792
102
{ACAD_XDICTIONARY
360
1095
102
}
102
{ACAD_REACTORS
330
77E
102
}
330
77E
100
AcDbVisualStyle
  2

 70
    26
 71
     2
 72
     2
 73
     1
 90
        2
 40
-0.6
 41
30.0
 62
     5
 63
     7
421
 16777215
 74
     1
 91
       10
 64
     7
 65
   257
 75
     2
175
     1
 42
1.0
 92
        8
 66
   257
 43
1.0
 76
     1
 77
     6
 78
     2
 67
     7
 79
     3
170
     0
171
     0
290
     0
174
     0
 93
        5
 44
0.0
173
     0
291
     0
 45
0.0
1001
ACAD
1000
AcDbSavedByObjectVersion
1070
     0
  0
VISUALSTYLE
  5
78F
102
{ACAD_XDICTIONARY
360
108F
102
}
102
{ACAD_REACTORS
330
77E
102
}
330
77E
100
AcDbVisualStyle
  2

 70
    23
 71
     2
 72
     2
 73
     3
 90
        0
 40
-0.6
 41
-30.0
 62
     5
 63
     7
421
 16777215
 74
     2
 91
        2
 64
     7
 65
     7
 75
     1
175
     1
 42
40.0
 92
        8
 66
     7
 43
1.0
 76
     1
 77
     6
 78
     2
 67
     7
 79
     3
170
     0
171
     0
290
     0
174
     0
 93
        1
 44
0.0
173
     0
291
     0
 45
0.0
1001
ACAD
1000
AcDbSavedByObjectVersion
1070
     0
  0
VISUALSTYLE
  5
790
102
{ACAD_XDICTIONARY
360
1091
102
}
102
{ACAD_REACTORS
330
77E
102
}
330
77E
100
AcDbVisualStyle
  2

 70
    24
 71
     1
 72
     2
 73
     2
 90
        0
 40
-0.6
 41
-30.0
 62
     5
 63
     7
421
 16777215
 74
     2
 91
        2
 64
     7
 65
     7
 75
     1
175
     1
 42
40.0
 92
       11
 66
     7
 43
1.0
 76
     1
 77
     6
 78
     2
 67
     7
 79
     6
170
     0
171
     0
290
     0
174
     0
 93
        1
 44
0.0
173
     0
291
     0
 45
0.0
1001
ACAD
1000
AcDbSavedByObjectVersion
1070
     0
  0
VISUALSTYLE
  5
78B
102
{ACAD_XDICTIONARY
360
1087
102
}
102
{ACAD_REACTORS
330
77E
102
}
330
77E
100
AcDbVisualStyle
  2

 70
    13
 71
     2
 72
     2
 73
     0
 90
        0
 40
-0.6
 41
-30.0
 62
     5
 63
     7
421
 16777215
 74
     1
 91
        4
 64
     7
 65
   257
 75
     1
175
     1
 42
1.0
 92
       12
 66
     7
 43
1.0
 76
     1
 77
     6
 78
     2
 67
     7
 79
     5
170
     0
171
     0
290
     0
174
     0
 93
        1
 44
0.0
173
     0
291
     1
 45
0.0
1001
ACAD
1000
AcDbSavedByObjectVersion
1070
     0
  0
VISUALSTYLE
  5
785
102
{ACAD_XDICTIONARY
360
107B
102
}
102
{ACAD_REACTORS
330
77E
102
}
330
77E
100
AcDbVisualStyle
  2

 70
     5
 71
     0
 72
     2
 73
     0
 90
        0
 40
-0.6
 41
-30.0
 62
     5
 63
     7
421
 16777215
 74
     1
 91
        4
 64
     7
 65
   257
 75
     1
175
     1
 42
1.0
 92
        0
 66
   257
 43
1.0
 76
     1
 77
     6
 78
     2
 67
     7
 79
     3
170
     0
171
     0
290
     0
174
     0
 93
        1
 44
0.0
173
     0
291
     0
 45
0.0
1001
ACAD
1000
AcDbSavedByObjectVersion
1070
     0
  0
VISUALSTYLE
  5
791
102
{ACAD_XDICTIONARY
360
1093
102
}
102
{ACAD_REACTORS
330
77E
102
}
330
77E
100
AcDbVisualStyle
  2

 70
    25
 71
     2
 72
     2
 73
     1
 90
        1
 40
0.5
 41
-30.0
 62
     5
 63
     7
421
 16777215
 74
     1
 91
        0
 64
     7
 65
   257
 75
     1
175
     1
 42
1.0
 92
        8
 66
     7
 43
1.0
 76
     1
 77
     6
 78
     2
 67
     7
 79
     3
170
     0
171
     0
290
     0
174
     0
 93
       13
 44
0.0
173
     0
291
     0
 45
0.0
1001
ACAD
1000
AcDbSavedByObjectVersion
1070
     0
  0
DICTIONARYVAR
  5
9FA
102
{ACAD_REACTORS
330
5E
102
}
330
5E
100
DictionaryVariables
280
     0
  1
1:1
  0
DICTIONARYVAR
  5
9F6
102
{ACAD_REACTORS
330
5E
102
}
330
5E
100
DictionaryVariables
280
     0
  1
STANDARD
  0
DICTIONARYVAR
  5
84
102
{ACAD_REACTORS
330
5E
102
}
330
5E
100
DictionaryVariables
280
     0
  1
STANDARD
  0
DICTIONARYVAR
  5
9F7
102
{ACAD_REACTORS
330
5E
102
}
330
5E
100
DictionaryVariables
280
     0
  1
Metric50
  0
DICTIONARYVAR
  5
9F8
102
{ACAD_REACTORS
330
5E
102
}
330
5E
100
DictionaryVariables
280
     0
  1
Metric50
  0
DICTIONARYVAR
  5
5F
102
{ACAD_REACTORS
330
5E
102
}
330
5E
100
DictionaryVariables
280
     0
  1
2
  0
DICTIONARYVAR
  5
63
102
{ACAD_REACTORS
330
5E
102
}
330
5E
100
DictionaryVariables
280
     0
  1
1
  0
DICTIONARYVAR
  5
9FC
102
{ACAD_REACTORS
330
5E
102
}
330
5E
100
DictionaryVariables
280
     0
  1
1
  0
DICTIONARYVAR
  5
9FD
102
{ACAD_REACTORS
330
5E
102
}
330
5E
100
DictionaryVariables
280
     0
  1
15
  0
DICTIONARYVAR
  5
9FB
102
{ACAD_REACTORS
330
5E
102
}
330
5E
100
DictionaryVariables
280
     0
  1
0
  0
DICTIONARYVAR
  5
1066
102
{ACAD_REACTORS
330
5E
102
}
330
5E
100
DictionaryVariables
280
     0
  1
1.570796
  0
DICTIONARYVAR
  5
1067
102
{ACAD_REACTORS
330
5E
102
}
330
5E
100
DictionaryVariables
280
     0
  1
1.570796
  0
DICTIONARYVAR
  5
1068
102
{ACAD_REACTORS
330
5E
102
}
330
5E
100
DictionaryVariables
280
     0
  1
-122.394000
  0
DICTIONARYVAR
  5
9F9
102
{ACAD_REACTORS
330
5E
102
}
330
5E
100
DictionaryVariables
280
     0
  1
0
  0
DICTIONARY
  5
10A3
330
7AE
100
AcDbDictionary
280
     1
281
     1
  3
ACAD_XREC_ROUNDTRIP
360
10A4
  0
DICTIONARY
  5
76F
330
76E
100
AcDbDictionary
280
     1
281
     1
  3
ACAD_XREC_ROUNDTRIP
360
106D
  3
BUMPTILE
360
771
  3
DIFFUSETILE
360
770
  3
OPACITYTILE
360
774
  3
REFLECTIONTILE
360
773
  3
REFRACTIONTILE
360
775
  3
SPECULARTILE
360
772
  0
DICTIONARY
  5
767
330
766
100
AcDbDictionary
280
     1
281
     1
  3
ACAD_XREC_ROUNDTRIP
360
106C
  3
BUMPTILE
360
769
  3
DIFFUSETILE
360
768
  3
OPACITYTILE
360
76C
  3
REFLECTIONTILE
360
76B
  3
REFRACTIONTILE
360
76D
  3
SPECULARTILE
360
76A
  0
DICTIONARY
  5
777
330
776
100
AcDbDictionary
280
     1
281
     1
  3
ACAD_XREC_ROUNDTRIP
360
106E
  3
BUMPTILE
360
779
  3
DIFFUSETILE
360
778
  3
OPACITYTILE
360
77C
  3
REFLECTIONTILE
360
77B
  3
REFRACTIONTILE
360
77D
  3
SPECULARTILE
360
77A
  0
DICTIONARY
  5
109F
330
7AA
100
AcDbDictionary
280
     1
281
     1
  3
ACAD_XREC_ROUNDTRIP
360
10A0
  0
DICTIONARY
  5
10A1
330
7AC
100
AcDbDictionary
280
     1
281
     1
  3
ACAD_XREC_ROUNDTRIP
360
10A2
  0
DICTIONARY
  5
CAD
330
7F
100
AcDbDictionary
280
     1
281
     1
  3
ACAD_ROUNDTRIP_2008_TABLESTYLE_CELLSTYLEMAP
360
1069
  3
ACAD_XREC_ROUNDTRIP
360
106B
  0
DICTIONARY
  5
1079
330
784
100
AcDbDictionary
280
     1
281
     1
  3
ACAD_XREC_ROUNDTRIP
360
107A
  0
DICTIONARY
  5
1077
330
783
100
AcDbDictionary
280
     1
281
     1
  3
ACAD_XREC_ROUNDTRIP
360
1078
  0
DICTIONARY
  5
1085
330
78A
100
AcDbDictionary
280
     1
281
     1
  3
ACAD_XREC_ROUNDTRIP
360
1086
  0
DICTIONARY
  5
108D
330
78E
100
AcDbDictionary
280
     1
281
     1
  3
ACAD_XREC_ROUNDTRIP
360
108E
  0
DICTIONARY
  5
107F
330
787
100
AcDbDictionary
280
     1
281
     1
  3
ACAD_XREC_ROUNDTRIP
360
1080
  0
DICTIONARY
  5
1083
330
789
100
AcDbDictionary
280
     1
281
     1
  3
ACAD_XREC_ROUNDTRIP
360
1084
  0
DICTIONARY
  5
109D
330
796
100
AcDbDictionary
280
     1
281
     1
  3
ACAD_XREC_ROUNDTRIP
360
109E
  0
DICTIONARY
  5
108B
330
78D
100
AcDbDictionary
280
     1
281
     1
  3
ACAD_XREC_ROUNDTRIP
360
108C
  0
DICTIONARY
  5
106F
330
77F
100
AcDbDictionary
280
     1
281
     1
  3
ACAD_XREC_ROUNDTRIP
360
1070
  0
DICTIONARY
  5
1071
330
780
100
AcDbDictionary
280
     1
281
     1
  3
ACAD_XREC_ROUNDTRIP
360
1072
  0
DICTIONARY
  5
1073
330
781
100
AcDbDictionary
280
     1
281
     1
  3
ACAD_XREC_ROUNDTRIP
360
1074
  0
DICTIONARY
  5
1075
330
782
100
AcDbDictionary
280
     1
281
     1
  3
ACAD_XREC_ROUNDTRIP
360
1076
  0
DICTIONARY
  5
107D
330
786
100
AcDbDictionary
280
     1
281
     1
  3
ACAD_XREC_ROUNDTRIP
360
107E
  0
DICTIONARY
  5
1099
330
794
100
AcDbDictionary
280
     1
281
     1
  3
ACAD_XREC_ROUNDTRIP
360
109A
  0
DICTIONARY
  5
1089
330
78C
100
AcDbDictionary
280
     1
281
     1
  3
ACAD_XREC_ROUNDTRIP
360
108A
  0
DICTIONARY
  5
109B
330
795
100
AcDbDictionary
280
     1
281
     1
  3
ACAD_XREC_ROUNDTRIP
360
109C
  0
DICTIONARY
  5
1081
330
788
100
AcDbDictionary
280
     1
281
     1
  3
ACAD_XREC_ROUNDTRIP
360
1082
  0
DICTIONARY
  5
1097
330
793
100
AcDbDictionary
280
     1
281
     1
  3
ACAD_XREC_ROUNDTRIP
360
1098
  0
DICTIONARY
  5
1095
330
792
100
AcDbDictionary
280
     1
281
     1
  3
ACAD_XREC_ROUNDTRIP
360
1096
  0
DICTIONARY
  5
108F
330
78F
100
AcDbDictionary
280
     1
281
     1
  3
ACAD_XREC_ROUNDTRIP
360
1090
  0
DICTIONARY
  5
1091
330
790
100
AcDbDictionary
280
     1
281
     1
  3
ACAD_XREC_ROUNDTRIP
360
1092
  0
DICTIONARY
  5
1087
330
78B
100
AcDbDictionary
280
     1
281
     1
  3
ACAD_XREC_ROUNDTRIP
360
1088
  0
DICTIONARY
  5
107B
330
785
100
AcDbDictionary
280
     1
281
     1
  3
ACAD_XREC_ROUNDTRIP
360
107C
  0
DICTIONARY
  5
1093
330
791
100
AcDbDictionary
280
     1
281
     1
  3
ACAD_XREC_ROUNDTRIP
360
1094
  0
XRECORD
  5
10A4
102
{ACAD_REACTORS
330
10A3
102
}
330
10A3
100
AcDbXrecord
280
     1
102
DISPLAYNAME
  1
Metric50
102
FLAGS
 90
        0
  0
XRECORD
  5
106D
102
{ACAD_REACTORS
330
76F
102
}
330
76F
100
AcDbXrecord
280
     1
102
MATERIAL
148
0.0
149
0.0
149
0.0
 93
        0
 94
      127
282
     0
 72
     0
 77
     0
171
     0
175
     0
179
     0
273
     0
  0
XRECORD
  5
771
102
{ACAD_REACTORS
330
76F
102
}
330
76F
100
AcDbXrecord
280
     1
270
     1
271
     1
  0
XRECORD
  5
770
102
{ACAD_REACTORS
330
76F
102
}
330
76F
100
AcDbXrecord
280
     1
270
     1
271
     1
  0
XRECORD
  5
774
102
{ACAD_REACTORS
330
76F
102
}
330
76F
100
AcDbXrecord
280
     1
270
     1
271
     1
  0
XRECORD
  5
773
102
{ACAD_REACTORS
330
76F
102
}
330
76F
100
AcDbXrecord
280
     1
270
     1
271
     1
  0
XRECORD
  5
775
102
{ACAD_REACTORS
330
76F
102
}
330
76F
100
AcDbXrecord
280
     1
270
     1
271
     1
  0
XRECORD
  5
772
102
{ACAD_REACTORS
330
76F
102
}
330
76F
100
AcDbXrecord
280
     1
270
     1
271
     1
  0
XRECORD
  5
106C
102
{ACAD_REACTORS
330
767
102
}
330
767
100
AcDbXrecord
280
     1
102
MATERIAL
148
0.0
149
0.0
149
0.0
 93
        0
 94
      127
282
     0
 72
     0
 77
     0
171
     0
175
     0
179
     0
273
     0
  0
XRECORD
  5
769
102
{ACAD_REACTORS
330
767
102
}
330
767
100
AcDbXrecord
280
     1
270
     1
271
     1
  0
XRECORD
  5
768
102
{ACAD_REACTORS
330
767
102
}
330
767
100
AcDbXrecord
280
     1
270
     1
271
     1
  0
XRECORD
  5
76C
102
{ACAD_REACTORS
330
767
102
}
330
767
100
AcDbXrecord
280
     1
270
     1
271
     1
  0
XRECORD
  5
76B
102
{ACAD_REACTORS
330
767
102
}
330
767
100
AcDbXrecord
280
     1
270
     1
271
     1
  0
XRECORD
  5
76D
102
{ACAD_REACTORS
330
767
102
}
330
767
100
AcDbXrecord
280
     1
270
     1
271
     1
  0
XRECORD
  5
76A
102
{ACAD_REACTORS
330
767
102
}
330
767
100
AcDbXrecord
280
     1
270
     1
271
     1
  0
XRECORD
  5
106E
102
{ACAD_REACTORS
330
777
102
}
330
777
100
AcDbXrecord
280
     1
102
MATERIAL
148
0.0
149
0.0
149
0.0
 93
        0
 94
      127
282
     0
 72
     0
 77
     0
171
     0
175
     0
179
     0
273
     0
  0
XRECORD
  5
779
102
{ACAD_REACTORS
330
777
102
}
330
777
100
AcDbXrecord
280
     1
270
     1
271
     1
  0
XRECORD
  5
778
102
{ACAD_REACTORS
330
777
102
}
330
777
100
AcDbXrecord
280
     1
270
     1
271
     1
  0
XRECORD
  5
77C
102
{ACAD_REACTORS
330
777
102
}
330
777
100
AcDbXrecord
280
     1
270
     1
271
     1
  0
XRECORD
  5
77B
102
{ACAD_REACTORS
330
777
102
}
330
777
100
AcDbXrecord
280
     1
270
     1
271
     1
  0
XRECORD
  5
77D
102
{ACAD_REACTORS
330
777
102
}
330
777
100
AcDbXrecord
280
     1
270
     1
271
     1
  0
XRECORD
  5
77A
102
{ACAD_REACTORS
330
777
102
}
330
777
100
AcDbXrecord
280
     1
270
     1
271
     1
  0
XRECORD
  5
10A0
102
{ACAD_REACTORS
330
109F
102
}
330
109F
100
AcDbXrecord
280
     1
102
ACAD_ROUNDTRIP_2012_MLEADER_STYLE
298
     1
  0
XRECORD
  5
10A2
102
{ACAD_REACTORS
330
10A1
102
}
330
10A1
100
AcDbXrecord
280
     1
102
DISPLAYNAME
  1
Metric50
102
FLAGS
 90
        0
  0
CELLSTYLEMAP
  5
1069
102
{ACAD_REACTORS
330
CAD
102
}
330
CAD
100
AcDbCellStyleMap
 90
        3
300
CELLSTYLE
  1
TABLEFORMAT_BEGIN
 90
        5
170
     1
 91
        0
 92
    32768
 62
   257
 93
        1
300
CONTENTFORMAT
  1
CONTENTFORMAT_BEGIN
 90
        0
 91
        0
 92
        4
 93
        0
300

 40
0.0
140
1.0
 94
        5
 62
     0
340
11
144
6.0
309
CONTENTFORMAT_END
171
     1
301
MARGIN
  1
CELLMARGIN_BEGIN
 40
1.5
 40
1.5
 40
1.5
 40
1.5
 40
0.18
 40
0.18
309
CELLMARGIN_END
 94
        6
 95
        1
302
GRIDFORMAT
  1
GRIDFORMAT_BEGIN
 90
        0
 91
        1
 62
     0
 92
       -2
340
0
 93
        0
 40
0.045
309
GRIDFORMAT_END
 95
        2
302
GRIDFORMAT
  1
GRIDFORMAT_BEGIN
 90
        0
 91
        1
 62
     0
 92
       -2
340
0
 93
        0
 40
0.045
309
GRIDFORMAT_END
 95
        4
302
GRIDFORMAT
  1
GRIDFORMAT_BEGIN
 90
        0
 91
        1
 62
     0
 92
       -2
340
0
 93
        0
 40
0.045
309
GRIDFORMAT_END
 95
        8
302
GRIDFORMAT
  1
GRIDFORMAT_BEGIN
 90
        0
 91
        1
 62
     0
 92
       -2
340
0
 93
        0
 40
0.045
309
GRIDFORMAT_END
 95
       16
302
GRIDFORMAT
  1
GRIDFORMAT_BEGIN
 90
        0
 91
        1
 62
     0
 92
       -2
340
0
 93
        0
 40
0.045
309
GRIDFORMAT_END
 95
       32
302
GRIDFORMAT
  1
GRIDFORMAT_BEGIN
 90
        0
 91
        1
 62
     0
 92
       -2
340
0
 93
        0
 40
0.045
309
GRIDFORMAT_END
309
TABLEFORMAT_END
  1
CELLSTYLE_BEGIN
 90
        1
 91
        1
300
_TITLE
309
CELLSTYLE_END
300
CELLSTYLE
  1
TABLEFORMAT_BEGIN
 90
        5
170
     1
 91
        0
 92
        0
 62
   257
 93
        1
300
CONTENTFORMAT
  1
CONTENTFORMAT_BEGIN
 90
        0
 91
        0
 92
        4
 93
        0
300

 40
0.0
140
1.0
 94
        5
 62
     0
340
11
144
4.5
309
CONTENTFORMAT_END
171
     1
301
MARGIN
  1
CELLMARGIN_BEGIN
 40
1.5
 40
1.5
 40
1.5
 40
1.5
 40
0.18
 40
0.18
309
CELLMARGIN_END
 94
        6
 95
        1
302
GRIDFORMAT
  1
GRIDFORMAT_BEGIN
 90
        0
 91
        1
 62
     0
 92
       -2
340
0
 93
        0
 40
0.045
309
GRIDFORMAT_END
 95
        2
302
GRIDFORMAT
  1
GRIDFORMAT_BEGIN
 90
        0
 91
        1
 62
     0
 92
       -2
340
0
 93
        0
 40
0.045
309
GRIDFORMAT_END
 95
        4
302
GRIDFORMAT
  1
GRIDFORMAT_BEGIN
 90
        0
 91
        1
 62
     0
 92
       -2
340
0
 93
        0
 40
0.045
309
GRIDFORMAT_END
 95
        8
302
GRIDFORMAT
  1
GRIDFORMAT_BEGIN
 90
        0
 91
        1
 62
     0
 92
       -2
340
0
 93
        0
 40
0.045
309
GRIDFORMAT_END
 95
       16
302
GRIDFORMAT
  1
GRIDFORMAT_BEGIN
 90
        0
 91
        1
 62
     0
 92
       -2
340
0
 93
        0
 40
0.045
309
GRIDFORMAT_END
 95
       32
302
GRIDFORMAT
  1
GRIDFORMAT_BEGIN
 90
        0
 91
        1
 62
     0
 92
       -2
340
0
 93
        0
 40
0.045
309
GRIDFORMAT_END
309
TABLEFORMAT_END
  1
CELLSTYLE_BEGIN
 90
        2
 91
        1
300
_HEADER
309
CELLSTYLE_END
300
CELLSTYLE
  1
TABLEFORMAT_BEGIN
 90
        5
170
     1
 91
        0
 92
        0
 62
   257
 93
        1
300
CONTENTFORMAT
  1
CONTENTFORMAT_BEGIN
 90
        0
 91
        0
 92
        4
 93
        0
300

 40
0.0
140
1.0
 94
        2
 62
     0
340
11
144
4.5
309
CONTENTFORMAT_END
171
     1
301
MARGIN
  1
CELLMARGIN_BEGIN
 40
1.5
 40
1.5
 40
1.5
 40
1.5
 40
0.18
 40
0.18
309
CELLMARGIN_END
 94
        6
 95
        1
302
GRIDFORMAT
  1
GRIDFORMAT_BEGIN
 90
        0
 91
        1
 62
     0
 92
       -2
340
0
 93
        0
 40
0.045
309
GRIDFORMAT_END
 95
        2
302
GRIDFORMAT
  1
GRIDFORMAT_BEGIN
 90
        0
 91
        1
 62
     0
 92
       -2
340
0
 93
        0
 40
0.045
309
GRIDFORMAT_END
 95
        4
302
GRIDFORMAT
  1
GRIDFORMAT_BEGIN
 90
        0
 91
        1
 62
     0
 92
       -2
340
0
 93
        0
 40
0.045
309
GRIDFORMAT_END
 95
        8
302
GRIDFORMAT
  1
GRIDFORMAT_BEGIN
 90
        0
 91
        1
 62
     0
 92
       -2
340
0
 93
        0
 40
0.045
309
GRIDFORMAT_END
 95
       16
302
GRIDFORMAT
  1
GRIDFORMAT_BEGIN
 90
        0
 91
        1
 62
     0
 92
       -2
340
0
 93
        0
 40
0.045
309
GRIDFORMAT_END
 95
       32
302
GRIDFORMAT
  1
GRIDFORMAT_BEGIN
 90
        0
 91
        1
 62
     0
 92
       -2
340
0
 93
        0
 40
0.045
309
GRIDFORMAT_END
309
TABLEFORMAT_END
  1
CELLSTYLE_BEGIN
 90
        3
 91
        2
300
_DATA
309
CELLSTYLE_END
  0
XRECORD
  5
106B
102
{ACAD_REACTORS
330
CAD
102
}
330
CAD
100
AcDbXrecord
280
     1
102
ACAD_ROUNDTRIP_PRE2007_TABLESTYLE
 90
        4
 91
        0
  1

 92
        4
 93
        0
  2

 94
        4
 95
        0
  3

  0
XRECORD
  5
107A
102
{ACAD_REACTORS
330
1079
102
}
330
1079
100
AcDbXrecord
280
     1
102
RTVSPost2010Prop28
280
     1
102
RTVSPost2010PropOp28
 70
     1
102
RTVSPost2010Prop29
280
     1
102
RTVSPost2010PropOp29
 70
     1
102
RTVSPost2010Prop30
280
     0
102
RTVSPost2010PropOp30
 70
     1
102
RTVSPost2010Prop31
280
     0
102
RTVSPost2010PropOp31
 70
     1
102
RTVSPost2010Prop32
280
     0
102
RTVSPost2010PropOp32
 70
     1
102
RTVSPost2010Prop33
280
     0
102
RTVSPost2010PropOp33
 70
     1
102
RTVSPost2010Prop34
280
     0
102
RTVSPost2010PropOp34
 70
     1
102
RTVSPost2010Prop35
280
     0
102
RTVSPost2010PropOp35
 70
     1
102
RTVSPost2010Prop36
280
     0
102
RTVSPost2010PropOp36
 70
     1
102
RTVSPost2010Prop37
 90
       50
102
RTVSPost2010PropOp37
 70
     1
102
RTVSPost2010Prop38
140
0.0
102
RTVSPost2010PropOp38
 70
     1
102
RTVSPost2010Prop39
140
1.0
102
RTVSPost2010PropOp39
 70
     1
102
RTVSPost2010Prop40
 90
        0
102
RTVSPost2010PropOp40
 70
     1
102
RTVSPost2010Prop41ColorIndex
 90
       18
102
RTVSPost2010Prop41ColorRGB
 90
        0
102
RTVSPost2010PropOp41
 70
     1
102
RTVSPost2010Prop42
 90
       50
102
RTVSPost2010PropOp42
 70
     1
102
RTVSPost2010Prop43
 90
        3
102
RTVSPost2010PropOp43
 70
     1
102
RTVSPost2010Prop44ColorIndex
 90
        5
102
RTVSPost2010Prop44ColorRGB
 90
      255
102
RTVSPost2010PropOp44
 70
     1
102
RTVSPost2010Prop45
280
     0
102
RTVSPost2010PropOp45
 70
     1
102
RTVSPost2010Prop46
 90
       50
102
RTVSPost2010PropOp46
 70
     1
102
RTVSPost2010Prop47
 90
       50
102
RTVSPost2010PropOp47
 70
     1
102
RTVSPost2010Prop48
 90
       50
102
RTVSPost2010PropOp48
 70
     1
102
RTVSPost2010Prop49
280
     0
102
RTVSPost2010PropOp49
 70
     1
102
RTVSPost2010Prop50
 90
       50
102
RTVSPost2010PropOp50
 70
     1
102
RTVSPost2010Prop51ColorIndex
 90
      256
102
RTVSPost2010Prop51ColorRGB
 90
-16777216
102
RTVSPost2010PropOp51
 70
     0
102
RTVSPost2010Prop52
140
1.0
102
RTVSPost2010PropOp52
 70
     0
102
RTVSPost2010Prop53
 90
        2
102
RTVSPost2010PropOp53
 70
     1
102
RTVSPost2010Prop54
  1
strokes_ogs.tif
102
RTVSPost2010PropOp54
 70
     1
102
RTVSPost2010Prop55
280
     0
102
RTVSPost2010PropOp55
 70
     1
102
RTVSPost2010Prop56
140
1.0
102
RTVSPost2010PropOp56
 70
     1
102
RTVSPost2010Prop57
140
1.0
102
RTVSPost2010PropOp57
 70
     1
102
RTVSPropertyOp0
 70
     1
102
RTVSPropertyOp1
 70
     1
102
RTVSPropertyOp2
 70
     1
102
RTVSPropertyOp3
 70
     1
102
RTVSPropertyOp4
 70
     1
102
RTVSPropertyOp5
 70
     1
102
RTVSPropertyOp6
 70
     1
102
RTVSPropertyOp7
 70
     1
102
RTVSPropertyOp8
 70
     1
102
RTVSPropertyOp9
 70
     1
102
RTVSPropertyOp10
 70
     1
102
RTVSPropertyOp11
 70
     1
102
RTVSPropertyOp12
 70
     1
102
RTVSPropertyOp13
 70
     1
102
RTVSPropertyOp14
 70
     1
102
RTVSPropertyOp15
 70
     1
102
RTVSPropertyOp16
 70
     1
102
RTVSPropertyOp17
 70
     1
102
RTVSPropertyOp18
 70
     1
102
RTVSPropertyOp19
 70
     1
102
RTVSPropertyOp20
 70
     1
102
RTVSPropertyOp21
 70
     1
102
RTVSPropertyOp22
 70
     1
102
RTVSPropertyOp23
 70
     1
102
RTVSPropertyOp24
 70
     1
102
RTVSPropertyOp25
 70
     1
102
RTVSPropertyOp26
 70
     1
102
RTVSPropertyOp27
 70
     1
102
RTVSPropertyOp28
 70
     1
102
RTVSPropertyOp29
 70
     1
102
RTVSPropertyOp30
 70
     1
102
RTVSPropertyOp31
 70
     1
102
RTVSPropertyOp32
 70
     1
102
RTVSPropertyOp33
 70
     1
102
RTVSPropertyOp34
 70
     1
102
RTVSPropertyOp35
 70
     1
102
RTVSPropertyOp36
 70
     1
102
RTVSPropertyOp37
 70
     1
102
RTVSPropertyOp38
 70
     1
102
RTVSPropertyOp39
 70
     1
102
RTVSPropertyOp40
 70
     1
102
RTVSPropertyOp41
 70
     1
102
RTVSPropertyOp42
 70
     1
102
RTVSPropertyOp43
 70
     1
102
RTVSPropertyOp44
 70
     1
102
RTVSPropertyOp45
 70
     1
102
RTVSPropertyOp46
 70
     1
102
RTVSPropertyOp47
 70
     1
102
RTVSPropertyOp48
 70
     1
102
RTVSPropertyOp49
 70
     1
102
RTVSPropertyOp50
 70
     1
102
RTVSPropertyOp51
 70
     0
102
RTVSPropertyOp52
 70
     0
102
RTVSPropertyOp53
 70
     1
102
RTVSPropertyOp54
 70
     1
102
RTVSPropertyOp55
 70
     1
102
RTVSPropertyOp56
 70
     1
102
RTVSPropertyOp57
 70
     1
102
RTVSPropertyOp58
 70
     1
102
RTVSPropertyOp59
 70
     1
102
RTVSPropertyOp60
 70
     1
102
RTVSPropertyOp61
 70
     1
102
RTVSPropertyOp62
 70
     1
  0
XRECORD
  5
1078
102
{ACAD_REACTORS
330
1077
102
}
330
1077
100
AcDbXrecord
280
     1
102
RTVSPost2010Prop28
280
     0
102
RTVSPost2010PropOp28
 70
     1
102
RTVSPost2010Prop29
280
     1
102
RTVSPost2010PropOp29
 70
     1
102
RTVSPost2010Prop30
280
     1
102
RTVSPost2010PropOp30
 70
     1
102
RTVSPost2010Prop31
280
     0
102
RTVSPost2010PropOp31
 70
     1
102
RTVSPost2010Prop32
280
     0
102
RTVSPost2010PropOp32
 70
     1
102
RTVSPost2010Prop33
280
     0
102
RTVSPost2010PropOp33
 70
     1
102
RTVSPost2010Prop34
280
     0
102
RTVSPost2010PropOp34
 70
     1
102
RTVSPost2010Prop35
280
     0
102
RTVSPost2010PropOp35
 70
     1
102
RTVSPost2010Prop36
280
     0
102
RTVSPost2010PropOp36
 70
     1
102
RTVSPost2010Prop37
 90
       50
102
RTVSPost2010PropOp37
 70
     1
102
RTVSPost2010Prop38
140
0.0
102
RTVSPost2010PropOp38
 70
     1
102
RTVSPost2010Prop39
140
1.0
102
RTVSPost2010PropOp39
 70
     1
102
RTVSPost2010Prop40
 90
        0
102
RTVSPost2010PropOp40
 70
     1
102
RTVSPost2010Prop41ColorIndex
 90
       18
102
RTVSPost2010Prop41ColorRGB
 90
        0
102
RTVSPost2010PropOp41
 70
     1
102
RTVSPost2010Prop42
 90
       50
102
RTVSPost2010PropOp42
 70
     1
102
RTVSPost2010Prop43
 90
        3
102
RTVSPost2010PropOp43
 70
     1
102
RTVSPost2010Prop44ColorIndex
 90
        5
102
RTVSPost2010Prop44ColorRGB
 90
      255
102
RTVSPost2010PropOp44
 70
     1
102
RTVSPost2010Prop45
280
     0
102
RTVSPost2010PropOp45
 70
     1
102
RTVSPost2010Prop46
 90
       50
102
RTVSPost2010PropOp46
 70
     1
102
RTVSPost2010Prop47
 90
       50
102
RTVSPost2010PropOp47
 70
     1
102
RTVSPost2010Prop48
 90
       50
102
RTVSPost2010PropOp48
 70
     1
102
RTVSPost2010Prop49
280
     0
102
RTVSPost2010PropOp49
 70
     1
102
RTVSPost2010Prop50
 90
       50
102
RTVSPost2010PropOp50
 70
     1
102
RTVSPost2010Prop51ColorIndex
 90
      256
102
RTVSPost2010Prop51ColorRGB
 90
-16777216
102
RTVSPost2010PropOp51
 70
     0
102
RTVSPost2010Prop52
140
1.0
102
RTVSPost2010PropOp52
 70
     0
102
RTVSPost2010Prop53
 90
        2
102
RTVSPost2010PropOp53
 70
     1
102
RTVSPost2010Prop54
  1
strokes_ogs.tif
102
RTVSPost2010PropOp54
 70
     1
102
RTVSPost2010Prop55
280
     0
102
RTVSPost2010PropOp55
 70
     1
102
RTVSPost2010Prop56
140
1.0
102
RTVSPost2010PropOp56
 70
     1
102
RTVSPost2010Prop57
140
1.0
102
RTVSPost2010PropOp57
 70
     1
102
RTVSPropertyOp0
 70
     1
102
RTVSPropertyOp1
 70
     1
102
RTVSPropertyOp2
 70
     1
102
RTVSPropertyOp3
 70
     1
102
RTVSPropertyOp4
 70
     1
102
RTVSPropertyOp5
 70
     1
102
RTVSPropertyOp6
 70
     1
102
RTVSPropertyOp7
 70
     1
102
RTVSPropertyOp8
 70
     1
102
RTVSPropertyOp9
 70
     1
102
RTVSPropertyOp10
 70
     1
102
RTVSPropertyOp11
 70
     1
102
RTVSPropertyOp12
 70
     1
102
RTVSPropertyOp13
 70
     1
102
RTVSPropertyOp14
 70
     1
102
RTVSPropertyOp15
 70
     1
102
RTVSPropertyOp16
 70
     1
102
RTVSPropertyOp17
 70
     1
102
RTVSPropertyOp18
 70
     1
102
RTVSPropertyOp19
 70
     1
102
RTVSPropertyOp20
 70
     1
102
RTVSPropertyOp21
 70
     1
102
RTVSPropertyOp22
 70
     1
102
RTVSPropertyOp23
 70
     1
102
RTVSPropertyOp24
 70
     1
102
RTVSPropertyOp25
 70
     1
102
RTVSPropertyOp26
 70
     1
102
RTVSPropertyOp27
 70
     1
102
RTVSPropertyOp28
 70
     1
102
RTVSPropertyOp29
 70
     1
102
RTVSPropertyOp30
 70
     1
102
RTVSPropertyOp31
 70
     1
102
RTVSPropertyOp32
 70
     1
102
RTVSPropertyOp33
 70
     1
102
RTVSPropertyOp34
 70
     1
102
RTVSPropertyOp35
 70
     1
102
RTVSPropertyOp36
 70
     1
102
RTVSPropertyOp37
 70
     1
102
RTVSPropertyOp38
 70
     1
102
RTVSPropertyOp39
 70
     1
102
RTVSPropertyOp40
 70
     1
102
RTVSPropertyOp41
 70
     1
102
RTVSPropertyOp42
 70
     1
102
RTVSPropertyOp43
 70
     1
102
RTVSPropertyOp44
 70
     1
102
RTVSPropertyOp45
 70
     1
102
RTVSPropertyOp46
 70
     1
102
RTVSPropertyOp47
 70
     1
102
RTVSPropertyOp48
 70
     1
102
RTVSPropertyOp49
 70
     1
102
RTVSPropertyOp50
 70
     1
102
RTVSPropertyOp51
 70
     0
102
RTVSPropertyOp52
 70
     0
102
RTVSPropertyOp53
 70
     1
102
RTVSPropertyOp54
 70
     1
102
RTVSPropertyOp55
 70
     1
102
RTVSPropertyOp56
 70
     1
102
RTVSPropertyOp57
 70
     1
102
RTVSPropertyOp58
 70
     1
102
RTVSPropertyOp59
 70
     1
102
RTVSPropertyOp60
 70
     1
102
RTVSPropertyOp61
 70
     1
102
RTVSPropertyOp62
 70
     1
  0
XRECORD
  5
1086
102
{ACAD_REACTORS
330
1085
102
}
330
1085
100
AcDbXrecord
280
     1
102
RTVSPost2010Prop28
280
     0
102
RTVSPost2010PropOp28
 70
     1
102
RTVSPost2010Prop29
280
     1
102
RTVSPost2010PropOp29
 70
     1
102
RTVSPost2010Prop30
280
     1
102
RTVSPost2010PropOp30
 70
     1
102
RTVSPost2010Prop31
280
     0
102
RTVSPost2010PropOp31
 70
     1
102
RTVSPost2010Prop32
280
     0
102
RTVSPost2010PropOp32
 70
     1
102
RTVSPost2010Prop33
280
     0
102
RTVSPost2010PropOp33
 70
     1
102
RTVSPost2010Prop34
280
     0
102
RTVSPost2010PropOp34
 70
     1
102
RTVSPost2010Prop35
280
     0
102
RTVSPost2010PropOp35
 70
     1
102
RTVSPost2010Prop36
280
     0
102
RTVSPost2010PropOp36
 70
     1
102
RTVSPost2010Prop37
 90
       50
102
RTVSPost2010PropOp37
 70
     1
102
RTVSPost2010Prop38
140
0.0
102
RTVSPost2010PropOp38
 70
     1
102
RTVSPost2010Prop39
140
1.0
102
RTVSPost2010PropOp39
 70
     1
102
RTVSPost2010Prop40
 90
        0
102
RTVSPost2010PropOp40
 70
     1
102
RTVSPost2010Prop41ColorIndex
 90
       18
102
RTVSPost2010Prop41ColorRGB
 90
        0
102
RTVSPost2010PropOp41
 70
     1
102
RTVSPost2010Prop42
 90
       50
102
RTVSPost2010PropOp42
 70
     1
102
RTVSPost2010Prop43
 90
        3
102
RTVSPost2010PropOp43
 70
     1
102
RTVSPost2010Prop44ColorIndex
 90
        5
102
RTVSPost2010Prop44ColorRGB
 90
      255
102
RTVSPost2010PropOp44
 70
     1
102
RTVSPost2010Prop45
280
     0
102
RTVSPost2010PropOp45
 70
     1
102
RTVSPost2010Prop46
 90
       50
102
RTVSPost2010PropOp46
 70
     1
102
RTVSPost2010Prop47
 90
       50
102
RTVSPost2010PropOp47
 70
     1
102
RTVSPost2010Prop48
 90
       50
102
RTVSPost2010PropOp48
 70
     1
102
RTVSPost2010Prop49
280
     0
102
RTVSPost2010PropOp49
 70
     1
102
RTVSPost2010Prop50
 90
       50
102
RTVSPost2010PropOp50
 70
     1
102
RTVSPost2010Prop51ColorIndex
 90
      256
102
RTVSPost2010Prop51ColorRGB
 90
-16777216
102
RTVSPost2010PropOp51
 70
     0
102
RTVSPost2010Prop52
140
1.0
102
RTVSPost2010PropOp52
 70
     0
102
RTVSPost2010Prop53
 90
        2
102
RTVSPost2010PropOp53
 70
     1
102
RTVSPost2010Prop54
  1
strokes_ogs.tif
102
RTVSPost2010PropOp54
 70
     1
102
RTVSPost2010Prop55
280
     0
102
RTVSPost2010PropOp55
 70
     1
102
RTVSPost2010Prop56
140
1.0
102
RTVSPost2010PropOp56
 70
     1
102
RTVSPost2010Prop57
140
1.0
102
RTVSPost2010PropOp57
 70
     1
102
RTVSPropertyOp0
 70
     1
102
RTVSPropertyOp1
 70
     1
102
RTVSPropertyOp2
 70
     1
102
RTVSPropertyOp3
 70
     1
102
RTVSPropertyOp4
 70
     1
102
RTVSPropertyOp5
 70
     1
102
RTVSPropertyOp6
 70
     1
102
RTVSPropertyOp7
 70
     1
102
RTVSPropertyOp8
 70
     1
102
RTVSPropertyOp9
 70
     1
102
RTVSPropertyOp10
 70
     1
102
RTVSPropertyOp11
 70
     1
102
RTVSPropertyOp12
 70
     1
102
RTVSPropertyOp13
 70
     1
102
RTVSPropertyOp14
 70
     1
102
RTVSPropertyOp15
 70
     1
102
RTVSPropertyOp16
 70
     1
102
RTVSPropertyOp17
 70
     1
102
RTVSPropertyOp18
 70
     1
102
RTVSPropertyOp19
 70
     1
102
RTVSPropertyOp20
 70
     1
102
RTVSPropertyOp21
 70
     1
102
RTVSPropertyOp22
 70
     1
102
RTVSPropertyOp23
 70
     1
102
RTVSPropertyOp24
 70
     1
102
RTVSPropertyOp25
 70
     1
102
RTVSPropertyOp26
 70
     1
102
RTVSPropertyOp27
 70
     1
102
RTVSPropertyOp28
 70
     1
102
RTVSPropertyOp29
 70
     1
102
RTVSPropertyOp30
 70
     1
102
RTVSPropertyOp31
 70
     1
102
RTVSPropertyOp32
 70
     1
102
RTVSPropertyOp33
 70
     1
102
RTVSPropertyOp34
 70
     1
102
RTVSPropertyOp35
 70
     1
102
RTVSPropertyOp36
 70
     1
102
RTVSPropertyOp37
 70
     1
102
RTVSPropertyOp38
 70
     1
102
RTVSPropertyOp39
 70
     1
102
RTVSPropertyOp40
 70
     1
102
RTVSPropertyOp41
 70
     1
102
RTVSPropertyOp42
 70
     1
102
RTVSPropertyOp43
 70
     1
102
RTVSPropertyOp44
 70
     1
102
RTVSPropertyOp45
 70
     1
102
RTVSPropertyOp46
 70
     1
102
RTVSPropertyOp47
 70
     1
102
RTVSPropertyOp48
 70
     1
102
RTVSPropertyOp49
 70
     1
102
RTVSPropertyOp50
 70
     1
102
RTVSPropertyOp51
 70
     0
102
RTVSPropertyOp52
 70
     0
102
RTVSPropertyOp53
 70
     1
102
RTVSPropertyOp54
 70
     1
102
RTVSPropertyOp55
 70
     1
102
RTVSPropertyOp56
 70
     1
102
RTVSPropertyOp57
 70
     1
102
RTVSPropertyOp58
 70
     1
102
RTVSPropertyOp59
 70
     1
102
RTVSPropertyOp60
 70
     1
102
RTVSPropertyOp61
 70
     1
102
RTVSPropertyOp62
 70
     1
  0
XRECORD
  5
108E
102
{ACAD_REACTORS
330
108D
102
}
330
108D
100
AcDbXrecord
280
     1
102
RTVSPost2010Prop28
280
     0
102
RTVSPost2010PropOp28
 70
     1
102
RTVSPost2010Prop29
280
     1
102
RTVSPost2010PropOp29
 70
     1
102
RTVSPost2010Prop30
280
     1
102
RTVSPost2010PropOp30
 70
     1
102
RTVSPost2010Prop31
280
     0
102
RTVSPost2010PropOp31
 70
     1
102
RTVSPost2010Prop32
280
     0
102
RTVSPost2010PropOp32
 70
     1
102
RTVSPost2010Prop33
280
     0
102
RTVSPost2010PropOp33
 70
     1
102
RTVSPost2010Prop34
280
     0
102
RTVSPost2010PropOp34
 70
     1
102
RTVSPost2010Prop35
280
     0
102
RTVSPost2010PropOp35
 70
     1
102
RTVSPost2010Prop36
280
     0
102
RTVSPost2010PropOp36
 70
     1
102
RTVSPost2010Prop37
 90
       50
102
RTVSPost2010PropOp37
 70
     1
102
RTVSPost2010Prop38
140
0.0
102
RTVSPost2010PropOp38
 70
     1
102
RTVSPost2010Prop39
140
1.0
102
RTVSPost2010PropOp39
 70
     1
102
RTVSPost2010Prop40
 90
        0
102
RTVSPost2010PropOp40
 70
     1
102
RTVSPost2010Prop41ColorIndex
 90
       18
102
RTVSPost2010Prop41ColorRGB
 90
        0
102
RTVSPost2010PropOp41
 70
     1
102
RTVSPost2010Prop42
 90
       50
102
RTVSPost2010PropOp42
 70
     1
102
RTVSPost2010Prop43
 90
        3
102
RTVSPost2010PropOp43
 70
     1
102
RTVSPost2010Prop44ColorIndex
 90
        5
102
RTVSPost2010Prop44ColorRGB
 90
      255
102
RTVSPost2010PropOp44
 70
     1
102
RTVSPost2010Prop45
280
     0
102
RTVSPost2010PropOp45
 70
     1
102
RTVSPost2010Prop46
 90
       50
102
RTVSPost2010PropOp46
 70
     1
102
RTVSPost2010Prop47
 90
       50
102
RTVSPost2010PropOp47
 70
     1
102
RTVSPost2010Prop48
 90
       50
102
RTVSPost2010PropOp48
 70
     1
102
RTVSPost2010Prop49
280
     0
102
RTVSPost2010PropOp49
 70
     1
102
RTVSPost2010Prop50
 90
       50
102
RTVSPost2010PropOp50
 70
     1
102
RTVSPost2010Prop51ColorIndex
 90
      256
102
RTVSPost2010Prop51ColorRGB
 90
-16777216
102
RTVSPost2010PropOp51
 70
     0
102
RTVSPost2010Prop52
140
1.0
102
RTVSPost2010PropOp52
 70
     0
102
RTVSPost2010Prop53
 90
        2
102
RTVSPost2010PropOp53
 70
     1
102
RTVSPost2010Prop54
  1
strokes_ogs.tif
102
RTVSPost2010PropOp54
 70
     1
102
RTVSPost2010Prop55
280
     0
102
RTVSPost2010PropOp55
 70
     1
102
RTVSPost2010Prop56
140
1.0
102
RTVSPost2010PropOp56
 70
     1
102
RTVSPost2010Prop57
140
1.0
102
RTVSPost2010PropOp57
 70
     1
102
RTVSPropertyOp0
 70
     1
102
RTVSPropertyOp1
 70
     1
102
RTVSPropertyOp2
 70
     1
102
RTVSPropertyOp3
 70
     1
102
RTVSPropertyOp4
 70
     1
102
RTVSPropertyOp5
 70
     1
102
RTVSPropertyOp6
 70
     1
102
RTVSPropertyOp7
 70
     1
102
RTVSPropertyOp8
 70
     1
102
RTVSPropertyOp9
 70
     1
102
RTVSPropertyOp10
 70
     1
102
RTVSPropertyOp11
 70
     1
102
RTVSPropertyOp12
 70
     1
102
RTVSPropertyOp13
 70
     1
102
RTVSPropertyOp14
 70
     1
102
RTVSPropertyOp15
 70
     1
102
RTVSPropertyOp16
 70
     1
102
RTVSPropertyOp17
 70
     1
102
RTVSPropertyOp18
 70
     1
102
RTVSPropertyOp19
 70
     1
102
RTVSPropertyOp20
 70
     1
102
RTVSPropertyOp21
 70
     1
102
RTVSPropertyOp22
 70
     1
102
RTVSPropertyOp23
 70
     1
102
RTVSPropertyOp24
 70
     1
102
RTVSPropertyOp25
 70
     1
102
RTVSPropertyOp26
 70
     1
102
RTVSPropertyOp27
 70
     1
102
RTVSPropertyOp28
 70
     1
102
RTVSPropertyOp29
 70
     1
102
RTVSPropertyOp30
 70
     1
102
RTVSPropertyOp31
 70
     1
102
RTVSPropertyOp32
 70
     1
102
RTVSPropertyOp33
 70
     1
102
RTVSPropertyOp34
 70
     1
102
RTVSPropertyOp35
 70
     1
102
RTVSPropertyOp36
 70
     1
102
RTVSPropertyOp37
 70
     1
102
RTVSPropertyOp38
 70
     1
102
RTVSPropertyOp39
 70
     1
102
RTVSPropertyOp40
 70
     1
102
RTVSPropertyOp41
 70
     1
102
RTVSPropertyOp42
 70
     1
102
RTVSPropertyOp43
 70
     1
102
RTVSPropertyOp44
 70
     1
102
RTVSPropertyOp45
 70
     1
102
RTVSPropertyOp46
 70
     1
102
RTVSPropertyOp47
 70
     1
102
RTVSPropertyOp48
 70
     1
102
RTVSPropertyOp49
 70
     1
102
RTVSPropertyOp50
 70
     1
102
RTVSPropertyOp51
 70
     0
102
RTVSPropertyOp52
 70
     0
102
RTVSPropertyOp53
 70
     1
102
RTVSPropertyOp54
 70
     1
102
RTVSPropertyOp55
 70
     1
102
RTVSPropertyOp56
 70
     1
102
RTVSPropertyOp57
 70
     1
102
RTVSPropertyOp58
 70
     1
102
RTVSPropertyOp59
 70
     1
102
RTVSPropertyOp60
 70
     1
102
RTVSPropertyOp61
 70
     1
102
RTVSPropertyOp62
 70
     1
  0
XRECORD
  5
1080
102
{ACAD_REACTORS
330
107F
102
}
330
107F
100
AcDbXrecord
280
     1
102
RTVSPost2010Prop28
280
     0
102
RTVSPost2010PropOp28
 70
     1
102
RTVSPost2010Prop29
280
     1
102
RTVSPost2010PropOp29
 70
     1
102
RTVSPost2010Prop30
280
     1
102
RTVSPost2010PropOp30
 70
     1
102
RTVSPost2010Prop31
280
     0
102
RTVSPost2010PropOp31
 70
     1
102
RTVSPost2010Prop32
280
     0
102
RTVSPost2010PropOp32
 70
     1
102
RTVSPost2010Prop33
280
     0
102
RTVSPost2010PropOp33
 70
     1
102
RTVSPost2010Prop34
280
     0
102
RTVSPost2010PropOp34
 70
     1
102
RTVSPost2010Prop35
280
     0
102
RTVSPost2010PropOp35
 70
     1
102
RTVSPost2010Prop36
280
     0
102
RTVSPost2010PropOp36
 70
     1
102
RTVSPost2010Prop37
 90
       50
102
RTVSPost2010PropOp37
 70
     1
102
RTVSPost2010Prop38
140
0.0
102
RTVSPost2010PropOp38
 70
     1
102
RTVSPost2010Prop39
140
1.0
102
RTVSPost2010PropOp39
 70
     1
102
RTVSPost2010Prop40
 90
        0
102
RTVSPost2010PropOp40
 70
     1
102
RTVSPost2010Prop41ColorIndex
 90
       18
102
RTVSPost2010Prop41ColorRGB
 90
        0
102
RTVSPost2010PropOp41
 70
     1
102
RTVSPost2010Prop42
 90
       50
102
RTVSPost2010PropOp42
 70
     1
102
RTVSPost2010Prop43
 90
        3
102
RTVSPost2010PropOp43
 70
     1
102
RTVSPost2010Prop44ColorIndex
 90
        5
102
RTVSPost2010Prop44ColorRGB
 90
      255
102
RTVSPost2010PropOp44
 70
     1
102
RTVSPost2010Prop45
280
     0
102
RTVSPost2010PropOp45
 70
     1
102
RTVSPost2010Prop46
 90
       50
102
RTVSPost2010PropOp46
 70
     1
102
RTVSPost2010Prop47
 90
       50
102
RTVSPost2010PropOp47
 70
     1
102
RTVSPost2010Prop48
 90
       50
102
RTVSPost2010PropOp48
 70
     1
102
RTVSPost2010Prop49
280
     0
102
RTVSPost2010PropOp49
 70
     1
102
RTVSPost2010Prop50
 90
       50
102
RTVSPost2010PropOp50
 70
     1
102
RTVSPost2010Prop51ColorIndex
 90
      256
102
RTVSPost2010Prop51ColorRGB
 90
-16777216
102
RTVSPost2010PropOp51
 70
     0
102
RTVSPost2010Prop52
140
1.0
102
RTVSPost2010PropOp52
 70
     0
102
RTVSPost2010Prop53
 90
        2
102
RTVSPost2010PropOp53
 70
     1
102
RTVSPost2010Prop54
  1
strokes_ogs.tif
102
RTVSPost2010PropOp54
 70
     1
102
RTVSPost2010Prop55
280
     0
102
RTVSPost2010PropOp55
 70
     1
102
RTVSPost2010Prop56
140
1.0
102
RTVSPost2010PropOp56
 70
     1
102
RTVSPost2010Prop57
140
1.0
102
RTVSPost2010PropOp57
 70
     1
102
RTVSPropertyOp0
 70
     1
102
RTVSPropertyOp1
 70
     1
102
RTVSPropertyOp2
 70
     1
102
RTVSPropertyOp3
 70
     1
102
RTVSPropertyOp4
 70
     1
102
RTVSPropertyOp5
 70
     1
102
RTVSPropertyOp6
 70
     1
102
RTVSPropertyOp7
 70
     1
102
RTVSPropertyOp8
 70
     1
102
RTVSPropertyOp9
 70
     1
102
RTVSPropertyOp10
 70
     1
102
RTVSPropertyOp11
 70
     1
102
RTVSPropertyOp12
 70
     1
102
RTVSPropertyOp13
 70
     1
102
RTVSPropertyOp14
 70
     1
102
RTVSPropertyOp15
 70
     1
102
RTVSPropertyOp16
 70
     1
102
RTVSPropertyOp17
 70
     1
102
RTVSPropertyOp18
 70
     1
102
RTVSPropertyOp19
 70
     1
102
RTVSPropertyOp20
 70
     1
102
RTVSPropertyOp21
 70
     1
102
RTVSPropertyOp22
 70
     1
102
RTVSPropertyOp23
 70
     1
102
RTVSPropertyOp24
 70
     1
102
RTVSPropertyOp25
 70
     1
102
RTVSPropertyOp26
 70
     1
102
RTVSPropertyOp27
 70
     1
102
RTVSPropertyOp28
 70
     1
102
RTVSPropertyOp29
 70
     1
102
RTVSPropertyOp30
 70
     1
102
RTVSPropertyOp31
 70
     1
102
RTVSPropertyOp32
 70
     1
102
RTVSPropertyOp33
 70
     1
102
RTVSPropertyOp34
 70
     1
102
RTVSPropertyOp35
 70
     1
102
RTVSPropertyOp36
 70
     1
102
RTVSPropertyOp37
 70
     1
102
RTVSPropertyOp38
 70
     1
102
RTVSPropertyOp39
 70
     1
102
RTVSPropertyOp40
 70
     1
102
RTVSPropertyOp41
 70
     1
102
RTVSPropertyOp42
 70
     1
102
RTVSPropertyOp43
 70
     1
102
RTVSPropertyOp44
 70
     1
102
RTVSPropertyOp45
 70
     1
102
RTVSPropertyOp46
 70
     1
102
RTVSPropertyOp47
 70
     1
102
RTVSPropertyOp48
 70
     1
102
RTVSPropertyOp49
 70
     1
102
RTVSPropertyOp50
 70
     1
102
RTVSPropertyOp51
 70
     0
102
RTVSPropertyOp52
 70
     0
102
RTVSPropertyOp53
 70
     1
102
RTVSPropertyOp54
 70
     1
102
RTVSPropertyOp55
 70
     1
102
RTVSPropertyOp56
 70
     1
102
RTVSPropertyOp57
 70
     1
102
RTVSPropertyOp58
 70
     1
102
RTVSPropertyOp59
 70
     1
102
RTVSPropertyOp60
 70
     1
102
RTVSPropertyOp61
 70
     1
102
RTVSPropertyOp62
 70
     1
  0
XRECORD
  5
1084
102
{ACAD_REACTORS
330
1083
102
}
330
1083
100
AcDbXrecord
280
     1
102
RTVSPost2010Prop28
280
     0
102
RTVSPost2010PropOp28
 70
     1
102
RTVSPost2010Prop29
280
     1
102
RTVSPost2010PropOp29
 70
     1
102
RTVSPost2010Prop30
280
     1
102
RTVSPost2010PropOp30
 70
     1
102
RTVSPost2010Prop31
280
     0
102
RTVSPost2010PropOp31
 70
     1
102
RTVSPost2010Prop32
280
     0
102
RTVSPost2010PropOp32
 70
     1
102
RTVSPost2010Prop33
280
     0
102
RTVSPost2010PropOp33
 70
     1
102
RTVSPost2010Prop34
280
     0
102
RTVSPost2010PropOp34
 70
     1
102
RTVSPost2010Prop35
280
     0
102
RTVSPost2010PropOp35
 70
     1
102
RTVSPost2010Prop36
280
     0
102
RTVSPost2010PropOp36
 70
     1
102
RTVSPost2010Prop37
 90
       50
102
RTVSPost2010PropOp37
 70
     1
102
RTVSPost2010Prop38
140
0.0
102
RTVSPost2010PropOp38
 70
     1
102
RTVSPost2010Prop39
140
1.0
102
RTVSPost2010PropOp39
 70
     1
102
RTVSPost2010Prop40
 90
        0
102
RTVSPost2010PropOp40
 70
     1
102
RTVSPost2010Prop41ColorIndex
 90
       18
102
RTVSPost2010Prop41ColorRGB
 90
        0
102
RTVSPost2010PropOp41
 70
     1
102
RTVSPost2010Prop42
 90
       50
102
RTVSPost2010PropOp42
 70
     1
102
RTVSPost2010Prop43
 90
        3
102
RTVSPost2010PropOp43
 70
     1
102
RTVSPost2010Prop44ColorIndex
 90
        5
102
RTVSPost2010Prop44ColorRGB
 90
      255
102
RTVSPost2010PropOp44
 70
     1
102
RTVSPost2010Prop45
280
     0
102
RTVSPost2010PropOp45
 70
     1
102
RTVSPost2010Prop46
 90
       50
102
RTVSPost2010PropOp46
 70
     1
102
RTVSPost2010Prop47
 90
       50
102
RTVSPost2010PropOp47
 70
     1
102
RTVSPost2010Prop48
 90
       50
102
RTVSPost2010PropOp48
 70
     1
102
RTVSPost2010Prop49
280
     0
102
RTVSPost2010PropOp49
 70
     1
102
RTVSPost2010Prop50
 90
       50
102
RTVSPost2010PropOp50
 70
     1
102
RTVSPost2010Prop51ColorIndex
 90
      256
102
RTVSPost2010Prop51ColorRGB
 90
-16777216
102
RTVSPost2010PropOp51
 70
     0
102
RTVSPost2010Prop52
140
1.0
102
RTVSPost2010PropOp52
 70
     0
102
RTVSPost2010Prop53
 90
        2
102
RTVSPost2010PropOp53
 70
     1
102
RTVSPost2010Prop54
  1
strokes_ogs.tif
102
RTVSPost2010PropOp54
 70
     1
102
RTVSPost2010Prop55
280
     0
102
RTVSPost2010PropOp55
 70
     1
102
RTVSPost2010Prop56
140
1.0
102
RTVSPost2010PropOp56
 70
     1
102
RTVSPost2010Prop57
140
1.0
102
RTVSPost2010PropOp57
 70
     1
102
RTVSPropertyOp0
 70
     1
102
RTVSPropertyOp1
 70
     1
102
RTVSPropertyOp2
 70
     1
102
RTVSPropertyOp3
 70
     1
102
RTVSPropertyOp4
 70
     1
102
RTVSPropertyOp5
 70
     1
102
RTVSPropertyOp6
 70
     1
102
RTVSPropertyOp7
 70
     1
102
RTVSPropertyOp8
 70
     1
102
RTVSPropertyOp9
 70
     1
102
RTVSPropertyOp10
 70
     1
102
RTVSPropertyOp11
 70
     1
102
RTVSPropertyOp12
 70
     1
102
RTVSPropertyOp13
 70
     1
102
RTVSPropertyOp14
 70
     1
102
RTVSPropertyOp15
 70
     1
102
RTVSPropertyOp16
 70
     1
102
RTVSPropertyOp17
 70
     1
102
RTVSPropertyOp18
 70
     1
102
RTVSPropertyOp19
 70
     1
102
RTVSPropertyOp20
 70
     1
102
RTVSPropertyOp21
 70
     1
102
RTVSPropertyOp22
 70
     1
102
RTVSPropertyOp23
 70
     1
102
RTVSPropertyOp24
 70
     1
102
RTVSPropertyOp25
 70
     1
102
RTVSPropertyOp26
 70
     1
102
RTVSPropertyOp27
 70
     1
102
RTVSPropertyOp28
 70
     1
102
RTVSPropertyOp29
 70
     1
102
RTVSPropertyOp30
 70
     1
102
RTVSPropertyOp31
 70
     1
102
RTVSPropertyOp32
 70
     1
102
RTVSPropertyOp33
 70
     1
102
RTVSPropertyOp34
 70
     1
102
RTVSPropertyOp35
 70
     1
102
RTVSPropertyOp36
 70
     1
102
RTVSPropertyOp37
 70
     1
102
RTVSPropertyOp38
 70
     1
102
RTVSPropertyOp39
 70
     1
102
RTVSPropertyOp40
 70
     1
102
RTVSPropertyOp41
 70
     1
102
RTVSPropertyOp42
 70
     1
102
RTVSPropertyOp43
 70
     1
102
RTVSPropertyOp44
 70
     1
102
RTVSPropertyOp45
 70
     1
102
RTVSPropertyOp46
 70
     1
102
RTVSPropertyOp47
 70
     1
102
RTVSPropertyOp48
 70
     1
102
RTVSPropertyOp49
 70
     1
102
RTVSPropertyOp50
 70
     1
102
RTVSPropertyOp51
 70
     0
102
RTVSPropertyOp52
 70
     0
102
RTVSPropertyOp53
 70
     1
102
RTVSPropertyOp54
 70
     1
102
RTVSPropertyOp55
 70
     1
102
RTVSPropertyOp56
 70
     1
102
RTVSPropertyOp57
 70
     1
102
RTVSPropertyOp58
 70
     1
102
RTVSPropertyOp59
 70
     1
102
RTVSPropertyOp60
 70
     1
102
RTVSPropertyOp61
 70
     1
102
RTVSPropertyOp62
 70
     1
  0
XRECORD
  5
109E
102
{ACAD_REACTORS
330
109D
102
}
330
109D
100
AcDbXrecord
280
     1
102
RTVSPost2010Prop28
280
     0
102
RTVSPost2010PropOp28
 70
     0
102
RTVSPost2010Prop29
280
     1
102
RTVSPost2010PropOp29
 70
     0
102
RTVSPost2010Prop30
280
     1
102
RTVSPost2010PropOp30
 70
     0
102
RTVSPost2010Prop31
280
     0
102
RTVSPost2010PropOp31
 70
     0
102
RTVSPost2010Prop32
280
     0
102
RTVSPost2010PropOp32
 70
     0
102
RTVSPost2010Prop33
280
     0
102
RTVSPost2010PropOp33
 70
     0
102
RTVSPost2010Prop34
280
     0
102
RTVSPost2010PropOp34
 70
     0
102
RTVSPost2010Prop35
280
     0
102
RTVSPost2010PropOp35
 70
     0
102
RTVSPost2010Prop36
280
     0
102
RTVSPost2010PropOp36
 70
     0
102
RTVSPost2010Prop37
 90
       50
102
RTVSPost2010PropOp37
 70
     0
102
RTVSPost2010Prop38
140
0.0
102
RTVSPost2010PropOp38
 70
     0
102
RTVSPost2010Prop39
140
1.0
102
RTVSPost2010PropOp39
 70
     0
102
RTVSPost2010Prop40
 90
        0
102
RTVSPost2010PropOp40
 70
     0
102
RTVSPost2010Prop41ColorIndex
 90
       18
102
RTVSPost2010Prop41ColorRGB
 90
        0
102
RTVSPost2010PropOp41
 70
     0
102
RTVSPost2010Prop42
 90
       50
102
RTVSPost2010PropOp42
 70
     0
102
RTVSPost2010Prop43
 90
        3
102
RTVSPost2010PropOp43
 70
     0
102
RTVSPost2010Prop44ColorIndex
 90
        5
102
RTVSPost2010Prop44ColorRGB
 90
      255
102
RTVSPost2010PropOp44
 70
     0
102
RTVSPost2010Prop45
280
     0
102
RTVSPost2010PropOp45
 70
     0
102
RTVSPost2010Prop46
 90
       50
102
RTVSPost2010PropOp46
 70
     0
102
RTVSPost2010Prop47
 90
       50
102
RTVSPost2010PropOp47
 70
     0
102
RTVSPost2010Prop48
 90
       50
102
RTVSPost2010PropOp48
 70
     0
102
RTVSPost2010Prop49
280
     0
102
RTVSPost2010PropOp49
 70
     0
102
RTVSPost2010Prop50
 90
       50
102
RTVSPost2010PropOp50
 70
     0
102
RTVSPost2010Prop51ColorIndex
 90
      256
102
RTVSPost2010Prop51ColorRGB
 90
-16777216
102
RTVSPost2010PropOp51
 70
     0
102
RTVSPost2010Prop52
140
1.0
102
RTVSPost2010PropOp52
 70
     0
102
RTVSPost2010Prop53
 90
        2
102
RTVSPost2010PropOp53
 70
     0
102
RTVSPost2010Prop54
  1
strokes_ogs.tif
102
RTVSPost2010PropOp54
 70
     0
102
RTVSPost2010Prop55
280
     0
102
RTVSPost2010PropOp55
 70
     0
102
RTVSPost2010Prop56
140
1.0
102
RTVSPost2010PropOp56
 70
     0
102
RTVSPost2010Prop57
140
1.0
102
RTVSPost2010PropOp57
 70
     0
102
RTVSPropertyOp0
 70
     0
102
RTVSPropertyOp1
 70
     0
102
RTVSPropertyOp2
 70
     0
102
RTVSPropertyOp3
 70
     0
102
RTVSPropertyOp4
 70
     0
102
RTVSPropertyOp5
 70
     0
102
RTVSPropertyOp6
 70
     0
102
RTVSPropertyOp7
 70
     0
102
RTVSPropertyOp8
 70
     0
102
RTVSPropertyOp9
 70
     0
102
RTVSPropertyOp10
 70
     0
102
RTVSPropertyOp11
 70
     0
102
RTVSPropertyOp12
 70
     0
102
RTVSPropertyOp13
 70
     0
102
RTVSPropertyOp14
 70
     2
102
RTVSPropertyOp15
 70
     0
102
RTVSPropertyOp16
 70
     0
102
RTVSPropertyOp17
 70
     0
102
RTVSPropertyOp18
 70
     0
102
RTVSPropertyOp19
 70
     0
102
RTVSPropertyOp20
 70
     0
102
RTVSPropertyOp21
 70
     0
102
RTVSPropertyOp22
 70
     0
102
RTVSPropertyOp23
 70
     0
102
RTVSPropertyOp24
 70
     0
102
RTVSPropertyOp25
 70
     0
102
RTVSPropertyOp26
 70
     0
102
RTVSPropertyOp27
 70
     0
102
RTVSPropertyOp28
 70
     0
102
RTVSPropertyOp29
 70
     0
102
RTVSPropertyOp30
 70
     0
102
RTVSPropertyOp31
 70
     0
102
RTVSPropertyOp32
 70
     0
102
RTVSPropertyOp33
 70
     0
102
RTVSPropertyOp34
 70
     0
102
RTVSPropertyOp35
 70
     0
102
RTVSPropertyOp36
 70
     0
102
RTVSPropertyOp37
 70
     0
102
RTVSPropertyOp38
 70
     0
102
RTVSPropertyOp39
 70
     0
102
RTVSPropertyOp40
 70
     0
102
RTVSPropertyOp41
 70
     0
102
RTVSPropertyOp42
 70
     0
102
RTVSPropertyOp43
 70
     0
102
RTVSPropertyOp44
 70
     0
102
RTVSPropertyOp45
 70
     0
102
RTVSPropertyOp46
 70
     0
102
RTVSPropertyOp47
 70
     0
102
RTVSPropertyOp48
 70
     0
102
RTVSPropertyOp49
 70
     0
102
RTVSPropertyOp50
 70
     0
102
RTVSPropertyOp51
 70
     0
102
RTVSPropertyOp52
 70
     0
102
RTVSPropertyOp53
 70
     0
102
RTVSPropertyOp54
 70
     0
102
RTVSPropertyOp55
 70
     0
102
RTVSPropertyOp56
 70
     0
102
RTVSPropertyOp57
 70
     0
102
RTVSPropertyOp58
 70
     0
102
RTVSPropertyOp59
 70
     0
102
RTVSPropertyOp60
 70
     0
102
RTVSPropertyOp61
 70
     0
102
RTVSPropertyOp62
 70
     0
  0
XRECORD
  5
108C
102
{ACAD_REACTORS
330
108B
102
}
330
108B
100
AcDbXrecord
280
     1
102
RTVSPost2010Prop28
280
     0
102
RTVSPost2010PropOp28
 70
     1
102
RTVSPost2010Prop29
280
     1
102
RTVSPost2010PropOp29
 70
     1
102
RTVSPost2010Prop30
280
     1
102
RTVSPost2010PropOp30
 70
     1
102
RTVSPost2010Prop31
280
     0
102
RTVSPost2010PropOp31
 70
     1
102
RTVSPost2010Prop32
280
     0
102
RTVSPost2010PropOp32
 70
     1
102
RTVSPost2010Prop33
280
     0
102
RTVSPost2010PropOp33
 70
     1
102
RTVSPost2010Prop34
280
     0
102
RTVSPost2010PropOp34
 70
     1
102
RTVSPost2010Prop35
280
     0
102
RTVSPost2010PropOp35
 70
     1
102
RTVSPost2010Prop36
280
     0
102
RTVSPost2010PropOp36
 70
     1
102
RTVSPost2010Prop37
 90
       50
102
RTVSPost2010PropOp37
 70
     1
102
RTVSPost2010Prop38
140
0.0
102
RTVSPost2010PropOp38
 70
     1
102
RTVSPost2010Prop39
140
1.0
102
RTVSPost2010PropOp39
 70
     1
102
RTVSPost2010Prop40
 90
        0
102
RTVSPost2010PropOp40
 70
     1
102
RTVSPost2010Prop41ColorIndex
 90
       18
102
RTVSPost2010Prop41ColorRGB
 90
        0
102
RTVSPost2010PropOp41
 70
     1
102
RTVSPost2010Prop42
 90
       50
102
RTVSPost2010PropOp42
 70
     1
102
RTVSPost2010Prop43
 90
        3
102
RTVSPost2010PropOp43
 70
     1
102
RTVSPost2010Prop44ColorIndex
 90
        5
102
RTVSPost2010Prop44ColorRGB
 90
      255
102
RTVSPost2010PropOp44
 70
     1
102
RTVSPost2010Prop45
280
     0
102
RTVSPost2010PropOp45
 70
     1
102
RTVSPost2010Prop46
 90
       50
102
RTVSPost2010PropOp46
 70
     1
102
RTVSPost2010Prop47
 90
       50
102
RTVSPost2010PropOp47
 70
     1
102
RTVSPost2010Prop48
 90
       50
102
RTVSPost2010PropOp48
 70
     1
102
RTVSPost2010Prop49
280
     0
102
RTVSPost2010PropOp49
 70
     1
102
RTVSPost2010Prop50
 90
       50
102
RTVSPost2010PropOp50
 70
     1
102
RTVSPost2010Prop51ColorIndex
 90
      256
102
RTVSPost2010Prop51ColorRGB
 90
-16777216
102
RTVSPost2010PropOp51
 70
     0
102
RTVSPost2010Prop52
140
1.0
102
RTVSPost2010PropOp52
 70
     0
102
RTVSPost2010Prop53
 90
        2
102
RTVSPost2010PropOp53
 70
     1
102
RTVSPost2010Prop54
  1
strokes_ogs.tif
102
RTVSPost2010PropOp54
 70
     1
102
RTVSPost2010Prop55
280
     0
102
RTVSPost2010PropOp55
 70
     1
102
RTVSPost2010Prop56
140
1.0
102
RTVSPost2010PropOp56
 70
     1
102
RTVSPost2010Prop57
140
1.0
102
RTVSPost2010PropOp57
 70
     1
102
RTVSPropertyOp0
 70
     1
102
RTVSPropertyOp1
 70
     1
102
RTVSPropertyOp2
 70
     1
102
RTVSPropertyOp3
 70
     1
102
RTVSPropertyOp4
 70
     1
102
RTVSPropertyOp5
 70
     1
102
RTVSPropertyOp6
 70
     1
102
RTVSPropertyOp7
 70
     1
102
RTVSPropertyOp8
 70
     1
102
RTVSPropertyOp9
 70
     1
102
RTVSPropertyOp10
 70
     1
102
RTVSPropertyOp11
 70
     1
102
RTVSPropertyOp12
 70
     1
102
RTVSPropertyOp13
 70
     1
102
RTVSPropertyOp14
 70
     1
102
RTVSPropertyOp15
 70
     1
102
RTVSPropertyOp16
 70
     1
102
RTVSPropertyOp17
 70
     1
102
RTVSPropertyOp18
 70
     1
102
RTVSPropertyOp19
 70
     1
102
RTVSPropertyOp20
 70
     1
102
RTVSPropertyOp21
 70
     1
102
RTVSPropertyOp22
 70
     1
102
RTVSPropertyOp23
 70
     1
102
RTVSPropertyOp24
 70
     1
102
RTVSPropertyOp25
 70
     1
102
RTVSPropertyOp26
 70
     1
102
RTVSPropertyOp27
 70
     1
102
RTVSPropertyOp28
 70
     1
102
RTVSPropertyOp29
 70
     1
102
RTVSPropertyOp30
 70
     1
102
RTVSPropertyOp31
 70
     1
102
RTVSPropertyOp32
 70
     1
102
RTVSPropertyOp33
 70
     1
102
RTVSPropertyOp34
 70
     1
102
RTVSPropertyOp35
 70
     1
102
RTVSPropertyOp36
 70
     1
102
RTVSPropertyOp37
 70
     1
102
RTVSPropertyOp38
 70
     1
102
RTVSPropertyOp39
 70
     1
102
RTVSPropertyOp40
 70
     1
102
RTVSPropertyOp41
 70
     1
102
RTVSPropertyOp42
 70
     1
102
RTVSPropertyOp43
 70
     1
102
RTVSPropertyOp44
 70
     1
102
RTVSPropertyOp45
 70
     1
102
RTVSPropertyOp46
 70
     1
102
RTVSPropertyOp47
 70
     1
102
RTVSPropertyOp48
 70
     1
102
RTVSPropertyOp49
 70
     1
102
RTVSPropertyOp50
 70
     1
102
RTVSPropertyOp51
 70
     0
102
RTVSPropertyOp52
 70
     0
102
RTVSPropertyOp53
 70
     1
102
RTVSPropertyOp54
 70
     1
102
RTVSPropertyOp55
 70
     1
102
RTVSPropertyOp56
 70
     1
102
RTVSPropertyOp57
 70
     1
102
RTVSPropertyOp58
 70
     1
102
RTVSPropertyOp59
 70
     1
102
RTVSPropertyOp60
 70
     1
102
RTVSPropertyOp61
 70
     1
102
RTVSPropertyOp62
 70
     1
  0
XRECORD
  5
1070
102
{ACAD_REACTORS
330
106F
102
}
330
106F
100
AcDbXrecord
280
     1
102
RTVSPost2010Prop28
280
     0
102
RTVSPost2010PropOp28
 70
     1
102
RTVSPost2010Prop29
280
     1
102
RTVSPost2010PropOp29
 70
     1
102
RTVSPost2010Prop30
280
     1
102
RTVSPost2010PropOp30
 70
     1
102
RTVSPost2010Prop31
280
     0
102
RTVSPost2010PropOp31
 70
     1
102
RTVSPost2010Prop32
280
     0
102
RTVSPost2010PropOp32
 70
     1
102
RTVSPost2010Prop33
280
     0
102
RTVSPost2010PropOp33
 70
     1
102
RTVSPost2010Prop34
280
     0
102
RTVSPost2010PropOp34
 70
     1
102
RTVSPost2010Prop35
280
     0
102
RTVSPost2010PropOp35
 70
     1
102
RTVSPost2010Prop36
280
     0
102
RTVSPost2010PropOp36
 70
     1
102
RTVSPost2010Prop37
 90
       50
102
RTVSPost2010PropOp37
 70
     1
102
RTVSPost2010Prop38
140
0.0
102
RTVSPost2010PropOp38
 70
     1
102
RTVSPost2010Prop39
140
1.0
102
RTVSPost2010PropOp39
 70
     1
102
RTVSPost2010Prop40
 90
        0
102
RTVSPost2010PropOp40
 70
     1
102
RTVSPost2010Prop41ColorIndex
 90
       18
102
RTVSPost2010Prop41ColorRGB
 90
        0
102
RTVSPost2010PropOp41
 70
     1
102
RTVSPost2010Prop42
 90
       50
102
RTVSPost2010PropOp42
 70
     1
102
RTVSPost2010Prop43
 90
        3
102
RTVSPost2010PropOp43
 70
     1
102
RTVSPost2010Prop44ColorIndex
 90
        5
102
RTVSPost2010Prop44ColorRGB
 90
      255
102
RTVSPost2010PropOp44
 70
     1
102
RTVSPost2010Prop45
280
     0
102
RTVSPost2010PropOp45
 70
     1
102
RTVSPost2010Prop46
 90
       50
102
RTVSPost2010PropOp46
 70
     1
102
RTVSPost2010Prop47
 90
       50
102
RTVSPost2010PropOp47
 70
     1
102
RTVSPost2010Prop48
 90
       50
102
RTVSPost2010PropOp48
 70
     1
102
RTVSPost2010Prop49
280
     0
102
RTVSPost2010PropOp49
 70
     1
102
RTVSPost2010Prop50
 90
       50
102
RTVSPost2010PropOp50
 70
     1
102
RTVSPost2010Prop51ColorIndex
 90
      256
102
RTVSPost2010Prop51ColorRGB
 90
-16777216
102
RTVSPost2010PropOp51
 70
     0
102
RTVSPost2010Prop52
140
1.0
102
RTVSPost2010PropOp52
 70
     0
102
RTVSPost2010Prop53
 90
        2
102
RTVSPost2010PropOp53
 70
     1
102
RTVSPost2010Prop54
  1
strokes_ogs.tif
102
RTVSPost2010PropOp54
 70
     1
102
RTVSPost2010Prop55
280
     0
102
RTVSPost2010PropOp55
 70
     1
102
RTVSPost2010Prop56
140
1.0
102
RTVSPost2010PropOp56
 70
     1
102
RTVSPost2010Prop57
140
1.0
102
RTVSPost2010PropOp57
 70
     1
102
RTVSPropertyOp0
 70
     1
102
RTVSPropertyOp1
 70
     1
102
RTVSPropertyOp2
 70
     1
102
RTVSPropertyOp3
 70
     1
102
RTVSPropertyOp4
 70
     1
102
RTVSPropertyOp5
 70
     1
102
RTVSPropertyOp6
 70
     1
102
RTVSPropertyOp7
 70
     1
102
RTVSPropertyOp8
 70
     1
102
RTVSPropertyOp9
 70
     1
102
RTVSPropertyOp10
 70
     1
102
RTVSPropertyOp11
 70
     1
102
RTVSPropertyOp12
 70
     1
102
RTVSPropertyOp13
 70
     1
102
RTVSPropertyOp14
 70
     1
102
RTVSPropertyOp15
 70
     1
102
RTVSPropertyOp16
 70
     1
102
RTVSPropertyOp17
 70
     1
102
RTVSPropertyOp18
 70
     1
102
RTVSPropertyOp19
 70
     1
102
RTVSPropertyOp20
 70
     1
102
RTVSPropertyOp21
 70
     1
102
RTVSPropertyOp22
 70
     1
102
RTVSPropertyOp23
 70
     1
102
RTVSPropertyOp24
 70
     1
102
RTVSPropertyOp25
 70
     1
102
RTVSPropertyOp26
 70
     1
102
RTVSPropertyOp27
 70
     1
102
RTVSPropertyOp28
 70
     1
102
RTVSPropertyOp29
 70
     1
102
RTVSPropertyOp30
 70
     1
102
RTVSPropertyOp31
 70
     1
102
RTVSPropertyOp32
 70
     1
102
RTVSPropertyOp33
 70
     1
102
RTVSPropertyOp34
 70
     1
102
RTVSPropertyOp35
 70
     1
102
RTVSPropertyOp36
 70
     1
102
RTVSPropertyOp37
 70
     1
102
RTVSPropertyOp38
 70
     1
102
RTVSPropertyOp39
 70
     1
102
RTVSPropertyOp40
 70
     1
102
RTVSPropertyOp41
 70
     1
102
RTVSPropertyOp42
 70
     1
102
RTVSPropertyOp43
 70
     1
102
RTVSPropertyOp44
 70
     1
102
RTVSPropertyOp45
 70
     1
102
RTVSPropertyOp46
 70
     1
102
RTVSPropertyOp47
 70
     1
102
RTVSPropertyOp48
 70
     1
102
RTVSPropertyOp49
 70
     1
102
RTVSPropertyOp50
 70
     1
102
RTVSPropertyOp51
 70
     0
102
RTVSPropertyOp52
 70
     0
102
RTVSPropertyOp53
 70
     1
102
RTVSPropertyOp54
 70
     1
102
RTVSPropertyOp55
 70
     1
102
RTVSPropertyOp56
 70
     1
102
RTVSPropertyOp57
 70
     1
102
RTVSPropertyOp58
 70
     1
102
RTVSPropertyOp59
 70
     1
102
RTVSPropertyOp60
 70
     1
102
RTVSPropertyOp61
 70
     1
102
RTVSPropertyOp62
 70
     1
  0
XRECORD
  5
1072
102
{ACAD_REACTORS
330
1071
102
}
330
1071
100
AcDbXrecord
280
     1
102
RTVSPost2010Prop28
280
     0
102
RTVSPost2010PropOp28
 70
     1
102
RTVSPost2010Prop29
280
     1
102
RTVSPost2010PropOp29
 70
     1
102
RTVSPost2010Prop30
280
     1
102
RTVSPost2010PropOp30
 70
     1
102
RTVSPost2010Prop31
280
     0
102
RTVSPost2010PropOp31
 70
     1
102
RTVSPost2010Prop32
280
     0
102
RTVSPost2010PropOp32
 70
     1
102
RTVSPost2010Prop33
280
     0
102
RTVSPost2010PropOp33
 70
     1
102
RTVSPost2010Prop34
280
     0
102
RTVSPost2010PropOp34
 70
     1
102
RTVSPost2010Prop35
280
     0
102
RTVSPost2010PropOp35
 70
     1
102
RTVSPost2010Prop36
280
     0
102
RTVSPost2010PropOp36
 70
     1
102
RTVSPost2010Prop37
 90
       50
102
RTVSPost2010PropOp37
 70
     1
102
RTVSPost2010Prop38
140
0.0
102
RTVSPost2010PropOp38
 70
     1
102
RTVSPost2010Prop39
140
1.0
102
RTVSPost2010PropOp39
 70
     1
102
RTVSPost2010Prop40
 90
        0
102
RTVSPost2010PropOp40
 70
     1
102
RTVSPost2010Prop41ColorIndex
 90
       18
102
RTVSPost2010Prop41ColorRGB
 90
        0
102
RTVSPost2010PropOp41
 70
     1
102
RTVSPost2010Prop42
 90
       50
102
RTVSPost2010PropOp42
 70
     1
102
RTVSPost2010Prop43
 90
        3
102
RTVSPost2010PropOp43
 70
     1
102
RTVSPost2010Prop44ColorIndex
 90
        5
102
RTVSPost2010Prop44ColorRGB
 90
      255
102
RTVSPost2010PropOp44
 70
     1
102
RTVSPost2010Prop45
280
     0
102
RTVSPost2010PropOp45
 70
     1
102
RTVSPost2010Prop46
 90
       50
102
RTVSPost2010PropOp46
 70
     1
102
RTVSPost2010Prop47
 90
       50
102
RTVSPost2010PropOp47
 70
     1
102
RTVSPost2010Prop48
 90
       50
102
RTVSPost2010PropOp48
 70
     1
102
RTVSPost2010Prop49
280
     0
102
RTVSPost2010PropOp49
 70
     1
102
RTVSPost2010Prop50
 90
       50
102
RTVSPost2010PropOp50
 70
     1
102
RTVSPost2010Prop51ColorIndex
 90
      256
102
RTVSPost2010Prop51ColorRGB
 90
-16777216
102
RTVSPost2010PropOp51
 70
     0
102
RTVSPost2010Prop52
140
1.0
102
RTVSPost2010PropOp52
 70
     0
102
RTVSPost2010Prop53
 90
        2
102
RTVSPost2010PropOp53
 70
     1
102
RTVSPost2010Prop54
  1
strokes_ogs.tif
102
RTVSPost2010PropOp54
 70
     1
102
RTVSPost2010Prop55
280
     0
102
RTVSPost2010PropOp55
 70
     1
102
RTVSPost2010Prop56
140
1.0
102
RTVSPost2010PropOp56
 70
     1
102
RTVSPost2010Prop57
140
1.0
102
RTVSPost2010PropOp57
 70
     1
102
RTVSPropertyOp0
 70
     1
102
RTVSPropertyOp1
 70
     1
102
RTVSPropertyOp2
 70
     1
102
RTVSPropertyOp3
 70
     1
102
RTVSPropertyOp4
 70
     1
102
RTVSPropertyOp5
 70
     1
102
RTVSPropertyOp6
 70
     1
102
RTVSPropertyOp7
 70
     1
102
RTVSPropertyOp8
 70
     1
102
RTVSPropertyOp9
 70
     1
102
RTVSPropertyOp10
 70
     1
102
RTVSPropertyOp11
 70
     1
102
RTVSPropertyOp12
 70
     1
102
RTVSPropertyOp13
 70
     1
102
RTVSPropertyOp14
 70
     1
102
RTVSPropertyOp15
 70
     1
102
RTVSPropertyOp16
 70
     1
102
RTVSPropertyOp17
 70
     1
102
RTVSPropertyOp18
 70
     1
102
RTVSPropertyOp19
 70
     1
102
RTVSPropertyOp20
 70
     1
102
RTVSPropertyOp21
 70
     1
102
RTVSPropertyOp22
 70
     1
102
RTVSPropertyOp23
 70
     1
102
RTVSPropertyOp24
 70
     1
102
RTVSPropertyOp25
 70
     1
102
RTVSPropertyOp26
 70
     1
102
RTVSPropertyOp27
 70
     1
102
RTVSPropertyOp28
 70
     1
102
RTVSPropertyOp29
 70
     1
102
RTVSPropertyOp30
 70
     1
102
RTVSPropertyOp31
 70
     1
102
RTVSPropertyOp32
 70
     1
102
RTVSPropertyOp33
 70
     1
102
RTVSPropertyOp34
 70
     1
102
RTVSPropertyOp35
 70
     1
102
RTVSPropertyOp36
 70
     1
102
RTVSPropertyOp37
 70
     1
102
RTVSPropertyOp38
 70
     1
102
RTVSPropertyOp39
 70
     1
102
RTVSPropertyOp40
 70
     1
102
RTVSPropertyOp41
 70
     1
102
RTVSPropertyOp42
 70
     1
102
RTVSPropertyOp43
 70
     1
102
RTVSPropertyOp44
 70
     1
102
RTVSPropertyOp45
 70
     1
102
RTVSPropertyOp46
 70
     1
102
RTVSPropertyOp47
 70
     1
102
RTVSPropertyOp48
 70
     1
102
RTVSPropertyOp49
 70
     1
102
RTVSPropertyOp50
 70
     1
102
RTVSPropertyOp51
 70
     0
102
RTVSPropertyOp52
 70
     0
102
RTVSPropertyOp53
 70
     1
102
RTVSPropertyOp54
 70
     1
102
RTVSPropertyOp55
 70
     1
102
RTVSPropertyOp56
 70
     1
102
RTVSPropertyOp57
 70
     1
102
RTVSPropertyOp58
 70
     1
102
RTVSPropertyOp59
 70
     1
102
RTVSPropertyOp60
 70
     1
102
RTVSPropertyOp61
 70
     1
102
RTVSPropertyOp62
 70
     1
  0
XRECORD
  5
1074
102
{ACAD_REACTORS
330
1073
102
}
330
1073
100
AcDbXrecord
280
     1
102
RTVSPost2010Prop28
280
     0
102
RTVSPost2010PropOp28
 70
     1
102
RTVSPost2010Prop29
280
     1
102
RTVSPost2010PropOp29
 70
     1
102
RTVSPost2010Prop30
280
     1
102
RTVSPost2010PropOp30
 70
     1
102
RTVSPost2010Prop31
280
     0
102
RTVSPost2010PropOp31
 70
     1
102
RTVSPost2010Prop32
280
     0
102
RTVSPost2010PropOp32
 70
     1
102
RTVSPost2010Prop33
280
     0
102
RTVSPost2010PropOp33
 70
     1
102
RTVSPost2010Prop34
280
     0
102
RTVSPost2010PropOp34
 70
     1
102
RTVSPost2010Prop35
280
     0
102
RTVSPost2010PropOp35
 70
     1
102
RTVSPost2010Prop36
280
     0
102
RTVSPost2010PropOp36
 70
     1
102
RTVSPost2010Prop37
 90
       50
102
RTVSPost2010PropOp37
 70
     1
102
RTVSPost2010Prop38
140
0.0
102
RTVSPost2010PropOp38
 70
     1
102
RTVSPost2010Prop39
140
1.0
102
RTVSPost2010PropOp39
 70
     1
102
RTVSPost2010Prop40
 90
        0
102
RTVSPost2010PropOp40
 70
     1
102
RTVSPost2010Prop41ColorIndex
 90
       18
102
RTVSPost2010Prop41ColorRGB
 90
        0
102
RTVSPost2010PropOp41
 70
     1
102
RTVSPost2010Prop42
 90
       50
102
RTVSPost2010PropOp42
 70
     1
102
RTVSPost2010Prop43
 90
        3
102
RTVSPost2010PropOp43
 70
     1
102
RTVSPost2010Prop44ColorIndex
 90
        5
102
RTVSPost2010Prop44ColorRGB
 90
      255
102
RTVSPost2010PropOp44
 70
     1
102
RTVSPost2010Prop45
280
     0
102
RTVSPost2010PropOp45
 70
     1
102
RTVSPost2010Prop46
 90
       50
102
RTVSPost2010PropOp46
 70
     1
102
RTVSPost2010Prop47
 90
       50
102
RTVSPost2010PropOp47
 70
     1
102
RTVSPost2010Prop48
 90
       50
102
RTVSPost2010PropOp48
 70
     1
102
RTVSPost2010Prop49
280
     0
102
RTVSPost2010PropOp49
 70
     1
102
RTVSPost2010Prop50
 90
       50
102
RTVSPost2010PropOp50
 70
     1
102
RTVSPost2010Prop51ColorIndex
 90
      256
102
RTVSPost2010Prop51ColorRGB
 90
-16777216
102
RTVSPost2010PropOp51
 70
     0
102
RTVSPost2010Prop52
140
1.0
102
RTVSPost2010PropOp52
 70
     0
102
RTVSPost2010Prop53
 90
        2
102
RTVSPost2010PropOp53
 70
     1
102
RTVSPost2010Prop54
  1
strokes_ogs.tif
102
RTVSPost2010PropOp54
 70
     1
102
RTVSPost2010Prop55
280
     0
102
RTVSPost2010PropOp55
 70
     1
102
RTVSPost2010Prop56
140
1.0
102
RTVSPost2010PropOp56
 70
     1
102
RTVSPost2010Prop57
140
1.0
102
RTVSPost2010PropOp57
 70
     1
102
RTVSPropertyOp0
 70
     1
102
RTVSPropertyOp1
 70
     1
102
RTVSPropertyOp2
 70
     1
102
RTVSPropertyOp3
 70
     1
102
RTVSPropertyOp4
 70
     1
102
RTVSPropertyOp5
 70
     1
102
RTVSPropertyOp6
 70
     1
102
RTVSPropertyOp7
 70
     1
102
RTVSPropertyOp8
 70
     1
102
RTVSPropertyOp9
 70
     1
102
RTVSPropertyOp10
 70
     1
102
RTVSPropertyOp11
 70
     1
102
RTVSPropertyOp12
 70
     1
102
RTVSPropertyOp13
 70
     1
102
RTVSPropertyOp14
 70
     1
102
RTVSPropertyOp15
 70
     1
102
RTVSPropertyOp16
 70
     1
102
RTVSPropertyOp17
 70
     1
102
RTVSPropertyOp18
 70
     1
102
RTVSPropertyOp19
 70
     1
102
RTVSPropertyOp20
 70
     1
102
RTVSPropertyOp21
 70
     1
102
RTVSPropertyOp22
 70
     1
102
RTVSPropertyOp23
 70
     1
102
RTVSPropertyOp24
 70
     1
102
RTVSPropertyOp25
 70
     1
102
RTVSPropertyOp26
 70
     1
102
RTVSPropertyOp27
 70
     1
102
RTVSPropertyOp28
 70
     1
102
RTVSPropertyOp29
 70
     1
102
RTVSPropertyOp30
 70
     1
102
RTVSPropertyOp31
 70
     1
102
RTVSPropertyOp32
 70
     1
102
RTVSPropertyOp33
 70
     1
102
RTVSPropertyOp34
 70
     1
102
RTVSPropertyOp35
 70
     1
102
RTVSPropertyOp36
 70
     1
102
RTVSPropertyOp37
 70
     1
102
RTVSPropertyOp38
 70
     1
102
RTVSPropertyOp39
 70
     1
102
RTVSPropertyOp40
 70
     1
102
RTVSPropertyOp41
 70
     1
102
RTVSPropertyOp42
 70
     1
102
RTVSPropertyOp43
 70
     1
102
RTVSPropertyOp44
 70
     1
102
RTVSPropertyOp45
 70
     1
102
RTVSPropertyOp46
 70
     1
102
RTVSPropertyOp47
 70
     1
102
RTVSPropertyOp48
 70
     1
102
RTVSPropertyOp49
 70
     1
102
RTVSPropertyOp50
 70
     1
102
RTVSPropertyOp51
 70
     0
102
RTVSPropertyOp52
 70
     0
102
RTVSPropertyOp53
 70
     1
102
RTVSPropertyOp54
 70
     1
102
RTVSPropertyOp55
 70
     1
102
RTVSPropertyOp56
 70
     1
102
RTVSPropertyOp57
 70
     1
102
RTVSPropertyOp58
 70
     1
102
RTVSPropertyOp59
 70
     1
102
RTVSPropertyOp60
 70
     1
102
RTVSPropertyOp61
 70
     1
102
RTVSPropertyOp62
 70
     1
  0
XRECORD
  5
1076
102
{ACAD_REACTORS
330
1075
102
}
330
1075
100
AcDbXrecord
280
     1
102
RTVSPost2010Prop28
280
     0
102
RTVSPost2010PropOp28
 70
     1
102
RTVSPost2010Prop29
280
     1
102
RTVSPost2010PropOp29
 70
     1
102
RTVSPost2010Prop30
280
     1
102
RTVSPost2010PropOp30
 70
     1
102
RTVSPost2010Prop31
280
     0
102
RTVSPost2010PropOp31
 70
     1
102
RTVSPost2010Prop32
280
     0
102
RTVSPost2010PropOp32
 70
     1
102
RTVSPost2010Prop33
280
     0
102
RTVSPost2010PropOp33
 70
     1
102
RTVSPost2010Prop34
280
     0
102
RTVSPost2010PropOp34
 70
     1
102
RTVSPost2010Prop35
280
     0
102
RTVSPost2010PropOp35
 70
     1
102
RTVSPost2010Prop36
280
     0
102
RTVSPost2010PropOp36
 70
     1
102
RTVSPost2010Prop37
 90
       50
102
RTVSPost2010PropOp37
 70
     1
102
RTVSPost2010Prop38
140
0.0
102
RTVSPost2010PropOp38
 70
     1
102
RTVSPost2010Prop39
140
1.0
102
RTVSPost2010PropOp39
 70
     1
102
RTVSPost2010Prop40
 90
        0
102
RTVSPost2010PropOp40
 70
     1
102
RTVSPost2010Prop41ColorIndex
 90
       18
102
RTVSPost2010Prop41ColorRGB
 90
        0
102
RTVSPost2010PropOp41
 70
     1
102
RTVSPost2010Prop42
 90
       50
102
RTVSPost2010PropOp42
 70
     1
102
RTVSPost2010Prop43
 90
        3
102
RTVSPost2010PropOp43
 70
     1
102
RTVSPost2010Prop44ColorIndex
 90
        5
102
RTVSPost2010Prop44ColorRGB
 90
      255
102
RTVSPost2010PropOp44
 70
     1
102
RTVSPost2010Prop45
280
     0
102
RTVSPost2010PropOp45
 70
     1
102
RTVSPost2010Prop46
 90
       50
102
RTVSPost2010PropOp46
 70
     1
102
RTVSPost2010Prop47
 90
       50
102
RTVSPost2010PropOp47
 70
     1
102
RTVSPost2010Prop48
 90
       50
102
RTVSPost2010PropOp48
 70
     1
102
RTVSPost2010Prop49
280
     0
102
RTVSPost2010PropOp49
 70
     1
102
RTVSPost2010Prop50
 90
       50
102
RTVSPost2010PropOp50
 70
     1
102
RTVSPost2010Prop51ColorIndex
 90
      256
102
RTVSPost2010Prop51ColorRGB
 90
-16777216
102
RTVSPost2010PropOp51
 70
     0
102
RTVSPost2010Prop52
140
1.0
102
RTVSPost2010PropOp52
 70
     0
102
RTVSPost2010Prop53
 90
        2
102
RTVSPost2010PropOp53
 70
     1
102
RTVSPost2010Prop54
  1
strokes_ogs.tif
102
RTVSPost2010PropOp54
 70
     1
102
RTVSPost2010Prop55
280
     0
102
RTVSPost2010PropOp55
 70
     1
102
RTVSPost2010Prop56
140
1.0
102
RTVSPost2010PropOp56
 70
     1
102
RTVSPost2010Prop57
140
1.0
102
RTVSPost2010PropOp57
 70
     1
102
RTVSPropertyOp0
 70
     1
102
RTVSPropertyOp1
 70
     1
102
RTVSPropertyOp2
 70
     1
102
RTVSPropertyOp3
 70
     1
102
RTVSPropertyOp4
 70
     1
102
RTVSPropertyOp5
 70
     1
102
RTVSPropertyOp6
 70
     1
102
RTVSPropertyOp7
 70
     1
102
RTVSPropertyOp8
 70
     1
102
RTVSPropertyOp9
 70
     1
102
RTVSPropertyOp10
 70
     1
102
RTVSPropertyOp11
 70
     1
102
RTVSPropertyOp12
 70
     1
102
RTVSPropertyOp13
 70
     1
102
RTVSPropertyOp14
 70
     1
102
RTVSPropertyOp15
 70
     1
102
RTVSPropertyOp16
 70
     1
102
RTVSPropertyOp17
 70
     1
102
RTVSPropertyOp18
 70
     1
102
RTVSPropertyOp19
 70
     1
102
RTVSPropertyOp20
 70
     1
102
RTVSPropertyOp21
 70
     1
102
RTVSPropertyOp22
 70
     1
102
RTVSPropertyOp23
 70
     1
102
RTVSPropertyOp24
 70
     1
102
RTVSPropertyOp25
 70
     1
102
RTVSPropertyOp26
 70
     1
102
RTVSPropertyOp27
 70
     1
102
RTVSPropertyOp28
 70
     1
102
RTVSPropertyOp29
 70
     1
102
RTVSPropertyOp30
 70
     1
102
RTVSPropertyOp31
 70
     1
102
RTVSPropertyOp32
 70
     1
102
RTVSPropertyOp33
 70
     1
102
RTVSPropertyOp34
 70
     1
102
RTVSPropertyOp35
 70
     1
102
RTVSPropertyOp36
 70
     1
102
RTVSPropertyOp37
 70
     1
102
RTVSPropertyOp38
 70
     1
102
RTVSPropertyOp39
 70
     1
102
RTVSPropertyOp40
 70
     1
102
RTVSPropertyOp41
 70
     1
102
RTVSPropertyOp42
 70
     1
102
RTVSPropertyOp43
 70
     1
102
RTVSPropertyOp44
 70
     1
102
RTVSPropertyOp45
 70
     1
102
RTVSPropertyOp46
 70
     1
102
RTVSPropertyOp47
 70
     1
102
RTVSPropertyOp48
 70
     1
102
RTVSPropertyOp49
 70
     1
102
RTVSPropertyOp50
 70
     1
102
RTVSPropertyOp51
 70
     0
102
RTVSPropertyOp52
 70
     0
102
RTVSPropertyOp53
 70
     1
102
RTVSPropertyOp54
 70
     1
102
RTVSPropertyOp55
 70
     1
102
RTVSPropertyOp56
 70
     1
102
RTVSPropertyOp57
 70
     1
102
RTVSPropertyOp58
 70
     1
102
RTVSPropertyOp59
 70
     1
102
RTVSPropertyOp60
 70
     1
102
RTVSPropertyOp61
 70
     1
102
RTVSPropertyOp62
 70
     1
  0
XRECORD
  5
107E
102
{ACAD_REACTORS
330
107D
102
}
330
107D
100
AcDbXrecord
280
     1
102
RTVSPost2010Prop28
280
     0
102
RTVSPost2010PropOp28
 70
     1
102
RTVSPost2010Prop29
280
     1
102
RTVSPost2010PropOp29
 70
     1
102
RTVSPost2010Prop30
280
     1
102
RTVSPost2010PropOp30
 70
     1
102
RTVSPost2010Prop31
280
     0
102
RTVSPost2010PropOp31
 70
     1
102
RTVSPost2010Prop32
280
     0
102
RTVSPost2010PropOp32
 70
     1
102
RTVSPost2010Prop33
280
     0
102
RTVSPost2010PropOp33
 70
     1
102
RTVSPost2010Prop34
280
     0
102
RTVSPost2010PropOp34
 70
     1
102
RTVSPost2010Prop35
280
     0
102
RTVSPost2010PropOp35
 70
     1
102
RTVSPost2010Prop36
280
     0
102
RTVSPost2010PropOp36
 70
     1
102
RTVSPost2010Prop37
 90
       50
102
RTVSPost2010PropOp37
 70
     1
102
RTVSPost2010Prop38
140
0.0
102
RTVSPost2010PropOp38
 70
     1
102
RTVSPost2010Prop39
140
1.0
102
RTVSPost2010PropOp39
 70
     1
102
RTVSPost2010Prop40
 90
        0
102
RTVSPost2010PropOp40
 70
     1
102
RTVSPost2010Prop41ColorIndex
 90
       18
102
RTVSPost2010Prop41ColorRGB
 90
        0
102
RTVSPost2010PropOp41
 70
     1
102
RTVSPost2010Prop42
 90
       50
102
RTVSPost2010PropOp42
 70
     1
102
RTVSPost2010Prop43
 90
        3
102
RTVSPost2010PropOp43
 70
     1
102
RTVSPost2010Prop44ColorIndex
 90
        5
102
RTVSPost2010Prop44ColorRGB
 90
      255
102
RTVSPost2010PropOp44
 70
     1
102
RTVSPost2010Prop45
280
     0
102
RTVSPost2010PropOp45
 70
     1
102
RTVSPost2010Prop46
 90
       50
102
RTVSPost2010PropOp46
 70
     1
102
RTVSPost2010Prop47
 90
       50
102
RTVSPost2010PropOp47
 70
     1
102
RTVSPost2010Prop48
 90
       50
102
RTVSPost2010PropOp48
 70
     1
102
RTVSPost2010Prop49
280
     0
102
RTVSPost2010PropOp49
 70
     1
102
RTVSPost2010Prop50
 90
       50
102
RTVSPost2010PropOp50
 70
     1
102
RTVSPost2010Prop51ColorIndex
 90
      256
102
RTVSPost2010Prop51ColorRGB
 90
-16777216
102
RTVSPost2010PropOp51
 70
     0
102
RTVSPost2010Prop52
140
1.0
102
RTVSPost2010PropOp52
 70
     0
102
RTVSPost2010Prop53
 90
        2
102
RTVSPost2010PropOp53
 70
     1
102
RTVSPost2010Prop54
  1
strokes_ogs.tif
102
RTVSPost2010PropOp54
 70
     1
102
RTVSPost2010Prop55
280
     0
102
RTVSPost2010PropOp55
 70
     1
102
RTVSPost2010Prop56
140
1.0
102
RTVSPost2010PropOp56
 70
     1
102
RTVSPost2010Prop57
140
1.0
102
RTVSPost2010PropOp57
 70
     1
102
RTVSPropertyOp0
 70
     1
102
RTVSPropertyOp1
 70
     1
102
RTVSPropertyOp2
 70
     1
102
RTVSPropertyOp3
 70
     1
102
RTVSPropertyOp4
 70
     1
102
RTVSPropertyOp5
 70
     1
102
RTVSPropertyOp6
 70
     1
102
RTVSPropertyOp7
 70
     1
102
RTVSPropertyOp8
 70
     1
102
RTVSPropertyOp9
 70
     1
102
RTVSPropertyOp10
 70
     1
102
RTVSPropertyOp11
 70
     1
102
RTVSPropertyOp12
 70
     1
102
RTVSPropertyOp13
 70
     1
102
RTVSPropertyOp14
 70
     1
102
RTVSPropertyOp15
 70
     1
102
RTVSPropertyOp16
 70
     1
102
RTVSPropertyOp17
 70
     1
102
RTVSPropertyOp18
 70
     1
102
RTVSPropertyOp19
 70
     1
102
RTVSPropertyOp20
 70
     1
102
RTVSPropertyOp21
 70
     1
102
RTVSPropertyOp22
 70
     1
102
RTVSPropertyOp23
 70
     1
102
RTVSPropertyOp24
 70
     1
102
RTVSPropertyOp25
 70
     1
102
RTVSPropertyOp26
 70
     1
102
RTVSPropertyOp27
 70
     1
102
RTVSPropertyOp28
 70
     1
102
RTVSPropertyOp29
 70
     1
102
RTVSPropertyOp30
 70
     1
102
RTVSPropertyOp31
 70
     1
102
RTVSPropertyOp32
 70
     1
102
RTVSPropertyOp33
 70
     1
102
RTVSPropertyOp34
 70
     1
102
RTVSPropertyOp35
 70
     1
102
RTVSPropertyOp36
 70
     1
102
RTVSPropertyOp37
 70
     1
102
RTVSPropertyOp38
 70
     1
102
RTVSPropertyOp39
 70
     1
102
RTVSPropertyOp40
 70
     1
102
RTVSPropertyOp41
 70
     1
102
RTVSPropertyOp42
 70
     1
102
RTVSPropertyOp43
 70
     1
102
RTVSPropertyOp44
 70
     1
102
RTVSPropertyOp45
 70
     1
102
RTVSPropertyOp46
 70
     1
102
RTVSPropertyOp47
 70
     1
102
RTVSPropertyOp48
 70
     1
102
RTVSPropertyOp49
 70
     1
102
RTVSPropertyOp50
 70
     1
102
RTVSPropertyOp51
 70
     0
102
RTVSPropertyOp52
 70
     0
102
RTVSPropertyOp53
 70
     1
102
RTVSPropertyOp54
 70
     1
102
RTVSPropertyOp55
 70
     1
102
RTVSPropertyOp56
 70
     1
102
RTVSPropertyOp57
 70
     1
102
RTVSPropertyOp58
 70
     1
102
RTVSPropertyOp59
 70
     1
102
RTVSPropertyOp60
 70
     1
102
RTVSPropertyOp61
 70
     1
102
RTVSPropertyOp62
 70
     1
  0
XRECORD
  5
109A
102
{ACAD_REACTORS
330
1099
102
}
330
1099
100
AcDbXrecord
280
     1
102
RTVSPost2010Prop28
280
     0
102
RTVSPost2010PropOp28
 70
     0
102
RTVSPost2010Prop29
280
     1
102
RTVSPost2010PropOp29
 70
     0
102
RTVSPost2010Prop30
280
     1
102
RTVSPost2010PropOp30
 70
     0
102
RTVSPost2010Prop31
280
     0
102
RTVSPost2010PropOp31
 70
     0
102
RTVSPost2010Prop32
280
     0
102
RTVSPost2010PropOp32
 70
     0
102
RTVSPost2010Prop33
280
     0
102
RTVSPost2010PropOp33
 70
     0
102
RTVSPost2010Prop34
280
     0
102
RTVSPost2010PropOp34
 70
     0
102
RTVSPost2010Prop35
280
     0
102
RTVSPost2010PropOp35
 70
     0
102
RTVSPost2010Prop36
280
     0
102
RTVSPost2010PropOp36
 70
     0
102
RTVSPost2010Prop37
 90
       50
102
RTVSPost2010PropOp37
 70
     0
102
RTVSPost2010Prop38
140
0.0
102
RTVSPost2010PropOp38
 70
     0
102
RTVSPost2010Prop39
140
1.0
102
RTVSPost2010PropOp39
 70
     0
102
RTVSPost2010Prop40
 90
        0
102
RTVSPost2010PropOp40
 70
     0
102
RTVSPost2010Prop41ColorIndex
 90
       18
102
RTVSPost2010Prop41ColorRGB
 90
        0
102
RTVSPost2010PropOp41
 70
     0
102
RTVSPost2010Prop42
 90
       50
102
RTVSPost2010PropOp42
 70
     0
102
RTVSPost2010Prop43
 90
        3
102
RTVSPost2010PropOp43
 70
     0
102
RTVSPost2010Prop44ColorIndex
 90
        5
102
RTVSPost2010Prop44ColorRGB
 90
      255
102
RTVSPost2010PropOp44
 70
     0
102
RTVSPost2010Prop45
280
     0
102
RTVSPost2010PropOp45
 70
     0
102
RTVSPost2010Prop46
 90
       50
102
RTVSPost2010PropOp46
 70
     0
102
RTVSPost2010Prop47
 90
       50
102
RTVSPost2010PropOp47
 70
     0
102
RTVSPost2010Prop48
 90
       50
102
RTVSPost2010PropOp48
 70
     0
102
RTVSPost2010Prop49
280
     0
102
RTVSPost2010PropOp49
 70
     0
102
RTVSPost2010Prop50
 90
       50
102
RTVSPost2010PropOp50
 70
     0
102
RTVSPost2010Prop51ColorIndex
 90
      256
102
RTVSPost2010Prop51ColorRGB
 90
-16777216
102
RTVSPost2010PropOp51
 70
     0
102
RTVSPost2010Prop52
140
1.0
102
RTVSPost2010PropOp52
 70
     0
102
RTVSPost2010Prop53
 90
        2
102
RTVSPost2010PropOp53
 70
     0
102
RTVSPost2010Prop54
  1
strokes_ogs.tif
102
RTVSPost2010PropOp54
 70
     0
102
RTVSPost2010Prop55
280
     0
102
RTVSPost2010PropOp55
 70
     0
102
RTVSPost2010Prop56
140
1.0
102
RTVSPost2010PropOp56
 70
     0
102
RTVSPost2010Prop57
140
1.0
102
RTVSPost2010PropOp57
 70
     0
102
RTVSPropertyOp0
 70
     0
102
RTVSPropertyOp1
 70
     0
102
RTVSPropertyOp2
 70
     0
102
RTVSPropertyOp3
 70
     0
102
RTVSPropertyOp4
 70
     0
102
RTVSPropertyOp5
 70
     0
102
RTVSPropertyOp6
 70
     0
102
RTVSPropertyOp7
 70
     0
102
RTVSPropertyOp8
 70
     0
102
RTVSPropertyOp9
 70
     0
102
RTVSPropertyOp10
 70
     0
102
RTVSPropertyOp11
 70
     0
102
RTVSPropertyOp12
 70
     0
102
RTVSPropertyOp13
 70
     0
102
RTVSPropertyOp14
 70
     2
102
RTVSPropertyOp15
 70
     0
102
RTVSPropertyOp16
 70
     0
102
RTVSPropertyOp17
 70
     0
102
RTVSPropertyOp18
 70
     0
102
RTVSPropertyOp19
 70
     0
102
RTVSPropertyOp20
 70
     0
102
RTVSPropertyOp21
 70
     0
102
RTVSPropertyOp22
 70
     0
102
RTVSPropertyOp23
 70
     0
102
RTVSPropertyOp24
 70
     0
102
RTVSPropertyOp25
 70
     0
102
RTVSPropertyOp26
 70
     0
102
RTVSPropertyOp27
 70
     0
102
RTVSPropertyOp28
 70
     0
102
RTVSPropertyOp29
 70
     0
102
RTVSPropertyOp30
 70
     0
102
RTVSPropertyOp31
 70
     0
102
RTVSPropertyOp32
 70
     0
102
RTVSPropertyOp33
 70
     0
102
RTVSPropertyOp34
 70
     0
102
RTVSPropertyOp35
 70
     0
102
RTVSPropertyOp36
 70
     0
102
RTVSPropertyOp37
 70
     0
102
RTVSPropertyOp38
 70
     0
102
RTVSPropertyOp39
 70
     0
102
RTVSPropertyOp40
 70
     0
102
RTVSPropertyOp41
 70
     0
102
RTVSPropertyOp42
 70
     0
102
RTVSPropertyOp43
 70
     0
102
RTVSPropertyOp44
 70
     0
102
RTVSPropertyOp45
 70
     0
102
RTVSPropertyOp46
 70
     0
102
RTVSPropertyOp47
 70
     0
102
RTVSPropertyOp48
 70
     0
102
RTVSPropertyOp49
 70
     0
102
RTVSPropertyOp50
 70
     0
102
RTVSPropertyOp51
 70
     0
102
RTVSPropertyOp52
 70
     0
102
RTVSPropertyOp53
 70
     0
102
RTVSPropertyOp54
 70
     0
102
RTVSPropertyOp55
 70
     0
102
RTVSPropertyOp56
 70
     0
102
RTVSPropertyOp57
 70
     0
102
RTVSPropertyOp58
 70
     0
102
RTVSPropertyOp59
 70
     0
102
RTVSPropertyOp60
 70
     0
102
RTVSPropertyOp61
 70
     0
102
RTVSPropertyOp62
 70
     0
  0
XRECORD
  5
108A
102
{ACAD_REACTORS
330
1089
102
}
330
1089
100
AcDbXrecord
280
     1
102
RTVSPost2010Prop28
280
     0
102
RTVSPost2010PropOp28
 70
     1
102
RTVSPost2010Prop29
280
     1
102
RTVSPost2010PropOp29
 70
     1
102
RTVSPost2010Prop30
280
     1
102
RTVSPost2010PropOp30
 70
     1
102
RTVSPost2010Prop31
280
     0
102
RTVSPost2010PropOp31
 70
     1
102
RTVSPost2010Prop32
280
     0
102
RTVSPost2010PropOp32
 70
     1
102
RTVSPost2010Prop33
280
     0
102
RTVSPost2010PropOp33
 70
     1
102
RTVSPost2010Prop34
280
     0
102
RTVSPost2010PropOp34
 70
     1
102
RTVSPost2010Prop35
280
     0
102
RTVSPost2010PropOp35
 70
     1
102
RTVSPost2010Prop36
280
     0
102
RTVSPost2010PropOp36
 70
     1
102
RTVSPost2010Prop37
 90
       50
102
RTVSPost2010PropOp37
 70
     1
102
RTVSPost2010Prop38
140
0.0
102
RTVSPost2010PropOp38
 70
     1
102
RTVSPost2010Prop39
140
1.0
102
RTVSPost2010PropOp39
 70
     1
102
RTVSPost2010Prop40
 90
        0
102
RTVSPost2010PropOp40
 70
     1
102
RTVSPost2010Prop41ColorIndex
 90
       18
102
RTVSPost2010Prop41ColorRGB
 90
        0
102
RTVSPost2010PropOp41
 70
     1
102
RTVSPost2010Prop42
 90
       50
102
RTVSPost2010PropOp42
 70
     1
102
RTVSPost2010Prop43
 90
        3
102
RTVSPost2010PropOp43
 70
     1
102
RTVSPost2010Prop44ColorIndex
 90
        5
102
RTVSPost2010Prop44ColorRGB
 90
      255
102
RTVSPost2010PropOp44
 70
     1
102
RTVSPost2010Prop45
280
     0
102
RTVSPost2010PropOp45
 70
     1
102
RTVSPost2010Prop46
 90
       50
102
RTVSPost2010PropOp46
 70
     1
102
RTVSPost2010Prop47
 90
       50
102
RTVSPost2010PropOp47
 70
     1
102
RTVSPost2010Prop48
 90
       50
102
RTVSPost2010PropOp48
 70
     1
102
RTVSPost2010Prop49
280
     0
102
RTVSPost2010PropOp49
 70
     1
102
RTVSPost2010Prop50
 90
       50
102
RTVSPost2010PropOp50
 70
     1
102
RTVSPost2010Prop51ColorIndex
 90
      256
102
RTVSPost2010Prop51ColorRGB
 90
-16777216
102
RTVSPost2010PropOp51
 70
     0
102
RTVSPost2010Prop52
140
1.0
102
RTVSPost2010PropOp52
 70
     0
102
RTVSPost2010Prop53
 90
        2
102
RTVSPost2010PropOp53
 70
     1
102
RTVSPost2010Prop54
  1
strokes_ogs.tif
102
RTVSPost2010PropOp54
 70
     1
102
RTVSPost2010Prop55
280
     0
102
RTVSPost2010PropOp55
 70
     1
102
RTVSPost2010Prop56
140
1.0
102
RTVSPost2010PropOp56
 70
     1
102
RTVSPost2010Prop57
140
1.0
102
RTVSPost2010PropOp57
 70
     1
102
RTVSPropertyOp0
 70
     1
102
RTVSPropertyOp1
 70
     1
102
RTVSPropertyOp2
 70
     1
102
RTVSPropertyOp3
 70
     1
102
RTVSPropertyOp4
 70
     1
102
RTVSPropertyOp5
 70
     1
102
RTVSPropertyOp6
 70
     1
102
RTVSPropertyOp7
 70
     1
102
RTVSPropertyOp8
 70
     1
102
RTVSPropertyOp9
 70
     1
102
RTVSPropertyOp10
 70
     1
102
RTVSPropertyOp11
 70
     1
102
RTVSPropertyOp12
 70
     1
102
RTVSPropertyOp13
 70
     1
102
RTVSPropertyOp14
 70
     1
102
RTVSPropertyOp15
 70
     1
102
RTVSPropertyOp16
 70
     1
102
RTVSPropertyOp17
 70
     1
102
RTVSPropertyOp18
 70
     1
102
RTVSPropertyOp19
 70
     1
102
RTVSPropertyOp20
 70
     1
102
RTVSPropertyOp21
 70
     1
102
RTVSPropertyOp22
 70
     1
102
RTVSPropertyOp23
 70
     1
102
RTVSPropertyOp24
 70
     1
102
RTVSPropertyOp25
 70
     1
102
RTVSPropertyOp26
 70
     1
102
RTVSPropertyOp27
 70
     1
102
RTVSPropertyOp28
 70
     1
102
RTVSPropertyOp29
 70
     1
102
RTVSPropertyOp30
 70
     1
102
RTVSPropertyOp31
 70
     1
102
RTVSPropertyOp32
 70
     1
102
RTVSPropertyOp33
 70
     1
102
RTVSPropertyOp34
 70
     1
102
RTVSPropertyOp35
 70
     1
102
RTVSPropertyOp36
 70
     1
102
RTVSPropertyOp37
 70
     1
102
RTVSPropertyOp38
 70
     1
102
RTVSPropertyOp39
 70
     1
102
RTVSPropertyOp40
 70
     1
102
RTVSPropertyOp41
 70
     1
102
RTVSPropertyOp42
 70
     1
102
RTVSPropertyOp43
 70
     1
102
RTVSPropertyOp44
 70
     1
102
RTVSPropertyOp45
 70
     1
102
RTVSPropertyOp46
 70
     1
102
RTVSPropertyOp47
 70
     1
102
RTVSPropertyOp48
 70
     1
102
RTVSPropertyOp49
 70
     1
102
RTVSPropertyOp50
 70
     1
102
RTVSPropertyOp51
 70
     0
102
RTVSPropertyOp52
 70
     0
102
RTVSPropertyOp53
 70
     1
102
RTVSPropertyOp54
 70
     1
102
RTVSPropertyOp55
 70
     1
102
RTVSPropertyOp56
 70
     1
102
RTVSPropertyOp57
 70
     1
102
RTVSPropertyOp58
 70
     1
102
RTVSPropertyOp59
 70
     1
102
RTVSPropertyOp60
 70
     1
102
RTVSPropertyOp61
 70
     1
102
RTVSPropertyOp62
 70
     1
  0
XRECORD
  5
109C
102
{ACAD_REACTORS
330
109B
102
}
330
109B
100
AcDbXrecord
280
     1
102
RTVSPost2010Prop28
280
     0
102
RTVSPost2010PropOp28
 70
     0
102
RTVSPost2010Prop29
280
     1
102
RTVSPost2010PropOp29
 70
     0
102
RTVSPost2010Prop30
280
     1
102
RTVSPost2010PropOp30
 70
     0
102
RTVSPost2010Prop31
280
     0
102
RTVSPost2010PropOp31
 70
     0
102
RTVSPost2010Prop32
280
     0
102
RTVSPost2010PropOp32
 70
     0
102
RTVSPost2010Prop33
280
     0
102
RTVSPost2010PropOp33
 70
     0
102
RTVSPost2010Prop34
280
     0
102
RTVSPost2010PropOp34
 70
     0
102
RTVSPost2010Prop35
280
     0
102
RTVSPost2010PropOp35
 70
     0
102
RTVSPost2010Prop36
280
     0
102
RTVSPost2010PropOp36
 70
     0
102
RTVSPost2010Prop37
 90
       50
102
RTVSPost2010PropOp37
 70
     0
102
RTVSPost2010Prop38
140
0.0
102
RTVSPost2010PropOp38
 70
     0
102
RTVSPost2010Prop39
140
1.0
102
RTVSPost2010PropOp39
 70
     0
102
RTVSPost2010Prop40
 90
        0
102
RTVSPost2010PropOp40
 70
     0
102
RTVSPost2010Prop41ColorIndex
 90
       18
102
RTVSPost2010Prop41ColorRGB
 90
        0
102
RTVSPost2010PropOp41
 70
     0
102
RTVSPost2010Prop42
 90
       50
102
RTVSPost2010PropOp42
 70
     0
102
RTVSPost2010Prop43
 90
        3
102
RTVSPost2010PropOp43
 70
     0
102
RTVSPost2010Prop44ColorIndex
 90
        5
102
RTVSPost2010Prop44ColorRGB
 90
      255
102
RTVSPost2010PropOp44
 70
     0
102
RTVSPost2010Prop45
280
     0
102
RTVSPost2010PropOp45
 70
     0
102
RTVSPost2010Prop46
 90
       50
102
RTVSPost2010PropOp46
 70
     0
102
RTVSPost2010Prop47
 90
       50
102
RTVSPost2010PropOp47
 70
     0
102
RTVSPost2010Prop48
 90
       50
102
RTVSPost2010PropOp48
 70
     0
102
RTVSPost2010Prop49
280
     0
102
RTVSPost2010PropOp49
 70
     0
102
RTVSPost2010Prop50
 90
       50
102
RTVSPost2010PropOp50
 70
     0
102
RTVSPost2010Prop51ColorIndex
 90
      256
102
RTVSPost2010Prop51ColorRGB
 90
-16777216
102
RTVSPost2010PropOp51
 70
     0
102
RTVSPost2010Prop52
140
1.0
102
RTVSPost2010PropOp52
 70
     0
102
RTVSPost2010Prop53
 90
        2
102
RTVSPost2010PropOp53
 70
     0
102
RTVSPost2010Prop54
  1
strokes_ogs.tif
102
RTVSPost2010PropOp54
 70
     0
102
RTVSPost2010Prop55
280
     0
102
RTVSPost2010PropOp55
 70
     0
102
RTVSPost2010Prop56
140
1.0
102
RTVSPost2010PropOp56
 70
     0
102
RTVSPost2010Prop57
140
1.0
102
RTVSPost2010PropOp57
 70
     0
102
RTVSPropertyOp0
 70
     0
102
RTVSPropertyOp1
 70
     0
102
RTVSPropertyOp2
 70
     0
102
RTVSPropertyOp3
 70
     0
102
RTVSPropertyOp4
 70
     0
102
RTVSPropertyOp5
 70
     0
102
RTVSPropertyOp6
 70
     0
102
RTVSPropertyOp7
 70
     0
102
RTVSPropertyOp8
 70
     0
102
RTVSPropertyOp9
 70
     0
102
RTVSPropertyOp10
 70
     0
102
RTVSPropertyOp11
 70
     0
102
RTVSPropertyOp12
 70
     0
102
RTVSPropertyOp13
 70
     0
102
RTVSPropertyOp14
 70
     2
102
RTVSPropertyOp15
 70
     0
102
RTVSPropertyOp16
 70
     0
102
RTVSPropertyOp17
 70
     0
102
RTVSPropertyOp18
 70
     0
102
RTVSPropertyOp19
 70
     0
102
RTVSPropertyOp20
 70
     0
102
RTVSPropertyOp21
 70
     0
102
RTVSPropertyOp22
 70
     0
102
RTVSPropertyOp23
 70
     0
102
RTVSPropertyOp24
 70
     0
102
RTVSPropertyOp25
 70
     0
102
RTVSPropertyOp26
 70
     0
102
RTVSPropertyOp27
 70
     0
102
RTVSPropertyOp28
 70
     0
102
RTVSPropertyOp29
 70
     0
102
RTVSPropertyOp30
 70
     0
102
RTVSPropertyOp31
 70
     0
102
RTVSPropertyOp32
 70
     0
102
RTVSPropertyOp33
 70
     0
102
RTVSPropertyOp34
 70
     0
102
RTVSPropertyOp35
 70
     0
102
RTVSPropertyOp36
 70
     0
102
RTVSPropertyOp37
 70
     0
102
RTVSPropertyOp38
 70
     0
102
RTVSPropertyOp39
 70
     0
102
RTVSPropertyOp40
 70
     0
102
RTVSPropertyOp41
 70
     0
102
RTVSPropertyOp42
 70
     0
102
RTVSPropertyOp43
 70
     0
102
RTVSPropertyOp44
 70
     0
102
RTVSPropertyOp45
 70
     0
102
RTVSPropertyOp46
 70
     0
102
RTVSPropertyOp47
 70
     0
102
RTVSPropertyOp48
 70
     0
102
RTVSPropertyOp49
 70
     0
102
RTVSPropertyOp50
 70
     0
102
RTVSPropertyOp51
 70
     0
102
RTVSPropertyOp52
 70
     0
102
RTVSPropertyOp53
 70
     0
102
RTVSPropertyOp54
 70
     0
102
RTVSPropertyOp55
 70
     0
102
RTVSPropertyOp56
 70
     0
102
RTVSPropertyOp57
 70
     0
102
RTVSPropertyOp58
 70
     0
102
RTVSPropertyOp59
 70
     0
102
RTVSPropertyOp60
 70
     0
102
RTVSPropertyOp61
 70
     0
102
RTVSPropertyOp62
 70
     0
  0
XRECORD
  5
1082
102
{ACAD_REACTORS
330
1081
102
}
330
1081
100
AcDbXrecord
280
     1
102
RTVSPost2010Prop28
280
     0
102
RTVSPost2010PropOp28
 70
     1
102
RTVSPost2010Prop29
280
     1
102
RTVSPost2010PropOp29
 70
     1
102
RTVSPost2010Prop30
280
     1
102
RTVSPost2010PropOp30
 70
     1
102
RTVSPost2010Prop31
280
     0
102
RTVSPost2010PropOp31
 70
     1
102
RTVSPost2010Prop32
280
     0
102
RTVSPost2010PropOp32
 70
     1
102
RTVSPost2010Prop33
280
     0
102
RTVSPost2010PropOp33
 70
     1
102
RTVSPost2010Prop34
280
     0
102
RTVSPost2010PropOp34
 70
     1
102
RTVSPost2010Prop35
280
     0
102
RTVSPost2010PropOp35
 70
     1
102
RTVSPost2010Prop36
280
     0
102
RTVSPost2010PropOp36
 70
     1
102
RTVSPost2010Prop37
 90
       50
102
RTVSPost2010PropOp37
 70
     1
102
RTVSPost2010Prop38
140
0.0
102
RTVSPost2010PropOp38
 70
     1
102
RTVSPost2010Prop39
140
1.0
102
RTVSPost2010PropOp39
 70
     1
102
RTVSPost2010Prop40
 90
        0
102
RTVSPost2010PropOp40
 70
     1
102
RTVSPost2010Prop41ColorIndex
 90
       18
102
RTVSPost2010Prop41ColorRGB
 90
        0
102
RTVSPost2010PropOp41
 70
     1
102
RTVSPost2010Prop42
 90
       50
102
RTVSPost2010PropOp42
 70
     1
102
RTVSPost2010Prop43
 90
        3
102
RTVSPost2010PropOp43
 70
     1
102
RTVSPost2010Prop44ColorIndex
 90
        5
102
RTVSPost2010Prop44ColorRGB
 90
      255
102
RTVSPost2010PropOp44
 70
     1
102
RTVSPost2010Prop45
280
     0
102
RTVSPost2010PropOp45
 70
     1
102
RTVSPost2010Prop46
 90
       50
102
RTVSPost2010PropOp46
 70
     1
102
RTVSPost2010Prop47
 90
       50
102
RTVSPost2010PropOp47
 70
     1
102
RTVSPost2010Prop48
 90
       50
102
RTVSPost2010PropOp48
 70
     1
102
RTVSPost2010Prop49
280
     0
102
RTVSPost2010PropOp49
 70
     1
102
RTVSPost2010Prop50
 90
       50
102
RTVSPost2010PropOp50
 70
     1
102
RTVSPost2010Prop51ColorIndex
 90
      256
102
RTVSPost2010Prop51ColorRGB
 90
-16777216
102
RTVSPost2010PropOp51
 70
     0
102
RTVSPost2010Prop52
140
1.0
102
RTVSPost2010PropOp52
 70
     0
102
RTVSPost2010Prop53
 90
        2
102
RTVSPost2010PropOp53
 70
     1
102
RTVSPost2010Prop54
  1
strokes_ogs.tif
102
RTVSPost2010PropOp54
 70
     1
102
RTVSPost2010Prop55
280
     0
102
RTVSPost2010PropOp55
 70
     1
102
RTVSPost2010Prop56
140
1.0
102
RTVSPost2010PropOp56
 70
     1
102
RTVSPost2010Prop57
140
1.0
102
RTVSPost2010PropOp57
 70
     1
102
RTVSPropertyOp0
 70
     1
102
RTVSPropertyOp1
 70
     1
102
RTVSPropertyOp2
 70
     1
102
RTVSPropertyOp3
 70
     1
102
RTVSPropertyOp4
 70
     1
102
RTVSPropertyOp5
 70
     1
102
RTVSPropertyOp6
 70
     1
102
RTVSPropertyOp7
 70
     1
102
RTVSPropertyOp8
 70
     1
102
RTVSPropertyOp9
 70
     1
102
RTVSPropertyOp10
 70
     1
102
RTVSPropertyOp11
 70
     1
102
RTVSPropertyOp12
 70
     1
102
RTVSPropertyOp13
 70
     1
102
RTVSPropertyOp14
 70
     1
102
RTVSPropertyOp15
 70
     1
102
RTVSPropertyOp16
 70
     1
102
RTVSPropertyOp17
 70
     1
102
RTVSPropertyOp18
 70
     1
102
RTVSPropertyOp19
 70
     1
102
RTVSPropertyOp20
 70
     1
102
RTVSPropertyOp21
 70
     1
102
RTVSPropertyOp22
 70
     1
102
RTVSPropertyOp23
 70
     1
102
RTVSPropertyOp24
 70
     1
102
RTVSPropertyOp25
 70
     1
102
RTVSPropertyOp26
 70
     1
102
RTVSPropertyOp27
 70
     1
102
RTVSPropertyOp28
 70
     1
102
RTVSPropertyOp29
 70
     1
102
RTVSPropertyOp30
 70
     1
102
RTVSPropertyOp31
 70
     1
102
RTVSPropertyOp32
 70
     1
102
RTVSPropertyOp33
 70
     1
102
RTVSPropertyOp34
 70
     1
102
RTVSPropertyOp35
 70
     1
102
RTVSPropertyOp36
 70
     1
102
RTVSPropertyOp37
 70
     1
102
RTVSPropertyOp38
 70
     1
102
RTVSPropertyOp39
 70
     1
102
RTVSPropertyOp40
 70
     1
102
RTVSPropertyOp41
 70
     1
102
RTVSPropertyOp42
 70
     1
102
RTVSPropertyOp43
 70
     1
102
RTVSPropertyOp44
 70
     1
102
RTVSPropertyOp45
 70
     1
102
RTVSPropertyOp46
 70
     1
102
RTVSPropertyOp47
 70
     1
102
RTVSPropertyOp48
 70
     1
102
RTVSPropertyOp49
 70
     1
102
RTVSPropertyOp50
 70
     1
102
RTVSPropertyOp51
 70
     0
102
RTVSPropertyOp52
 70
     0
102
RTVSPropertyOp53
 70
     1
102
RTVSPropertyOp54
 70
     1
102
RTVSPropertyOp55
 70
     1
102
RTVSPropertyOp56
 70
     1
102
RTVSPropertyOp57
 70
     1
102
RTVSPropertyOp58
 70
     1
102
RTVSPropertyOp59
 70
     1
102
RTVSPropertyOp60
 70
     1
102
RTVSPropertyOp61
 70
     1
102
RTVSPropertyOp62
 70
     1
  0
XRECORD
  5
1098
102
{ACAD_REACTORS
330
1097
102
}
330
1097
100
AcDbXrecord
280
     1
102
RTVSPost2010Prop28
280
     0
102
RTVSPost2010PropOp28
 70
     1
102
RTVSPost2010Prop29
280
     1
102
RTVSPost2010PropOp29
 70
     1
102
RTVSPost2010Prop30
280
     1
102
RTVSPost2010PropOp30
 70
     1
102
RTVSPost2010Prop31
280
     0
102
RTVSPost2010PropOp31
 70
     1
102
RTVSPost2010Prop32
280
     0
102
RTVSPost2010PropOp32
 70
     1
102
RTVSPost2010Prop33
280
     0
102
RTVSPost2010PropOp33
 70
     1
102
RTVSPost2010Prop34
280
     0
102
RTVSPost2010PropOp34
 70
     1
102
RTVSPost2010Prop35
280
     0
102
RTVSPost2010PropOp35
 70
     1
102
RTVSPost2010Prop36
280
     0
102
RTVSPost2010PropOp36
 70
     1
102
RTVSPost2010Prop37
 90
       50
102
RTVSPost2010PropOp37
 70
     1
102
RTVSPost2010Prop38
140
0.0
102
RTVSPost2010PropOp38
 70
     1
102
RTVSPost2010Prop39
140
1.0
102
RTVSPost2010PropOp39
 70
     1
102
RTVSPost2010Prop40
 90
        0
102
RTVSPost2010PropOp40
 70
     1
102
RTVSPost2010Prop41ColorIndex
 90
       18
102
RTVSPost2010Prop41ColorRGB
 90
        0
102
RTVSPost2010PropOp41
 70
     1
102
RTVSPost2010Prop42
 90
       50
102
RTVSPost2010PropOp42
 70
     1
102
RTVSPost2010Prop43
 90
        3
102
RTVSPost2010PropOp43
 70
     1
102
RTVSPost2010Prop44ColorIndex
 90
        5
102
RTVSPost2010Prop44ColorRGB
 90
      255
102
RTVSPost2010PropOp44
 70
     1
102
RTVSPost2010Prop45
280
     0
102
RTVSPost2010PropOp45
 70
     1
102
RTVSPost2010Prop46
 90
       50
102
RTVSPost2010PropOp46
 70
     1
102
RTVSPost2010Prop47
 90
       50
102
RTVSPost2010PropOp47
 70
     1
102
RTVSPost2010Prop48
 90
       50
102
RTVSPost2010PropOp48
 70
     1
102
RTVSPost2010Prop49
280
     0
102
RTVSPost2010PropOp49
 70
     1
102
RTVSPost2010Prop50
 90
       50
102
RTVSPost2010PropOp50
 70
     1
102
RTVSPost2010Prop51ColorIndex
 90
      256
102
RTVSPost2010Prop51ColorRGB
 90
-16777216
102
RTVSPost2010PropOp51
 70
     0
102
RTVSPost2010Prop52
140
1.0
102
RTVSPost2010PropOp52
 70
     0
102
RTVSPost2010Prop53
 90
        2
102
RTVSPost2010PropOp53
 70
     1
102
RTVSPost2010Prop54
  1
strokes_ogs.tif
102
RTVSPost2010PropOp54
 70
     1
102
RTVSPost2010Prop55
280
     0
102
RTVSPost2010PropOp55
 70
     1
102
RTVSPost2010Prop56
140
1.0
102
RTVSPost2010PropOp56
 70
     1
102
RTVSPost2010Prop57
140
1.0
102
RTVSPost2010PropOp57
 70
     1
102
RTVSPropertyOp0
 70
     1
102
RTVSPropertyOp1
 70
     1
102
RTVSPropertyOp2
 70
     1
102
RTVSPropertyOp3
 70
     1
102
RTVSPropertyOp4
 70
     1
102
RTVSPropertyOp5
 70
     1
102
RTVSPropertyOp6
 70
     1
102
RTVSPropertyOp7
 70
     1
102
RTVSPropertyOp8
 70
     1
102
RTVSPropertyOp9
 70
     1
102
RTVSPropertyOp10
 70
     1
102
RTVSPropertyOp11
 70
     1
102
RTVSPropertyOp12
 70
     1
102
RTVSPropertyOp13
 70
     1
102
RTVSPropertyOp14
 70
     1
102
RTVSPropertyOp15
 70
     1
102
RTVSPropertyOp16
 70
     1
102
RTVSPropertyOp17
 70
     1
102
RTVSPropertyOp18
 70
     1
102
RTVSPropertyOp19
 70
     1
102
RTVSPropertyOp20
 70
     1
102
RTVSPropertyOp21
 70
     1
102
RTVSPropertyOp22
 70
     1
102
RTVSPropertyOp23
 70
     1
102
RTVSPropertyOp24
 70
     1
102
RTVSPropertyOp25
 70
     1
102
RTVSPropertyOp26
 70
     1
102
RTVSPropertyOp27
 70
     1
102
RTVSPropertyOp28
 70
     1
102
RTVSPropertyOp29
 70
     1
102
RTVSPropertyOp30
 70
     1
102
RTVSPropertyOp31
 70
     1
102
RTVSPropertyOp32
 70
     1
102
RTVSPropertyOp33
 70
     1
102
RTVSPropertyOp34
 70
     1
102
RTVSPropertyOp35
 70
     1
102
RTVSPropertyOp36
 70
     1
102
RTVSPropertyOp37
 70
     1
102
RTVSPropertyOp38
 70
     1
102
RTVSPropertyOp39
 70
     1
102
RTVSPropertyOp40
 70
     1
102
RTVSPropertyOp41
 70
     1
102
RTVSPropertyOp42
 70
     1
102
RTVSPropertyOp43
 70
     1
102
RTVSPropertyOp44
 70
     1
102
RTVSPropertyOp45
 70
     1
102
RTVSPropertyOp46
 70
     1
102
RTVSPropertyOp47
 70
     1
102
RTVSPropertyOp48
 70
     1
102
RTVSPropertyOp49
 70
     1
102
RTVSPropertyOp50
 70
     1
102
RTVSPropertyOp51
 70
     0
102
RTVSPropertyOp52
 70
     0
102
RTVSPropertyOp53
 70
     1
102
RTVSPropertyOp54
 70
     1
102
RTVSPropertyOp55
 70
     1
102
RTVSPropertyOp56
 70
     1
102
RTVSPropertyOp57
 70
     1
102
RTVSPropertyOp58
 70
     1
102
RTVSPropertyOp59
 70
     1
102
RTVSPropertyOp60
 70
     1
102
RTVSPropertyOp61
 70
     1
102
RTVSPropertyOp62
 70
     1
  0
XRECORD
  5
1096
102
{ACAD_REACTORS
330
1095
102
}
330
1095
100
AcDbXrecord
280
     1
102
RTVSPost2010Prop28
280
     0
102
RTVSPost2010PropOp28
 70
     1
102
RTVSPost2010Prop29
280
     1
102
RTVSPost2010PropOp29
 70
     1
102
RTVSPost2010Prop30
280
     1
102
RTVSPost2010PropOp30
 70
     1
102
RTVSPost2010Prop31
280
     0
102
RTVSPost2010PropOp31
 70
     1
102
RTVSPost2010Prop32
280
     0
102
RTVSPost2010PropOp32
 70
     1
102
RTVSPost2010Prop33
280
     0
102
RTVSPost2010PropOp33
 70
     1
102
RTVSPost2010Prop34
280
     0
102
RTVSPost2010PropOp34
 70
     1
102
RTVSPost2010Prop35
280
     0
102
RTVSPost2010PropOp35
 70
     1
102
RTVSPost2010Prop36
280
     0
102
RTVSPost2010PropOp36
 70
     1
102
RTVSPost2010Prop37
 90
       50
102
RTVSPost2010PropOp37
 70
     1
102
RTVSPost2010Prop38
140
0.0
102
RTVSPost2010PropOp38
 70
     1
102
RTVSPost2010Prop39
140
1.0
102
RTVSPost2010PropOp39
 70
     1
102
RTVSPost2010Prop40
 90
        0
102
RTVSPost2010PropOp40
 70
     1
102
RTVSPost2010Prop41ColorIndex
 90
       18
102
RTVSPost2010Prop41ColorRGB
 90
        0
102
RTVSPost2010PropOp41
 70
     1
102
RTVSPost2010Prop42
 90
       50
102
RTVSPost2010PropOp42
 70
     1
102
RTVSPost2010Prop43
 90
        3
102
RTVSPost2010PropOp43
 70
     1
102
RTVSPost2010Prop44ColorIndex
 90
        5
102
RTVSPost2010Prop44ColorRGB
 90
      255
102
RTVSPost2010PropOp44
 70
     1
102
RTVSPost2010Prop45
280
     0
102
RTVSPost2010PropOp45
 70
     1
102
RTVSPost2010Prop46
 90
       50
102
RTVSPost2010PropOp46
 70
     1
102
RTVSPost2010Prop47
 90
       50
102
RTVSPost2010PropOp47
 70
     1
102
RTVSPost2010Prop48
 90
       50
102
RTVSPost2010PropOp48
 70
     1
102
RTVSPost2010Prop49
280
     0
102
RTVSPost2010PropOp49
 70
     1
102
RTVSPost2010Prop50
 90
       50
102
RTVSPost2010PropOp50
 70
     1
102
RTVSPost2010Prop51ColorIndex
 90
      256
102
RTVSPost2010Prop51ColorRGB
 90
-16777216
102
RTVSPost2010PropOp51
 70
     0
102
RTVSPost2010Prop52
140
1.0
102
RTVSPost2010PropOp52
 70
     0
102
RTVSPost2010Prop53
 90
        2
102
RTVSPost2010PropOp53
 70
     1
102
RTVSPost2010Prop54
  1
strokes_ogs.tif
102
RTVSPost2010PropOp54
 70
     1
102
RTVSPost2010Prop55
280
     0
102
RTVSPost2010PropOp55
 70
     1
102
RTVSPost2010Prop56
140
1.0
102
RTVSPost2010PropOp56
 70
     1
102
RTVSPost2010Prop57
140
1.0
102
RTVSPost2010PropOp57
 70
     1
102
RTVSPropertyOp0
 70
     1
102
RTVSPropertyOp1
 70
     1
102
RTVSPropertyOp2
 70
     1
102
RTVSPropertyOp3
 70
     1
102
RTVSPropertyOp4
 70
     1
102
RTVSPropertyOp5
 70
     1
102
RTVSPropertyOp6
 70
     1
102
RTVSPropertyOp7
 70
     1
102
RTVSPropertyOp8
 70
     1
102
RTVSPropertyOp9
 70
     1
102
RTVSPropertyOp10
 70
     1
102
RTVSPropertyOp11
 70
     1
102
RTVSPropertyOp12
 70
     1
102
RTVSPropertyOp13
 70
     1
102
RTVSPropertyOp14
 70
     1
102
RTVSPropertyOp15
 70
     1
102
RTVSPropertyOp16
 70
     1
102
RTVSPropertyOp17
 70
     1
102
RTVSPropertyOp18
 70
     1
102
RTVSPropertyOp19
 70
     1
102
RTVSPropertyOp20
 70
     1
102
RTVSPropertyOp21
 70
     1
102
RTVSPropertyOp22
 70
     1
102
RTVSPropertyOp23
 70
     1
102
RTVSPropertyOp24
 70
     1
102
RTVSPropertyOp25
 70
     1
102
RTVSPropertyOp26
 70
     1
102
RTVSPropertyOp27
 70
     1
102
RTVSPropertyOp28
 70
     1
102
RTVSPropertyOp29
 70
     1
102
RTVSPropertyOp30
 70
     1
102
RTVSPropertyOp31
 70
     1
102
RTVSPropertyOp32
 70
     1
102
RTVSPropertyOp33
 70
     1
102
RTVSPropertyOp34
 70
     1
102
RTVSPropertyOp35
 70
     1
102
RTVSPropertyOp36
 70
     1
102
RTVSPropertyOp37
 70
     1
102
RTVSPropertyOp38
 70
     1
102
RTVSPropertyOp39
 70
     1
102
RTVSPropertyOp40
 70
     1
102
RTVSPropertyOp41
 70
     1
102
RTVSPropertyOp42
 70
     1
102
RTVSPropertyOp43
 70
     1
102
RTVSPropertyOp44
 70
     1
102
RTVSPropertyOp45
 70
     1
102
RTVSPropertyOp46
 70
     1
102
RTVSPropertyOp47
 70
     1
102
RTVSPropertyOp48
 70
     1
102
RTVSPropertyOp49
 70
     1
102
RTVSPropertyOp50
 70
     1
102
RTVSPropertyOp51
 70
     0
102
RTVSPropertyOp52
 70
     0
102
RTVSPropertyOp53
 70
     1
102
RTVSPropertyOp54
 70
     1
102
RTVSPropertyOp55
 70
     1
102
RTVSPropertyOp56
 70
     1
102
RTVSPropertyOp57
 70
     1
102
RTVSPropertyOp58
 70
     1
102
RTVSPropertyOp59
 70
     1
102
RTVSPropertyOp60
 70
     1
102
RTVSPropertyOp61
 70
     1
102
RTVSPropertyOp62
 70
     1
  0
XRECORD
  5
1090
102
{ACAD_REACTORS
330
108F
102
}
330
108F
100
AcDbXrecord
280
     1
102
RTVSPost2010Prop28
280
     0
102
RTVSPost2010PropOp28
 70
     1
102
RTVSPost2010Prop29
280
     1
102
RTVSPost2010PropOp29
 70
     1
102
RTVSPost2010Prop30
280
     1
102
RTVSPost2010PropOp30
 70
     1
102
RTVSPost2010Prop31
280
     0
102
RTVSPost2010PropOp31
 70
     1
102
RTVSPost2010Prop32
280
     0
102
RTVSPost2010PropOp32
 70
     1
102
RTVSPost2010Prop33
280
     0
102
RTVSPost2010PropOp33
 70
     1
102
RTVSPost2010Prop34
280
     0
102
RTVSPost2010PropOp34
 70
     1
102
RTVSPost2010Prop35
280
     0
102
RTVSPost2010PropOp35
 70
     1
102
RTVSPost2010Prop36
280
     0
102
RTVSPost2010PropOp36
 70
     1
102
RTVSPost2010Prop37
 90
       50
102
RTVSPost2010PropOp37
 70
     1
102
RTVSPost2010Prop38
140
0.0
102
RTVSPost2010PropOp38
 70
     1
102
RTVSPost2010Prop39
140
1.0
102
RTVSPost2010PropOp39
 70
     1
102
RTVSPost2010Prop40
 90
        0
102
RTVSPost2010PropOp40
 70
     1
102
RTVSPost2010Prop41ColorIndex
 90
       18
102
RTVSPost2010Prop41ColorRGB
 90
        0
102
RTVSPost2010PropOp41
 70
     1
102
RTVSPost2010Prop42
 90
       50
102
RTVSPost2010PropOp42
 70
     1
102
RTVSPost2010Prop43
 90
        3
102
RTVSPost2010PropOp43
 70
     1
102
RTVSPost2010Prop44ColorIndex
 90
        5
102
RTVSPost2010Prop44ColorRGB
 90
      255
102
RTVSPost2010PropOp44
 70
     1
102
RTVSPost2010Prop45
280
     0
102
RTVSPost2010PropOp45
 70
     1
102
RTVSPost2010Prop46
 90
       50
102
RTVSPost2010PropOp46
 70
     1
102
RTVSPost2010Prop47
 90
       50
102
RTVSPost2010PropOp47
 70
     1
102
RTVSPost2010Prop48
 90
       50
102
RTVSPost2010PropOp48
 70
     1
102
RTVSPost2010Prop49
280
     0
102
RTVSPost2010PropOp49
 70
     1
102
RTVSPost2010Prop50
 90
       50
102
RTVSPost2010PropOp50
 70
     1
102
RTVSPost2010Prop51ColorIndex
 90
      256
102
RTVSPost2010Prop51ColorRGB
 90
-16777216
102
RTVSPost2010PropOp51
 70
     0
102
RTVSPost2010Prop52
140
1.0
102
RTVSPost2010PropOp52
 70
     0
102
RTVSPost2010Prop53
 90
        2
102
RTVSPost2010PropOp53
 70
     1
102
RTVSPost2010Prop54
  1
strokes_ogs.tif
102
RTVSPost2010PropOp54
 70
     1
102
RTVSPost2010Prop55
280
     0
102
RTVSPost2010PropOp55
 70
     1
102
RTVSPost2010Prop56
140
1.0
102
RTVSPost2010PropOp56
 70
     1
102
RTVSPost2010Prop57
140
1.0
102
RTVSPost2010PropOp57
 70
     1
102
RTVSPropertyOp0
 70
     1
102
RTVSPropertyOp1
 70
     1
102
RTVSPropertyOp2
 70
     1
102
RTVSPropertyOp3
 70
     1
102
RTVSPropertyOp4
 70
     1
102
RTVSPropertyOp5
 70
     1
102
RTVSPropertyOp6
 70
     1
102
RTVSPropertyOp7
 70
     1
102
RTVSPropertyOp8
 70
     1
102
RTVSPropertyOp9
 70
     1
102
RTVSPropertyOp10
 70
     1
102
RTVSPropertyOp11
 70
     1
102
RTVSPropertyOp12
 70
     1
102
RTVSPropertyOp13
 70
     1
102
RTVSPropertyOp14
 70
     1
102
RTVSPropertyOp15
 70
     1
102
RTVSPropertyOp16
 70
     1
102
RTVSPropertyOp17
 70
     1
102
RTVSPropertyOp18
 70
     1
102
RTVSPropertyOp19
 70
     1
102
RTVSPropertyOp20
 70
     1
102
RTVSPropertyOp21
 70
     1
102
RTVSPropertyOp22
 70
     1
102
RTVSPropertyOp23
 70
     1
102
RTVSPropertyOp24
 70
     1
102
RTVSPropertyOp25
 70
     1
102
RTVSPropertyOp26
 70
     1
102
RTVSPropertyOp27
 70
     1
102
RTVSPropertyOp28
 70
     1
102
RTVSPropertyOp29
 70
     1
102
RTVSPropertyOp30
 70
     1
102
RTVSPropertyOp31
 70
     1
102
RTVSPropertyOp32
 70
     1
102
RTVSPropertyOp33
 70
     1
102
RTVSPropertyOp34
 70
     1
102
RTVSPropertyOp35
 70
     1
102
RTVSPropertyOp36
 70
     1
102
RTVSPropertyOp37
 70
     1
102
RTVSPropertyOp38
 70
     1
102
RTVSPropertyOp39
 70
     1
102
RTVSPropertyOp40
 70
     1
102
RTVSPropertyOp41
 70
     1
102
RTVSPropertyOp42
 70
     1
102
RTVSPropertyOp43
 70
     1
102
RTVSPropertyOp44
 70
     1
102
RTVSPropertyOp45
 70
     1
102
RTVSPropertyOp46
 70
     1
102
RTVSPropertyOp47
 70
     1
102
RTVSPropertyOp48
 70
     1
102
RTVSPropertyOp49
 70
     1
102
RTVSPropertyOp50
 70
     1
102
RTVSPropertyOp51
 70
     0
102
RTVSPropertyOp52
 70
     0
102
RTVSPropertyOp53
 70
     1
102
RTVSPropertyOp54
 70
     1
102
RTVSPropertyOp55
 70
     1
102
RTVSPropertyOp56
 70
     1
102
RTVSPropertyOp57
 70
     1
102
RTVSPropertyOp58
 70
     1
102
RTVSPropertyOp59
 70
     1
102
RTVSPropertyOp60
 70
     1
102
RTVSPropertyOp61
 70
     1
102
RTVSPropertyOp62
 70
     1
  0
XRECORD
  5
1092
102
{ACAD_REACTORS
330
1091
102
}
330
1091
100
AcDbXrecord
280
     1
102
RTVSPost2010Prop28
280
     0
102
RTVSPost2010PropOp28
 70
     1
102
RTVSPost2010Prop29
280
     1
102
RTVSPost2010PropOp29
 70
     1
102
RTVSPost2010Prop30
280
     1
102
RTVSPost2010PropOp30
 70
     1
102
RTVSPost2010Prop31
280
     0
102
RTVSPost2010PropOp31
 70
     1
102
RTVSPost2010Prop32
280
     0
102
RTVSPost2010PropOp32
 70
     1
102
RTVSPost2010Prop33
280
     0
102
RTVSPost2010PropOp33
 70
     1
102
RTVSPost2010Prop34
280
     0
102
RTVSPost2010PropOp34
 70
     1
102
RTVSPost2010Prop35
280
     0
102
RTVSPost2010PropOp35
 70
     1
102
RTVSPost2010Prop36
280
     0
102
RTVSPost2010PropOp36
 70
     1
102
RTVSPost2010Prop37
 90
       50
102
RTVSPost2010PropOp37
 70
     1
102
RTVSPost2010Prop38
140
0.0
102
RTVSPost2010PropOp38
 70
     1
102
RTVSPost2010Prop39
140
1.0
102
RTVSPost2010PropOp39
 70
     1
102
RTVSPost2010Prop40
 90
        0
102
RTVSPost2010PropOp40
 70
     1
102
RTVSPost2010Prop41ColorIndex
 90
       18
102
RTVSPost2010Prop41ColorRGB
 90
        0
102
RTVSPost2010PropOp41
 70
     1
102
RTVSPost2010Prop42
 90
       50
102
RTVSPost2010PropOp42
 70
     1
102
RTVSPost2010Prop43
 90
        3
102
RTVSPost2010PropOp43
 70
     1
102
RTVSPost2010Prop44ColorIndex
 90
        5
102
RTVSPost2010Prop44ColorRGB
 90
      255
102
RTVSPost2010PropOp44
 70
     1
102
RTVSPost2010Prop45
280
     0
102
RTVSPost2010PropOp45
 70
     1
102
RTVSPost2010Prop46
 90
       50
102
RTVSPost2010PropOp46
 70
     1
102
RTVSPost2010Prop47
 90
       50
102
RTVSPost2010PropOp47
 70
     1
102
RTVSPost2010Prop48
 90
       50
102
RTVSPost2010PropOp48
 70
     1
102
RTVSPost2010Prop49
280
     0
102
RTVSPost2010PropOp49
 70
     1
102
RTVSPost2010Prop50
 90
       50
102
RTVSPost2010PropOp50
 70
     1
102
RTVSPost2010Prop51ColorIndex
 90
      256
102
RTVSPost2010Prop51ColorRGB
 90
-16777216
102
RTVSPost2010PropOp51
 70
     0
102
RTVSPost2010Prop52
140
1.0
102
RTVSPost2010PropOp52
 70
     0
102
RTVSPost2010Prop53
 90
        2
102
RTVSPost2010PropOp53
 70
     1
102
RTVSPost2010Prop54
  1
strokes_ogs.tif
102
RTVSPost2010PropOp54
 70
     1
102
RTVSPost2010Prop55
280
     0
102
RTVSPost2010PropOp55
 70
     1
102
RTVSPost2010Prop56
140
1.0
102
RTVSPost2010PropOp56
 70
     1
102
RTVSPost2010Prop57
140
1.0
102
RTVSPost2010PropOp57
 70
     1
102
RTVSPropertyOp0
 70
     1
102
RTVSPropertyOp1
 70
     1
102
RTVSPropertyOp2
 70
     1
102
RTVSPropertyOp3
 70
     1
102
RTVSPropertyOp4
 70
     1
102
RTVSPropertyOp5
 70
     1
102
RTVSPropertyOp6
 70
     1
102
RTVSPropertyOp7
 70
     1
102
RTVSPropertyOp8
 70
     1
102
RTVSPropertyOp9
 70
     1
102
RTVSPropertyOp10
 70
     1
102
RTVSPropertyOp11
 70
     1
102
RTVSPropertyOp12
 70
     1
102
RTVSPropertyOp13
 70
     1
102
RTVSPropertyOp14
 70
     1
102
RTVSPropertyOp15
 70
     1
102
RTVSPropertyOp16
 70
     1
102
RTVSPropertyOp17
 70
     1
102
RTVSPropertyOp18
 70
     1
102
RTVSPropertyOp19
 70
     1
102
RTVSPropertyOp20
 70
     1
102
RTVSPropertyOp21
 70
     1
102
RTVSPropertyOp22
 70
     1
102
RTVSPropertyOp23
 70
     1
102
RTVSPropertyOp24
 70
     1
102
RTVSPropertyOp25
 70
     1
102
RTVSPropertyOp26
 70
     1
102
RTVSPropertyOp27
 70
     1
102
RTVSPropertyOp28
 70
     1
102
RTVSPropertyOp29
 70
     1
102
RTVSPropertyOp30
 70
     1
102
RTVSPropertyOp31
 70
     1
102
RTVSPropertyOp32
 70
     1
102
RTVSPropertyOp33
 70
     1
102
RTVSPropertyOp34
 70
     1
102
RTVSPropertyOp35
 70
     1
102
RTVSPropertyOp36
 70
     1
102
RTVSPropertyOp37
 70
     1
102
RTVSPropertyOp38
 70
     1
102
RTVSPropertyOp39
 70
     1
102
RTVSPropertyOp40
 70
     1
102
RTVSPropertyOp41
 70
     1
102
RTVSPropertyOp42
 70
     1
102
RTVSPropertyOp43
 70
     1
102
RTVSPropertyOp44
 70
     1
102
RTVSPropertyOp45
 70
     1
102
RTVSPropertyOp46
 70
     1
102
RTVSPropertyOp47
 70
     1
102
RTVSPropertyOp48
 70
     1
102
RTVSPropertyOp49
 70
     1
102
RTVSPropertyOp50
 70
     1
102
RTVSPropertyOp51
 70
     0
102
RTVSPropertyOp52
 70
     0
102
RTVSPropertyOp53
 70
     1
102
RTVSPropertyOp54
 70
     1
102
RTVSPropertyOp55
 70
     1
102
RTVSPropertyOp56
 70
     1
102
RTVSPropertyOp57
 70
     1
102
RTVSPropertyOp58
 70
     1
102
RTVSPropertyOp59
 70
     1
102
RTVSPropertyOp60
 70
     1
102
RTVSPropertyOp61
 70
     1
102
RTVSPropertyOp62
 70
     1
  0
XRECORD
  5
1088
102
{ACAD_REACTORS
330
1087
102
}
330
1087
100
AcDbXrecord
280
     1
102
RTVSPost2010Prop28
280
     0
102
RTVSPost2010PropOp28
 70
     1
102
RTVSPost2010Prop29
280
     1
102
RTVSPost2010PropOp29
 70
     1
102
RTVSPost2010Prop30
280
     1
102
RTVSPost2010PropOp30
 70
     1
102
RTVSPost2010Prop31
280
     0
102
RTVSPost2010PropOp31
 70
     1
102
RTVSPost2010Prop32
280
     0
102
RTVSPost2010PropOp32
 70
     1
102
RTVSPost2010Prop33
280
     0
102
RTVSPost2010PropOp33
 70
     1
102
RTVSPost2010Prop34
280
     0
102
RTVSPost2010PropOp34
 70
     1
102
RTVSPost2010Prop35
280
     0
102
RTVSPost2010PropOp35
 70
     1
102
RTVSPost2010Prop36
280
     0
102
RTVSPost2010PropOp36
 70
     1
102
RTVSPost2010Prop37
 90
       50
102
RTVSPost2010PropOp37
 70
     1
102
RTVSPost2010Prop38
140
0.0
102
RTVSPost2010PropOp38
 70
     1
102
RTVSPost2010Prop39
140
1.0
102
RTVSPost2010PropOp39
 70
     1
102
RTVSPost2010Prop40
 90
        0
102
RTVSPost2010PropOp40
 70
     1
102
RTVSPost2010Prop41ColorIndex
 90
       18
102
RTVSPost2010Prop41ColorRGB
 90
        0
102
RTVSPost2010PropOp41
 70
     1
102
RTVSPost2010Prop42
 90
       50
102
RTVSPost2010PropOp42
 70
     1
102
RTVSPost2010Prop43
 90
        3
102
RTVSPost2010PropOp43
 70
     1
102
RTVSPost2010Prop44ColorIndex
 90
        5
102
RTVSPost2010Prop44ColorRGB
 90
      255
102
RTVSPost2010PropOp44
 70
     1
102
RTVSPost2010Prop45
280
     0
102
RTVSPost2010PropOp45
 70
     1
102
RTVSPost2010Prop46
 90
       50
102
RTVSPost2010PropOp46
 70
     1
102
RTVSPost2010Prop47
 90
       50
102
RTVSPost2010PropOp47
 70
     1
102
RTVSPost2010Prop48
 90
       50
102
RTVSPost2010PropOp48
 70
     1
102
RTVSPost2010Prop49
280
     0
102
RTVSPost2010PropOp49
 70
     1
102
RTVSPost2010Prop50
 90
       50
102
RTVSPost2010PropOp50
 70
     1
102
RTVSPost2010Prop51ColorIndex
 90
      256
102
RTVSPost2010Prop51ColorRGB
 90
-16777216
102
RTVSPost2010PropOp51
 70
     0
102
RTVSPost2010Prop52
140
1.0
102
RTVSPost2010PropOp52
 70
     0
102
RTVSPost2010Prop53
 90
        2
102
RTVSPost2010PropOp53
 70
     1
102
RTVSPost2010Prop54
  1
strokes_ogs.tif
102
RTVSPost2010PropOp54
 70
     1
102
RTVSPost2010Prop55
280
     0
102
RTVSPost2010PropOp55
 70
     1
102
RTVSPost2010Prop56
140
1.0
102
RTVSPost2010PropOp56
 70
     1
102
RTVSPost2010Prop57
140
1.0
102
RTVSPost2010PropOp57
 70
     1
102
RTVSPropertyOp0
 70
     1
102
RTVSPropertyOp1
 70
     1
102
RTVSPropertyOp2
 70
     1
102
RTVSPropertyOp3
 70
     1
102
RTVSPropertyOp4
 70
     1
102
RTVSPropertyOp5
 70
     1
102
RTVSPropertyOp6
 70
     1
102
RTVSPropertyOp7
 70
     1
102
RTVSPropertyOp8
 70
     1
102
RTVSPropertyOp9
 70
     1
102
RTVSPropertyOp10
 70
     1
102
RTVSPropertyOp11
 70
     1
102
RTVSPropertyOp12
 70
     1
102
RTVSPropertyOp13
 70
     1
102
RTVSPropertyOp14
 70
     1
102
RTVSPropertyOp15
 70
     1
102
RTVSPropertyOp16
 70
     1
102
RTVSPropertyOp17
 70
     1
102
RTVSPropertyOp18
 70
     1
102
RTVSPropertyOp19
 70
     1
102
RTVSPropertyOp20
 70
     1
102
RTVSPropertyOp21
 70
     1
102
RTVSPropertyOp22
 70
     1
102
RTVSPropertyOp23
 70
     1
102
RTVSPropertyOp24
 70
     1
102
RTVSPropertyOp25
 70
     1
102
RTVSPropertyOp26
 70
     1
102
RTVSPropertyOp27
 70
     1
102
RTVSPropertyOp28
 70
     1
102
RTVSPropertyOp29
 70
     1
102
RTVSPropertyOp30
 70
     1
102
RTVSPropertyOp31
 70
     1
102
RTVSPropertyOp32
 70
     1
102
RTVSPropertyOp33
 70
     1
102
RTVSPropertyOp34
 70
     1
102
RTVSPropertyOp35
 70
     1
102
RTVSPropertyOp36
 70
     1
102
RTVSPropertyOp37
 70
     1
102
RTVSPropertyOp38
 70
     1
102
RTVSPropertyOp39
 70
     1
102
RTVSPropertyOp40
 70
     1
102
RTVSPropertyOp41
 70
     1
102
RTVSPropertyOp42
 70
     1
102
RTVSPropertyOp43
 70
     1
102
RTVSPropertyOp44
 70
     1
102
RTVSPropertyOp45
 70
     1
102
RTVSPropertyOp46
 70
     1
102
RTVSPropertyOp47
 70
     1
102
RTVSPropertyOp48
 70
     1
102
RTVSPropertyOp49
 70
     1
102
RTVSPropertyOp50
 70
     1
102
RTVSPropertyOp51
 70
     0
102
RTVSPropertyOp52
 70
     0
102
RTVSPropertyOp53
 70
     1
102
RTVSPropertyOp54
 70
     1
102
RTVSPropertyOp55
 70
     1
102
RTVSPropertyOp56
 70
     1
102
RTVSPropertyOp57
 70
     1
102
RTVSPropertyOp58
 70
     1
102
RTVSPropertyOp59
 70
     1
102
RTVSPropertyOp60
 70
     1
102
RTVSPropertyOp61
 70
     1
102
RTVSPropertyOp62
 70
     1
  0
XRECORD
  5
107C
102
{ACAD_REACTORS
330
107B
102
}
330
107B
100
AcDbXrecord
280
     1
102
RTVSPost2010Prop28
280
     0
102
RTVSPost2010PropOp28
 70
     1
102
RTVSPost2010Prop29
280
     1
102
RTVSPost2010PropOp29
 70
     1
102
RTVSPost2010Prop30
280
     1
102
RTVSPost2010PropOp30
 70
     1
102
RTVSPost2010Prop31
280
     0
102
RTVSPost2010PropOp31
 70
     1
102
RTVSPost2010Prop32
280
     0
102
RTVSPost2010PropOp32
 70
     1
102
RTVSPost2010Prop33
280
     0
102
RTVSPost2010PropOp33
 70
     1
102
RTVSPost2010Prop34
280
     0
102
RTVSPost2010PropOp34
 70
     1
102
RTVSPost2010Prop35
280
     0
102
RTVSPost2010PropOp35
 70
     1
102
RTVSPost2010Prop36
280
     0
102
RTVSPost2010PropOp36
 70
     1
102
RTVSPost2010Prop37
 90
       50
102
RTVSPost2010PropOp37
 70
     1
102
RTVSPost2010Prop38
140
0.0
102
RTVSPost2010PropOp38
 70
     1
102
RTVSPost2010Prop39
140
1.0
102
RTVSPost2010PropOp39
 70
     1
102
RTVSPost2010Prop40
 90
        0
102
RTVSPost2010PropOp40
 70
     1
102
RTVSPost2010Prop41ColorIndex
 90
       18
102
RTVSPost2010Prop41ColorRGB
 90
        0
102
RTVSPost2010PropOp41
 70
     1
102
RTVSPost2010Prop42
 90
       50
102
RTVSPost2010PropOp42
 70
     1
102
RTVSPost2010Prop43
 90
        3
102
RTVSPost2010PropOp43
 70
     1
102
RTVSPost2010Prop44ColorIndex
 90
        5
102
RTVSPost2010Prop44ColorRGB
 90
      255
102
RTVSPost2010PropOp44
 70
     1
102
RTVSPost2010Prop45
280
     0
102
RTVSPost2010PropOp45
 70
     1
102
RTVSPost2010Prop46
 90
       50
102
RTVSPost2010PropOp46
 70
     1
102
RTVSPost2010Prop47
 90
       50
102
RTVSPost2010PropOp47
 70
     1
102
RTVSPost2010Prop48
 90
       50
102
RTVSPost2010PropOp48
 70
     1
102
RTVSPost2010Prop49
280
     0
102
RTVSPost2010PropOp49
 70
     1
102
RTVSPost2010Prop50
 90
       50
102
RTVSPost2010PropOp50
 70
     1
102
RTVSPost2010Prop51ColorIndex
 90
      256
102
RTVSPost2010Prop51ColorRGB
 90
-16777216
102
RTVSPost2010PropOp51
 70
     0
102
RTVSPost2010Prop52
140
1.0
102
RTVSPost2010PropOp52
 70
     0
102
RTVSPost2010Prop53
 90
        2
102
RTVSPost2010PropOp53
 70
     1
102
RTVSPost2010Prop54
  1
strokes_ogs.tif
102
RTVSPost2010PropOp54
 70
     1
102
RTVSPost2010Prop55
280
     0
102
RTVSPost2010PropOp55
 70
     1
102
RTVSPost2010Prop56
140
1.0
102
RTVSPost2010PropOp56
 70
     1
102
RTVSPost2010Prop57
140
1.0
102
RTVSPost2010PropOp57
 70
     1
102
RTVSPropertyOp0
 70
     1
102
RTVSPropertyOp1
 70
     1
102
RTVSPropertyOp2
 70
     1
102
RTVSPropertyOp3
 70
     1
102
RTVSPropertyOp4
 70
     1
102
RTVSPropertyOp5
 70
     1
102
RTVSPropertyOp6
 70
     1
102
RTVSPropertyOp7
 70
     1
102
RTVSPropertyOp8
 70
     1
102
RTVSPropertyOp9
 70
     1
102
RTVSPropertyOp10
 70
     1
102
RTVSPropertyOp11
 70
     1
102
RTVSPropertyOp12
 70
     1
102
RTVSPropertyOp13
 70
     1
102
RTVSPropertyOp14
 70
     1
102
RTVSPropertyOp15
 70
     1
102
RTVSPropertyOp16
 70
     1
102
RTVSPropertyOp17
 70
     1
102
RTVSPropertyOp18
 70
     1
102
RTVSPropertyOp19
 70
     1
102
RTVSPropertyOp20
 70
     1
102
RTVSPropertyOp21
 70
     1
102
RTVSPropertyOp22
 70
     1
102
RTVSPropertyOp23
 70
     1
102
RTVSPropertyOp24
 70
     1
102
RTVSPropertyOp25
 70
     1
102
RTVSPropertyOp26
 70
     1
102
RTVSPropertyOp27
 70
     1
102
RTVSPropertyOp28
 70
     1
102
RTVSPropertyOp29
 70
     1
102
RTVSPropertyOp30
 70
     1
102
RTVSPropertyOp31
 70
     1
102
RTVSPropertyOp32
 70
     1
102
RTVSPropertyOp33
 70
     1
102
RTVSPropertyOp34
 70
     1
102
RTVSPropertyOp35
 70
     1
102
RTVSPropertyOp36
 70
     1
102
RTVSPropertyOp37
 70
     1
102
RTVSPropertyOp38
 70
     1
102
RTVSPropertyOp39
 70
     1
102
RTVSPropertyOp40
 70
     1
102
RTVSPropertyOp41
 70
     1
102
RTVSPropertyOp42
 70
     1
102
RTVSPropertyOp43
 70
     1
102
RTVSPropertyOp44
 70
     1
102
RTVSPropertyOp45
 70
     1
102
RTVSPropertyOp46
 70
     1
102
RTVSPropertyOp47
 70
     1
102
RTVSPropertyOp48
 70
     1
102
RTVSPropertyOp49
 70
     1
102
RTVSPropertyOp50
 70
     1
102
RTVSPropertyOp51
 70
     0
102
RTVSPropertyOp52
 70
     0
102
RTVSPropertyOp53
 70
     1
102
RTVSPropertyOp54
 70
     1
102
RTVSPropertyOp55
 70
     1
102
RTVSPropertyOp56
 70
     1
102
RTVSPropertyOp57
 70
     1
102
RTVSPropertyOp58
 70
     1
102
RTVSPropertyOp59
 70
     1
102
RTVSPropertyOp60
 70
     1
102
RTVSPropertyOp61
 70
     1
102
RTVSPropertyOp62
 70
     1
  0
XRECORD
  5
1094
102
{ACAD_REACTORS
330
1093
102
}
330
1093
100
AcDbXrecord
280
     1
102
RTVSPost2010Prop28
280
     0
102
RTVSPost2010PropOp28
 70
     1
102
RTVSPost2010Prop29
280
     1
102
RTVSPost2010PropOp29
 70
     1
102
RTVSPost2010Prop30
280
     1
102
RTVSPost2010PropOp30
 70
     1
102
RTVSPost2010Prop31
280
     0
102
RTVSPost2010PropOp31
 70
     1
102
RTVSPost2010Prop32
280
     0
102
RTVSPost2010PropOp32
 70
     1
102
RTVSPost2010Prop33
280
     0
102
RTVSPost2010PropOp33
 70
     1
102
RTVSPost2010Prop34
280
     0
102
RTVSPost2010PropOp34
 70
     1
102
RTVSPost2010Prop35
280
     0
102
RTVSPost2010PropOp35
 70
     1
102
RTVSPost2010Prop36
280
     0
102
RTVSPost2010PropOp36
 70
     1
102
RTVSPost2010Prop37
 90
       50
102
RTVSPost2010PropOp37
 70
     1
102
RTVSPost2010Prop38
140
0.0
102
RTVSPost2010PropOp38
 70
     1
102
RTVSPost2010Prop39
140
1.0
102
RTVSPost2010PropOp39
 70
     1
102
RTVSPost2010Prop40
 90
        0
102
RTVSPost2010PropOp40
 70
     1
102
RTVSPost2010Prop41ColorIndex
 90
       18
102
RTVSPost2010Prop41ColorRGB
 90
        0
102
RTVSPost2010PropOp41
 70
     1
102
RTVSPost2010Prop42
 90
       50
102
RTVSPost2010PropOp42
 70
     1
102
RTVSPost2010Prop43
 90
        3
102
RTVSPost2010PropOp43
 70
     1
102
RTVSPost2010Prop44ColorIndex
 90
        5
102
RTVSPost2010Prop44ColorRGB
 90
      255
102
RTVSPost2010PropOp44
 70
     1
102
RTVSPost2010Prop45
280
     0
102
RTVSPost2010PropOp45
 70
     1
102
RTVSPost2010Prop46
 90
       50
102
RTVSPost2010PropOp46
 70
     1
102
RTVSPost2010Prop47
 90
       50
102
RTVSPost2010PropOp47
 70
     1
102
RTVSPost2010Prop48
 90
       50
102
RTVSPost2010PropOp48
 70
     1
102
RTVSPost2010Prop49
280
     0
102
RTVSPost2010PropOp49
 70
     1
102
RTVSPost2010Prop50
 90
       50
102
RTVSPost2010PropOp50
 70
     1
102
RTVSPost2010Prop51ColorIndex
 90
      256
102
RTVSPost2010Prop51ColorRGB
 90
-16777216
102
RTVSPost2010PropOp51
 70
     0
102
RTVSPost2010Prop52
140
1.0
102
RTVSPost2010PropOp52
 70
     0
102
RTVSPost2010Prop53
 90
        2
102
RTVSPost2010PropOp53
 70
     1
102
RTVSPost2010Prop54
  1
strokes_ogs.tif
102
RTVSPost2010PropOp54
 70
     1
102
RTVSPost2010Prop55
280
     0
102
RTVSPost2010PropOp55
 70
     1
102
RTVSPost2010Prop56
140
1.0
102
RTVSPost2010PropOp56
 70
     1
102
RTVSPost2010Prop57
140
1.0
102
RTVSPost2010PropOp57
 70
     1
102
RTVSPropertyOp0
 70
     1
102
RTVSPropertyOp1
 70
     1
102
RTVSPropertyOp2
 70
     1
102
RTVSPropertyOp3
 70
     1
102
RTVSPropertyOp4
 70
     1
102
RTVSPropertyOp5
 70
     1
102
RTVSPropertyOp6
 70
     1
102
RTVSPropertyOp7
 70
     1
102
RTVSPropertyOp8
 70
     1
102
RTVSPropertyOp9
 70
     1
102
RTVSPropertyOp10
 70
     1
102
RTVSPropertyOp11
 70
     1
102
RTVSPropertyOp12
 70
     1
102
RTVSPropertyOp13
 70
     1
102
RTVSPropertyOp14
 70
     1
102
RTVSPropertyOp15
 70
     1
102
RTVSPropertyOp16
 70
     1
102
RTVSPropertyOp17
 70
     1
102
RTVSPropertyOp18
 70
     1
102
RTVSPropertyOp19
 70
     1
102
RTVSPropertyOp20
 70
     1
102
RTVSPropertyOp21
 70
     1
102
RTVSPropertyOp22
 70
     1
102
RTVSPropertyOp23
 70
     1
102
RTVSPropertyOp24
 70
     1
102
RTVSPropertyOp25
 70
     1
102
RTVSPropertyOp26
 70
     1
102
RTVSPropertyOp27
 70
     1
102
RTVSPropertyOp28
 70
     1
102
RTVSPropertyOp29
 70
     1
102
RTVSPropertyOp30
 70
     1
102
RTVSPropertyOp31
 70
     1
102
RTVSPropertyOp32
 70
     1
102
RTVSPropertyOp33
 70
     1
102
RTVSPropertyOp34
 70
     1
102
RTVSPropertyOp35
 70
     1
102
RTVSPropertyOp36
 70
     1
102
RTVSPropertyOp37
 70
     1
102
RTVSPropertyOp38
 70
     1
102
RTVSPropertyOp39
 70
     1
102
RTVSPropertyOp40
 70
     1
102
RTVSPropertyOp41
 70
     1
102
RTVSPropertyOp42
 70
     1
102
RTVSPropertyOp43
 70
     1
102
RTVSPropertyOp44
 70
     1
102
RTVSPropertyOp45
 70
     1
102
RTVSPropertyOp46
 70
     1
102
RTVSPropertyOp47
 70
     1
102
RTVSPropertyOp48
 70
     1
102
RTVSPropertyOp49
 70
     1
102
RTVSPropertyOp50
 70
     1
102
RTVSPropertyOp51
 70
     0
102
RTVSPropertyOp52
 70
     0
102
RTVSPropertyOp53
 70
     1
102
RTVSPropertyOp54
 70
     1
102
RTVSPropertyOp55
 70
     1
102
RTVSPropertyOp56
 70
     1
102
RTVSPropertyOp57
 70
     1
102
RTVSPropertyOp58
 70
     1
102
RTVSPropertyOp59
 70
     1
102
RTVSPropertyOp60
 70
     1
102
RTVSPropertyOp61
 70
     1
102
RTVSPropertyOp62
 70
     1
  0
ENDSEC
  0
EOF
