  0
SECTION
  2
HEADER
  9
$ACADVER
  1
AC1024
  9
$ACADMAINTVER
 70
    10
  9
$DWGCODEPAGE
  3
ANSI_936
  9
$LASTSAVEDBY
  1
Benz
  9
$INSBASE
 10
0.0
 20
0.0
 30
0.0
  9
$EXTMIN
 10
-11.38526001690206
 20
97.73055686351927
 30
0.0
  9
$EXTMAX
 10
877.8801518812706
 20
681.8142855301248
 30
0.0
  9
$LIMMIN
 10
0.0
 20
0.0
  9
$LIMMAX
 10
420.0
 20
297.0
  9
$ORTHOMODE
 70
     0
  9
$REGENMODE
 70
     1
  9
$FILLMODE
 70
     1
  9
$QTEXTMODE
 70
     0
  9
$MIRRTEXT
 70
     1
  9
$LTSCALE
 40
1.0
  9
$ATTMODE
 70
     1
  9
$TEXTSIZE
 40
2.5
  9
$TRACEWID
 40
1.0
  9
$TEXTSTYLE
  7
Standard
  9
$CLAYER
  8
图层3
  9
$CELTYPE
  6
ByLayer
  9
$CECOLOR
 62
   256
  9
$CELTSCALE
 40
1.0
  9
$DISPSILH
 70
     0
  9
$DIMSCALE
 40
1.0
  9
$DIMASZ
 40
9.0
  9
$DIMEXO
 40
1.199999999999999
  9
$DIMDLI
 40
3.75
  9
$DIMRND
 40
0.0
  9
$DIMDLE
 40
0.0
  9
$DIMEXE
 40
1.25
  9
$DIMTP
 40
0.0
  9
$DIMTM
 40
0.0
  9
$DIMTXT
 40
9.0
  9
$DIMCEN
 40
210.0
  9
$DIMTSZ
 40
0.0
  9
$DIMTOL
 70
     0
  9
$DIMLIM
 70
     0
  9
$DIMTIH
 70
     0
  9
$DIMTOH
 70
     1
  9
$DIMSE1
 70
     0
  9
$DIMSE2
 70
     0
  9
$DIMTAD
 70
     1
  9
$DIMZIN
 70
     8
  9
$DIMBLK
  1

  9
$DIMASO
 70
     1
  9
$DIMSHO
 70
     1
  9
$DIMPOST
  1

  9
$DIMAPOST
  1

  9
$DIMALT
 70
     1
  9
$DIMALTD
 70
     3
  9
$DIMALTF
 40
0.03937007874016
  9
$DIMLFAC
 40
1.0
  9
$DIMTOFL
 70
     1
  9
$DIMTVP
 40
0.0
  9
$DIMTIX
 70
     0
  9
$DIMSOXD
 70
     0
  9
$DIMSAH
 70
     0
  9
$DIMBLK1
  1

  9
$DIMBLK2
  1

  9
$DIMSTYLE
  2
ISO-25
  9
$DIMCLRD
 70
     0
  9
$DIMCLRE
 70
     0
  9
$DIMCLRT
 70
     0
  9
$DIMTFAC
 40
1.0
  9
$DIMGAP
 40
3.0
  9
$DIMJUST
 70
     0
  9
$DIMSD1
 70
     0
  9
$DIMSD2
 70
     0
  9
$DIMTOLJ
 70
     0
  9
$DIMTZIN
 70
     8
  9
$DIMALTZ
 70
     0
  9
$DIMALTTZ
 70
     0
  9
$DIMUPT
 70
     0
  9
$DIMDEC
 70
     2
  9
$DIMTDEC
 70
     2
  9
$DIMALTU
 70
     7
  9
$DIMALTTD
 70
     3
  9
$DIMTXSTY
  7
Standard
  9
$DIMAUNIT
 70
     0
  9
$DIMADEC
 70
     0
  9
$DIMALTRND
 40
0.0
  9
$DIMAZIN
 70
     0
  9
$DIMDSEP
 70
    46
  9
$DIMATFIT
 70
     3
  9
$DIMFRAC
 70
     0
  9
$DIMLDRBLK
  1

  9
$DIMLUNIT
 70
     2
  9
$DIMLWD
 70
    -2
  9
$DIMLWE
 70
    -2
  9
$DIMTMOVE
 70
     0
  9
$DIMFXL
 40
1.0
  9
$DIMFXLON
 70
     0
  9
$DIMJOGANG
 40
0.7853981633974483
  9
$DIMTFILL
 70
     0
  9
$DIMTFILLCLR
 70
     0
  9
$DIMARCSYM
 70
     0
  9
$DIMLTYPE
  6

  9
$DIMLTEX1
  6

  9
$DIMLTEX2
  6

  9
$DIMTXTDIRECTION
 70
     0
  9
$LUNITS
 70
     2
  9
$LUPREC
 70
     4
  9
$SKETCHINC
 40
1.0
  9
$FILLETRAD
 40
40.0
  9
$AUNITS
 70
     0
  9
$AUPREC
 70
     0
  9
$MENU
  1
.
  9
$ELEVATION
 40
0.0
  9
$PELEVATION
 40
0.0
  9
$THICKNESS
 40
0.0
  9
$LIMCHECK
 70
     0
  9
$CHAMFERA
 40
10.0
  9
$CHAMFERB
 40
10.0
  9
$CHAMFERC
 40
20.0
  9
$CHAMFERD
 40
0.0
  9
$SKPOLY
 70
     0
  9
$TDCREATE
 40
2453396.485675232
  9
$TDUCREATE
 40
2453396.152341898
  9
$TDUPDATE
 40
2456227.642344028
  9
$TDUUPDATE
 40
2456227.309010694
  9
$TDINDWG
 40
0.3930003472
  9
$TDUSRTIMER
 40
0.3930002315
  9
$USRTIMER
 70
     1
  9
$ANGBASE
 50
0.0
  9
$ANGDIR
 70
     0
  9
$PDMODE
 70
     0
  9
$PDSIZE
 40
0.0
  9
$PLINEWID
 40
0.0
  9
$SPLFRAME
 70
     0
  9
$SPLINETYPE
 70
     6
  9
$SPLINESEGS
 70
     8
  9
$HANDSEED
  5
1EDE
  9
$SURFTAB1
 70
     6
  9
$SURFTAB2
 70
     6
  9
$SURFTYPE
 70
     6
  9
$SURFU
 70
     6
  9
$SURFV
 70
     6
  9
$UCSBASE
  2

  9
$UCSNAME
  2

  9
$UCSORG
 10
0.0
 20
0.0
 30
0.0
  9
$UCSXDIR
 10
1.0
 20
0.0
 30
0.0
  9
$UCSYDIR
 10
0.0
 20
1.0
 30
0.0
  9
$UCSORTHOREF
  2

  9
$UCSORTHOVIEW
 70
     0
  9
$UCSORGTOP
 10
0.0
 20
0.0
 30
0.0
  9
$UCSORGBOTTOM
 10
0.0
 20
0.0
 30
0.0
  9
$UCSORGLEFT
 10
0.0
 20
0.0
 30
0.0
  9
$UCSORGRIGHT
 10
0.0
 20
0.0
 30
0.0
  9
$UCSORGFRONT
 10
0.0
 20
0.0
 30
0.0
  9
$UCSORGBACK
 10
0.0
 20
0.0
 30
0.0
  9
$PUCSBASE
  2

  9
$PUCSNAME
  2

  9
$PUCSORG
 10
0.0
 20
0.0
 30
0.0
  9
$PUCSXDIR
 10
1.0
 20
0.0
 30
0.0
  9
$PUCSYDIR
 10
0.0
 20
1.0
 30
0.0
  9
$PUCSORTHOREF
  2

  9
$PUCSORTHOVIEW
 70
     0
  9
$PUCSORGTOP
 10
0.0
 20
0.0
 30
0.0
  9
$PUCSORGBOTTOM
 10
0.0
 20
0.0
 30
0.0
  9
$PUCSORGLEFT
 10
0.0
 20
0.0
 30
0.0
  9
$PUCSORGRIGHT
 10
0.0
 20
0.0
 30
0.0
  9
$PUCSORGFRONT
 10
0.0
 20
0.0
 30
0.0
  9
$PUCSORGBACK
 10
0.0
 20
0.0
 30
0.0
  9
$USERI1
 70
     0
  9
$USERI2
 70
     0
  9
$USERI3
 70
     0
  9
$USERI4
 70
     0
  9
$USERI5
 70
     0
  9
$USERR1
 40
0.0
  9
$USERR2
 40
0.0
  9
$USERR3
 40
0.0
  9
$USERR4
 40
0.0
  9
$USERR5
 40
0.0
  9
$WORLDVIEW
 70
     1
  9
$SHADEDGE
 70
     3
  9
$SHADEDIF
 70
    70
  9
$TILEMODE
 70
     1
  9
$MAXACTVP
 70
    64
  9
$PINSBASE
 10
0.0
 20
0.0
 30
0.0
  9
$PLIMCHECK
 70
     0
  9
$PEXTMIN
 10
0.0
 20
0.0
 30
0.0
  9
$PEXTMAX
 10
0.0
 20
0.0
 30
0.0
  9
$PLIMMIN
 10
0.0
 20
0.0
  9
$PLIMMAX
 10
12.0
 20
9.0
  9
$UNITMODE
 70
     0
  9
$VISRETAIN
 70
     1
  9
$PLINEGEN
 70
     0
  9
$PSLTSCALE
 70
     1
  9
$TREEDEPTH
 70
  3020
  9
$CMLSTYLE
  2
Standard
  9
$CMLJUST
 70
     0
  9
$CMLSCALE
 40
20.0
  9
$PROXYGRAPHICS
 70
     1
  9
$MEASUREMENT
 70
     1
  9
$CELWEIGHT
370
    -1
  9
$ENDCAPS
280
     0
  9
$JOINSTYLE
280
     0
  9
$LWDISPLAY
290
     0
  9
$INSUNITS
 70
     4
  9
$HYPERLINKBASE
  1

  9
$STYLESHEET
  1

  9
$XEDIT
290
     1
  9
$CEPSNTYPE
380
     0
  9
$PSTYLEMODE
290
     1
  9
$FINGERPRINTGUID
  2
{FDEAD578-A652-11D2-9A35-0060089B3A3F}
  9
$VERSIONGUID
  2
{DA499662-91B1-443D-86B3-9FBAC5E95585}
  9
$EXTNAMES
290
     1
  9
$PSVPSCALE
 40
0.0
  9
$OLESTARTUP
290
     0
  9
$SORTENTS
280
   127
  9
$INDEXCTL
280
     0
  9
$HIDETEXT
280
     1
  9
$XCLIPFRAME
280
     0
  9
$HALOGAP
280
     0
  9
$OBSCOLOR
 70
   257
  9
$OBSLTYPE
280
     0
  9
$INTERSECTIONDISPLAY
280
     0
  9
$INTERSECTIONCOLOR
 70
   257
  9
$DIMASSOC
280
     2
  9
$PROJECTNAME
  1

  9
$CAMERADISPLAY
290
     0
  9
$LENSLENGTH
 40
50.0
  9
$CAMERAHEIGHT
 40
0.0
  9
$STEPSPERSEC
 40
2.0
  9
$STEPSIZE
 40
6.0
  9
$3DDWFPREC
 40
2.0
  9
$PSOLWIDTH
 40
0.25
  9
$PSOLHEIGHT
 40
4.0
  9
$LOFTANG1
 40
1.570796326794896
  9
$LOFTANG2
 40
1.570796326794896
  9
$LOFTMAG1
 40
0.0
  9
$LOFTMAG2
 40
0.0
  9
$LOFTPARAM
 70
     7
  9
$LOFTNORMALS
280
     1
  9
$LATITUDE
 40
37.795
  9
$LONGITUDE
 40
-122.394
  9
$NORTHDIRECTION
 40
0.0
  9
$TIMEZONE
 70
 -8000
  9
$LIGHTGLYPHDISPLAY
280
     1
  9
$TILEMODELIGHTSYNCH
280
     1
  9
$CMATERIAL
347
1E87
  9
$SOLIDHIST
280
     1
  9
$SHOWHIST
280
     1
  9
$DWFFRAME
280
     2
  9
$DGNFRAME
280
     0
  9
$REALWORLDSCALE
290
     1
  9
$INTERFERECOLOR
 62
     1
  9
$INTERFEREOBJVS
345
1EA9
  9
$INTERFEREVPVS
346
1EA6
  9
$CSHADOW
280
     0
  9
$SHADOWPLANELOCATION
 40
0.0
  0
ENDSEC
  0
SECTION
  2
CLASSES
  0
CLASS
  1
ACDBDICTIONARYWDFLT
  2
AcDbDictionaryWithDefault
  3
ObjectDBX Classes
 90
        0
 91
        1
280
     0
281
     0
  0
CLASS
  1
DICTIONARYVAR
  2
AcDbDictionaryVar
  3
ObjectDBX Classes
 90
        0
 91
        9
280
     0
281
     0
  0
CLASS
  1
DIMASSOC
  2
AcDbDimAssoc
  3
"AcDbDimAssoc|Product Desc:     AcDim ARX App For Dimension|Company:          Autodesk, Inc.|WEB Address:      www.autodesk.com"
 90
        0
 91
        3
280
     0
281
     0
  0
CLASS
  1
TABLESTYLE
  2
AcDbTableStyle
  3
ObjectDBX Classes
 90
     4095
 91
        1
280
     0
281
     0
  0
CLASS
  1
SORTENTSTABLE
  2
AcDbSortentsTable
  3
ObjectDBX Classes
 90
        0
 91
        1
280
     0
281
     0
  0
CLASS
  1
MATERIAL
  2
AcDbMaterial
  3
ObjectDBX Classes
 90
     1153
 91
        3
280
     0
281
     0
  0
CLASS
  1
VISUALSTYLE
  2
AcDbVisualStyle
  3
ObjectDBX Classes
 90
     4095
 91
       19
280
     0
281
     0
  0
CLASS
  1
SCALE
  2
AcDbScale
  3
ObjectDBX Classes
 90
     1153
 91
       17
280
     0
281
     0
  0
CLASS
  1
MLEADERSTYLE
  2
AcDbMLeaderStyle
  3
ACDB_MLEADERSTYLE_CLASS
 90
     4095
 91
        1
280
     0
281
     0
  0
CLASS
  1
CELLSTYLEMAP
  2
AcDbCellStyleMap
  3
ObjectDBX Classes
 90
     1152
 91
        1
280
     0
281
     0
  0
ENDSEC
  0
SECTION
  2
TABLES
  0
TABLE
  2
VPORT
  5
8
330
0
100
AcDbSymbolTable
 70
     1
  0
VPORT
  5
1E85
330
8
100
AcDbSymbolTableRecord
100
AcDbViewportTableRecord
  2
*Active
 70
     0
 10
0.0
 20
0.0
 11
1.0
 21
1.0
 12
482.9839456508119
 22
463.8396540140218
 13
0.0
 23
0.0
 14
10.0
 24
10.0
 15
10.0
 25
10.0
 16
0.0
 26
0.0
 36
1.0
 17
0.0
 27
0.0
 37
0.0
 40
447.2681601591689
 41
2.637741046831955
 42
50.0
 43
0.0
 44
0.0
 50
0.0
 51
0.0
 71
     0
 72
 10000
 73
     1
 74
     3
 75
     0
 76
     0
 77
     0
 78
     0
281
     0
 65
     1
110
0.0
120
0.0
130
0.0
111
1.0
121
0.0
131
0.0
112
0.0
122
1.0
132
0.0
 79
     0
146
0.0
348
1EA5
 60
     3
 61
     5
292
     1
282
     1
141
0.0
142
0.0
 63
   250
421
  3355443
  0
ENDTAB
  0
TABLE
  2
LTYPE
  5
5
330
0
100
AcDbSymbolTable
 70
     5
  0
LTYPE
  5
14
330
5
100
AcDbSymbolTableRecord
100
AcDbLinetypeTableRecord
  2
ByBlock
 70
     0
  3

 72
    65
 73
     0
 40
0.0
  0
LTYPE
  5
15
330
5
100
AcDbSymbolTableRecord
100
AcDbLinetypeTableRecord
  2
ByLayer
 70
     0
  3

 72
    65
 73
     0
 40
0.0
  0
LTYPE
  5
16
330
5
100
AcDbSymbolTableRecord
100
AcDbLinetypeTableRecord
  2
Continuous
 70
     0
  3
Solid line
 72
    65
 73
     0
 40
0.0
  0
LTYPE
  5
33B
330
5
100
AcDbSymbolTableRecord
100
AcDbLinetypeTableRecord
  2
CENTER2
 70
     0
  3
Center (.5x) ___ _ ___ _ ___ _ ___ _ ___ _ ___
 72
    65
 73
     4
 40
28.575
 49
19.05
 74
     0
 49
-3.174999999999999
 74
     0
 49
3.174999999999999
 74
     0
 49
-3.174999999999999
 74
     0
  0
LTYPE
  5
8F5
330
5
100
AcDbSymbolTableRecord
100
AcDbLinetypeTableRecord
  2
DASHED2
 70
     0
  3
Dashed (.5x) _ _ _ _ _ _ _ _ _ _ _ _ _ _ _ _ _
 72
    65
 73
     2
 40
9.524999999999998
 49
6.349999999999999
 74
     0
 49
-3.174999999999999
 74
     0
  0
LTYPE
  5
1605
330
5
100
AcDbSymbolTableRecord
100
AcDbLinetypeTableRecord
  2
CENTER
 70
     0
  3
Center ____ _ ____ _ ____ _ ____ _ ____ _ ____
 72
    65
 73
     4
 40
50.8
 49
31.75
 74
     0
 49
-6.349999999999999
 74
     0
 49
6.349999999999999
 74
     0
 49
-6.349999999999999
 74
     0
  0
LTYPE
  5
1CC1
330
5
100
AcDbSymbolTableRecord
100
AcDbLinetypeTableRecord
  2
ACAD_ISO02W100
 70
     0
  3
ISO dash __ __ __ __ __ __ __ __ __ __ __ __ __
 72
    65
 73
     2
 40
15.0
 49
12.0
 74
     0
 49
-3.0
 74
     0
  0
ENDTAB
  0
TABLE
  2
LAYER
  5
2
102
{ACAD_XDICTIONARY
360
1CBD
102
}
330
0
100
AcDbSymbolTable
 70
     5
  0
LAYER
  5
10
102
{ACAD_XDICTIONARY
360
1ECD
102
}
330
2
100
AcDbSymbolTableRecord
100
AcDbLayerTableRecord
  2
0
 70
     0
 62
     7
  6
Continuous
370
    -3
390
F
347
1E97
  0
LAYER
  5
71
102
{ACAD_XDICTIONARY
360
1ECF
102
}
330
2
100
AcDbSymbolTableRecord
100
AcDbLayerTableRecord
  2
图层1
 70
     0
 62
     7
  6
ACAD_ISO02W100
370
    18
390
F
347
1E97
  0
LAYER
  5
72
102
{ACAD_XDICTIONARY
360
1ED1
102
}
330
2
100
AcDbSymbolTableRecord
100
AcDbLayerTableRecord
  2
图层2
 70
     0
 62
     7
  6
Continuous
370
    30
390
F
347
1E97
  0
LAYER
  5
73
102
{ACAD_XDICTIONARY
360
1ED3
102
}
330
2
100
AcDbSymbolTableRecord
100
AcDbLayerTableRecord
  2
图层3
 70
     0
 62
     7
  6
Continuous
370
    18
390
F
347
1E97
  0
LAYER
  5
99
330
2
100
AcDbSymbolTableRecord
100
AcDbLayerTableRecord
  2
Defpoints
 70
     0
 62
     7
  6
Continuous
290
     0
370
    -3
390
F
347
1E97
  0
ENDTAB
  0
TABLE
  2
STYLE
  5
3
330
0
100
AcDbSymbolTable
 70
     2
  0
STYLE
  5
11
330
3
100
AcDbSymbolTableRecord
100
AcDbTextStyleTableRecord
  2
Standard
 70
     0
 40
0.0
 41
1.0
 50
0.0
 71
     0
 42
2.5
  3
txt
  4

  0
STYLE
  5
33A
330
3
100
AcDbSymbolTableRecord
100
AcDbTextStyleTableRecord
  2

 70
     1
 40
0.0
 41
1.0
 50
0.0
 71
     0
 42
2.5
  3
ltypeshp.shx
  4

  0
ENDTAB
  0
TABLE
  2
VIEW
  5
6
330
0
100
AcDbSymbolTable
 70
     0
  0
ENDTAB
  0
TABLE
  2
UCS
  5
7
330
0
100
AcDbSymbolTable
 70
     0
  0
ENDTAB
  0
TABLE
  2
APPID
  5
9
330
0
100
AcDbSymbolTable
 70
     2
  0
APPID
  5
12
330
9
100
AcDbSymbolTableRecord
100
AcDbRegAppTableRecord
  2
ACAD
 70
     0
  0
APPID
  5
1D17
330
9
100
AcDbSymbolTableRecord
100
AcDbRegAppTableRecord
  2
ACAD_DSTYLE_DIMTEXT_FILL
 70
     0
  0
ENDTAB
  0
TABLE
  2
DIMSTYLE
  5
A
330
0
100
AcDbSymbolTable
 70
     1
100
AcDbDimStyleTable
 71
     1
340
27
  0
DIMSTYLE
105
27
102
{ACAD_REACTORS
330
1CEF
330
1E46
330
1E5E
102
}
330
A
100
AcDbSymbolTableRecord
100
AcDbDimStyleTableRecord
  2
ISO-25
 70
     0
 41
9.0
 42
1.199999999999999
 43
3.75
 44
1.25
 73
     0
 77
     1
 78
     8
140
9.0
141
210.0
143
0.03937007874016
147
3.0
170
     1
171
     3
172
     1
271
     2
272
     2
273
     7
274
     3
283
     0
284
     8
340
11
  0
ENDTAB
  0
TABLE
  2
BLOCK_RECORD
  5
1
330
0
100
AcDbSymbolTable
 70
    14
  0
BLOCK_RECORD
  5
1F
102
{ACAD_XDICTIONARY
360
1CBA
102
}
330
1
100
AcDbSymbolTableRecord
100
AcDbBlockTableRecord
  2
*Model_Space
340
22
 70
     0
280
     1
281
     0
  0
BLOCK_RECORD
  5
50
330
1
100
AcDbSymbolTableRecord
100
AcDbBlockTableRecord
  2
*Paper_Space
340
51
 70
     0
280
     1
281
     0
  0
BLOCK_RECORD
  5
55
330
1
100
AcDbSymbolTableRecord
100
AcDbBlockTableRecord
  2
*Paper_Space0
340
56
 70
     0
280
     1
281
     0
  0
BLOCK_RECORD
  5
221
330
1
100
AcDbSymbolTableRecord
100
AcDbBlockTableRecord
  2
a
340
0
 70
     0
280
     1
281
     0
  0
BLOCK_RECORD
  5
1CF0
330
1
100
AcDbSymbolTableRecord
100
AcDbBlockTableRecord
  2
*D9
340
0
 70
     0
280
     1
281
     0
  0
BLOCK_RECORD
  5
1E47
330
1
100
AcDbSymbolTableRecord
100
AcDbBlockTableRecord
  2
*D12
340
0
 70
     0
280
     1
281
     0
  0
BLOCK_RECORD
  5
1E5F
330
1
100
AcDbSymbolTableRecord
100
AcDbBlockTableRecord
  2
*D13
340
0
 70
     0
280
     1
281
     0
  0
ENDTAB
  0
ENDSEC
  0
SECTION
  2
BLOCKS
  0
BLOCK
  5
20
330
1F
100
AcDbEntity
  8
0
100
AcDbBlockBegin
  2
*Model_Space
 70
     0
 10
0.0
 20
0.0
 30
0.0
  3
*Model_Space
  1

  0
ENDBLK
  5
21
330
1F
100
AcDbEntity
  8
0
100
AcDbBlockEnd
  0
BLOCK
  5
52
330
50
100
AcDbEntity
 67
     1
  8
0
100
AcDbBlockBegin
  2
*Paper_Space
 70
     0
 10
0.0
 20
0.0
 30
0.0
  3
*Paper_Space
  1

  0
ENDBLK
  5
53
330
50
100
AcDbEntity
 67
     1
  8
0
100
AcDbBlockEnd
  0
BLOCK
  5
57
330
55
100
AcDbEntity
 67
     1
  8
0
100
AcDbBlockBegin
  2
*Paper_Space0
 70
     0
 10
0.0
 20
0.0
 30
0.0
  3
*Paper_Space0
  1

  0
ENDBLK
  5
58
330
55
100
AcDbEntity
 67
     1
  8
0
100
AcDbBlockEnd
  0
BLOCK
  5
234
330
221
100
AcDbEntity
  8
0
100
AcDbBlockBegin
  2
a
 70
     0
 10
0.0
 20
0.0
 30
0.0
  3
a
  1

  0
LINE
  5
222
330
221
100
AcDbEntity
  8
图层3
100
AcDbLine
 10
-51.58183479263425
 20
5.069342261306474
 30
0.0
 11
128.4181652073657
 21
5.069342261306474
 31
0.0
  0
LINE
  5
223
330
221
100
AcDbEntity
  8
图层3
100
AcDbLine
 10
-51.58183479263425
 20
-4.930657738693525
 30
0.0
 11
128.4181652073657
 21
-4.930657738693525
 31
0.0
  0
LINE
  5
224
330
221
100
AcDbEntity
  8
图层3
100
AcDbLine
 10
-51.58183479263425
 20
-14.93065773869352
 30
0.0
 11
128.4181652073657
 21
-14.93065773869352
 31
0.0
  0
LINE
  5
225
330
221
100
AcDbEntity
  8
图层3
100
AcDbLine
 10
-51.58183479263425
 20
-24.93065773869353
 30
0.0
 11
128.4181652073657
 21
-24.93065773869353
 31
0.0
  0
LINE
  5
226
330
221
100
AcDbEntity
  8
图层3
100
AcDbLine
 10
-51.58183479263425
 20
-34.93065773869353
 30
0.0
 11
128.4181652073657
 21
-34.93065773869353
 31
0.0
  0
LINE
  5
227
330
221
100
AcDbEntity
  8
图层3
100
AcDbLine
 10
-51.58183479263425
 20
5.069342261306474
 30
0.0
 11
-51.58183479263425
 21
-34.93065773869353
 31
0.0
  0
LINE
  5
228
330
221
100
AcDbEntity
  8
图层3
100
AcDbLine
 10
128.4181652073657
 20
5.069342261306474
 30
0.0
 11
128.4181652073657
 21
-34.93065773869353
 31
0.0
  0
LINE
  5
229
330
221
100
AcDbEntity
  8
图层3
100
AcDbLine
 10
-31.58183479263426
 20
-4.930657738693525
 30
0.0
 11
-31.58183479263426
 21
-34.93065773869353
 31
0.0
  0
LINE
  5
22A
330
221
100
AcDbEntity
  8
图层3
100
AcDbLine
 10
78.41816520736575
 20
-4.930657738693469
 30
0.0
 11
78.41816520736575
 21
-24.93065773869353
 31
0.0
  0
LINE
  5
22B
330
221
100
AcDbEntity
  8
图层3
100
AcDbLine
 10
58.41816520736575
 20
-4.930657738693525
 30
0.0
 11
58.41816520736575
 21
-34.93065773869353
 31
0.0
  0
LINE
  5
22C
330
221
100
AcDbEntity
  8
图层3
100
AcDbLine
 10
38.41816520736586
 20
-24.93065773869364
 30
0.0
 11
38.41816520736575
 21
-34.93065773869364
 31
0.0
  0
MTEXT
  5
22D
330
221
100
AcDbEntity
  8
图层3
100
AcDbMText
 10
-7.991267257440085
 20
3.638071533116089
 30
0.0
 40
5.0
 41
129.0054
 46
0.0
 71
     1
 72
     5
  1
{\f幼圆|b0|i0|c134|p49;江门市蓬江区荷塘合和五金厂}
 73
     1
 44
1.0
  0
MTEXT
  5
22E
330
221
100
AcDbEntity
  8
图层3
100
AcDbMText
 10
-48.26895764370283
 20
-6.568323419867056
 30
0.0
 40
5.0
 41
16.6364
 46
0.0
 71
     1
 72
     5
  1
{\f幼圆|b0|i0|c134|p49;名称}
 73
     1
 44
1.0
  0
MTEXT
  5
22F
330
221
100
AcDbEntity
  8
图层3
100
AcDbMText
 10
-47.9770915309241
 20
-16.19149345429582
 30
0.0
 40
5.0
 41
15.1771
 46
0.0
 71
     1
 72
     5
  1
{\f幼圆|b0|i0|c134|p49;材料}
 73
     1
 44
1.0
  0
MTEXT
  5
230
330
221
100
AcDbEntity
  8
图层3
100
AcDbMText
 10
-48.26895764370283
 20
-26.10627442497457
 30
0.0
 40
5.0
 41
16.3446
 46
0.0
 71
     1
 72
     5
  1
{\f幼圆|b0|i0|c134|p49;日期}
 73
     1
 44
1.0
  0
MTEXT
  5
231
330
221
100
AcDbEntity
  8
图层3
100
AcDbMText
 10
61.76502632027404
 20
-6.276710960589753
 30
0.0
 40
5.0
 41
16.3446
 46
0.0
 71
     1
 72
     5
  1
{\f幼圆|b0|i0|c134|p49;型号}
 73
     1
 44
1.0
  0
MTEXT
  5
232
330
221
100
AcDbEntity
  8
图层3
100
AcDbMText
 10
61.76502632027404
 20
-16.19149193126873
 30
0.0
 40
5.0
 41
16.0527
 46
0.0
 71
     1
 72
     5
  1
{\f幼圆|b0|i0|c134|p49;图号}
 73
     1
 44
1.0
  0
MTEXT
  5
233
330
221
100
AcDbEntity
  8
图层3
100
AcDbMText
 10
41.62617975974217
 20
-26.10627594800144
 30
0.0
 40
5.0
 41
16.9283
 46
0.0
 71
     1
 72
     5
  1
{\f幼圆|b0|i0|c134|p49;编号}
 73
     1
 44
1.0
  0
ENDBLK
  5
235
330
221
100
AcDbEntity
  8
0
100
AcDbBlockEnd
  0
BLOCK
  5
1CFA
330
1CF0
100
AcDbEntity
  8
0
100
AcDbBlockBegin
  2
*D9
 70
     1
 10
0.0
 20
0.0
 30
0.0
  3
*D9
  1

  0
LINE
  5
1E1F
330
1CF0
100
AcDbEntity
  8
图层3
 62
     0
370
    -2
100
AcDbLine
 10
696.0303485384182
 20
552.4666987683628
 30
0.0
 11
580.5303485384181
 21
552.4666987683628
 31
0.0
  0
LINE
  5
1E20
330
1CF0
100
AcDbEntity
  8
图层3
 62
     0
370
    -2
100
AcDbLine
 10
580.5303485384181
 20
552.4666987683628
 30
0.0
 11
566.6191282214554
 21
536.8508220326768
 31
0.0
  0
LINE
  5
1E21
330
1CF0
100
AcDbEntity
  8
图层3
 62
     0
370
    -2
100
AcDbLine
 10
308.5306258652632
 20
247.136609486006
 30
0.0
 11
302.5440368930834
 21
240.4164344527069
 31
0.0
  0
MTEXT
  5
1E22
330
1CF0
100
AcDbEntity
  8
图层3
 62
     0
100
AcDbMText
 10
639.7803485384181
 20
559.9666987683629
 30
0.0
 40
9.0
 41
0.0
 46
0.0
 71
     5
 72
     1
  1
∅370 [∅14 5/8]
 73
     1
 44
1.0
  0
LINE
  5
1E23
330
1CF0
100
AcDbEntity
  8
图层3
 62
     0
370
    -2
100
AcDbLine
 10
314.5172148374429
 20
253.8567845193051
 30
0.0
 11
560.6325392492756
 21
530.1306469993777
 31
0.0
  0
SOLID
  5
1E24
330
1CF0
100
AcDbEntity
  8
图层3
 62
     0
100
AcDbTrace
 10
307.4105966930467
 20
248.1343743147026
 30
0.0
 11
309.6506550374797
 21
246.1388446573094
 31
0.0
 12
314.5172148374429
 22
253.8567845193051
 32
0.0
 13
314.5172148374429
 23
253.8567845193051
 33
0.0
  0
SOLID
  5
1E25
330
1CF0
100
AcDbEntity
  8
图层3
 62
     0
100
AcDbTrace
 10
565.4990990492389
 20
537.8485868613735
 30
0.0
 11
567.7391573936719
 21
535.8530572039803
 31
0.0
 12
560.6325392492756
 22
530.1306469993777
 32
0.0
 13
560.6325392492756
 23
530.1306469993777
 33
0.0
  0
POINT
  5
1E26
330
1CF0
100
AcDbEntity
  8
Defpoints
 62
     0
100
AcDbPoint
 10
560.6325392492756
 20
530.1306469993777
 30
0.0
  0
POINT
  5
1E27
330
1CF0
100
AcDbEntity
  8
Defpoints
 62
     0
100
AcDbPoint
 10
314.5172148374429
 20
253.8567845193051
 30
0.0
  0
ENDBLK
  5
1CFB
330
1CF0
100
AcDbEntity
  8
0
100
AcDbBlockEnd
  0
BLOCK
  5
1E51
330
1E47
100
AcDbEntity
  8
0
100
AcDbBlockBegin
  2
*D12
 70
     1
 10
0.0
 20
0.0
 30
0.0
  3
*D12
  1

  0
LINE
  5
1E54
330
1E47
100
AcDbEntity
  8
图层3
 62
     0
370
    -2
100
AcDbLine
 10
205.9127108054582
 20
557.7810593010062
 30
0.0
 11
285.4127108054582
 21
557.7810593010062
 31
0.0
  0
LINE
  5
1E55
330
1E47
100
AcDbEntity
  8
图层3
 62
     0
370
    -2
100
AcDbLine
 10
285.4127108054582
 20
557.7810593010062
 30
0.0
 11
303.0141909609544
 21
538.6034758745278
 31
0.0
  0
LINE
  5
1E56
330
1E47
100
AcDbEntity
  8
图层3
 62
     0
370
    -2
100
AcDbLine
 10
572.1355631257641
 20
245.3839556441552
 30
0.0
 11
578.2212222953202
 21
238.7533634781418
 31
0.0
  0
MTEXT
  5
1E57
330
1E47
100
AcDbEntity
  8
图层3
 62
     0
100
AcDbMText
 10
244.1627108054582
 20
565.2810593010062
 30
0.0
 40
9.0
 41
0.0
 46
0.0
 71
     5
 72
     1
  1
∅380 [∅15]
 73
     1
 44
1.0
  0
LINE
  5
1E58
330
1E47
100
AcDbEntity
  8
图层3
 62
     0
370
    -2
100
AcDbLine
 10
566.0499039562082
 20
252.0145478101686
 30
0.0
 11
309.0998501305104
 21
531.9728837085143
 31
0.0
  0
SOLID
  5
1E59
330
1E47
100
AcDbEntity
  8
图层3
 62
     0
100
AcDbTrace
 10
573.2406618200998
 20
246.3982321724146
 30
0.0
 11
571.0304644314286
 21
244.3696791158959
 31
0.0
 12
566.0499039562082
 22
252.0145478101686
 32
0.0
 13
566.0499039562082
 23
252.0145478101686
 33
0.0
  0
SOLID
  5
1E5A
330
1E47
100
AcDbEntity
  8
图层3
 62
     0
100
AcDbTrace
 10
304.1192896552899
 20
539.6177524027871
 30
0.0
 11
301.9090922666188
 21
537.5891993462685
 31
0.0
 12
309.0998501305104
 22
531.9728837085143
 32
0.0
 13
309.0998501305104
 23
531.9728837085143
 33
0.0
  0
POINT
  5
1E5B
330
1E47
100
AcDbEntity
  8
Defpoints
 62
     0
100
AcDbPoint
 10
309.0998501305104
 20
531.9728837085143
 30
0.0
  0
POINT
  5
1E5C
330
1E47
100
AcDbEntity
  8
Defpoints
 62
     0
100
AcDbPoint
 10
566.0499039562082
 20
252.0145478101686
 30
0.0
  0
ENDBLK
  5
1E52
330
1E47
100
AcDbEntity
  8
0
100
AcDbBlockEnd
  0
BLOCK
  5
1E69
330
1E5F
100
AcDbEntity
  8
0
100
AcDbBlockBegin
  2
*D13
 70
     1
 10
0.0
 20
0.0
 30
0.0
  3
*D13
  1

  0
LINE
  5
1E6C
330
1E5F
100
AcDbEntity
  8
图层3
 62
     0
370
    -2
100
AcDbLine
 10
133.4148844431749
 20
494.6368734155785
 30
0.0
 11
245.9148844431749
 21
494.6368734155785
 31
0.0
  0
LINE
  5
1E6D
330
1E5F
100
AcDbEntity
  8
图层3
 62
     0
370
    -2
100
AcDbLine
 10
245.9148844431749
 20
494.6368734155785
 30
0.0
 11
270.9636433156652
 21
481.2220565246819
 31
0.0
  0
LINE
  5
1E6E
330
1E5F
100
AcDbEntity
  8
图层3
 62
     0
370
    -2
100
AcDbLine
 10
604.1861107710533
 20
302.7653749940013
 30
0.0
 11
612.1199790438007
 21
298.516406386128
 31
0.0
  0
MTEXT
  5
1E6F
330
1E5F
100
AcDbEntity
  8
图层3
 62
     0
100
AcDbMText
 10
188.1648844431749
 20
502.1368734155784
 30
0.0
 40
9.0
 41
0.0
 46
0.0
 71
     5
 72
     1
  1
∅360 [∅14 1/8]
 73
     1
 44
1.0
  0
LINE
  5
1E70
330
1E5F
100
AcDbEntity
  8
图层3
 62
     0
370
    -2
100
AcDbLine
 10
596.252242498306
 20
307.0143436018747
 30
0.0
 11
278.8975115884125
 21
476.9730879168085
 31
0.0
  0
SOLID
  5
1E71
330
1E5F
100
AcDbEntity
  8
图层3
 62
     0
100
AcDbTrace
 10
604.894272205699
 20
304.0876863727925
 30
0.0
 11
603.4779493364078
 21
301.44306361521
 31
0.0
 12
596.252242498306
 22
307.0143436018747
 32
0.0
 13
596.252242498306
 23
307.0143436018747
 33
0.0
  0
SOLID
  5
1E72
330
1E5F
100
AcDbEntity
  8
图层3
 62
     0
100
AcDbTrace
 10
271.6718047503107
 20
482.544367903473
 30
0.0
 11
270.2554818810196
 21
479.8997451458906
 31
0.0
 12
278.8975115884125
 22
476.9730879168085
 32
0.0
 13
278.8975115884125
 23
476.9730879168085
 33
0.0
  0
POINT
  5
1E73
330
1E5F
100
AcDbEntity
  8
Defpoints
 62
     0
100
AcDbPoint
 10
278.8975115884125
 20
476.9730879168085
 30
0.0
  0
POINT
  5
1E74
330
1E5F
100
AcDbEntity
  8
Defpoints
 62
     0
100
AcDbPoint
 10
596.252242498306
 20
307.0143436018747
 30
0.0
  0
ENDBLK
  5
1E6A
330
1E5F
100
AcDbEntity
  8
0
100
AcDbBlockEnd
  0
ENDSEC
  0
SECTION
  2
ENTITIES
  0
CIRCLE
  5
1C1E
102
{ACAD_REACTORS
330
1D06
102
}
330
1F
100
AcDbEntity
  8
图层2
100
AcDbCircle
 10
437.5748770433593
 20
391.9937157593415
 30
0.0
 40
185.0
  0
CIRCLE
  5
1CB9
102
{ACAD_REACTORS
330
1E5D
102
}
330
1F
100
AcDbEntity
  8
图层1
100
AcDbCircle
 10
437.5748770433593
 20
391.9937157593415
 30
0.0
 40
190.0
  0
CIRCLE
  5
1CBC
102
{ACAD_REACTORS
330
1E75
102
}
330
1F
100
AcDbEntity
  8
图层1
100
AcDbCircle
 10
437.5748770433593
 20
391.9937157593415
 30
0.0
 40
180.0
  0
DIMENSION
  5
1CEF
102
{ACAD_XDICTIONARY
360
1CFC
102
}
102
{ACAD_REACTORS
330
1D06
102
}
330
1F
100
AcDbEntity
  8
图层3
100
AcDbDimension
280
     0
  2
*D9
 10
314.5172148374429
 20
253.8567845193051
 30
0.0
 11
639.7803485384181
 21
552.4666987683628
 31
0.0
 70
   163
 71
     5
 42
369.9999999999998
 73
     0
 74
     0
 75
     0
  3
ISO-25
100
AcDbDiametricDimension
 15
560.6325392492756
 25
530.1306469993777
 35
0.0
 40
0.0
1001
ACAD
1000
DSTYLE
1002
{
1070
   288
1070
     1
1002
}
  0
LWPOLYLINE
  5
1E2D
330
1F
100
AcDbEntity
  8
图层3
100
AcDbPolyline
 90
        4
 70
     1
 43
0.0
 10
877.8801518812706
 20
97.73055686351927
 10
-11.38526001690206
 20
97.73055686351927
 10
-11.38526001690206
 20
681.8142855301248
 10
877.8801518812706
 20
681.8142855301248
  0
DIMENSION
  5
1E46
102
{ACAD_XDICTIONARY
360
1E53
102
}
102
{ACAD_REACTORS
330
1E5D
102
}
330
1F
100
AcDbEntity
  8
图层3
100
AcDbDimension
280
     0
  2
*D12
 10
566.0499039562082
 20
252.0145478101686
 30
0.0
 11
244.1627108054582
 21
557.7810593010062
 31
0.0
 70
   163
 71
     5
 42
380.0
 73
     0
 74
     0
 75
     0
  3
ISO-25
100
AcDbDiametricDimension
 15
309.0998501305104
 25
531.9728837085143
 35
0.0
 40
0.0
1001
ACAD
1000
DSTYLE
1002
{
1070
   288
1070
     1
1002
}
  0
DIMENSION
  5
1E5E
102
{ACAD_XDICTIONARY
360
1E6B
102
}
102
{ACAD_REACTORS
330
1E75
102
}
330
1F
100
AcDbEntity
  8
图层3
100
AcDbDimension
280
     0
  2
*D13
 10
596.252242498306
 20
307.0143436018747
 30
0.0
 11
188.1648844431749
 21
494.6368734155785
 31
0.0
 70
   163
 71
     5
 42
360.0
 73
     0
 74
     0
 75
     0
  3
ISO-25
100
AcDbDiametricDimension
 15
278.8975115884125
 25
476.9730879168085
 35
0.0
 40
0.0
1001
ACAD
1000
DSTYLE
1002
{
1070
   288
1070
     1
1002
}
  0
ENDSEC
  0
SECTION
  2
OBJECTS
  0
DICTIONARY
  5
C
330
0
100
AcDbDictionary
281
     1
  3
ACAD_COLOR
350
1CAB
  3
ACAD_GROUP
350
D
  3
ACAD_LAYOUT
350
1A
  3
ACAD_MATERIAL
350
1CAA
  3
ACAD_MLEADERSTYLE
350
1EC5
  3
ACAD_MLINESTYLE
350
17
  3
ACAD_PLOTSETTINGS
350
19
  3
ACAD_PLOTSTYLENAME
350
E
  3
ACAD_SCALELIST
350
1EB3
  3
ACAD_TABLESTYLE
350
1CAC
  3
ACAD_VISUALSTYLE
350
1E9F
  3
ACDB_RECOMPOSE_DATA
350
1EDD
  3
AcDbVariableDictionary
350
5E
  0
DICTIONARY
  5
1CBD
330
2
100
AcDbDictionary
280
     1
281
     1
  3
ACAD_LAYERFILTERS
360
1E7C
  3
ACLYDICTIONARY
360
1E7B
  0
DICTIONARY
  5
1ECD
330
10
100
AcDbDictionary
280
     1
281
     1
  3
ADSK_XREC_LAYER_RECONCILED
360
1ECE
  0
DICTIONARY
  5
1ECF
330
71
100
AcDbDictionary
280
     1
281
     1
  3
ADSK_XREC_LAYER_RECONCILED
360
1ED0
  0
DICTIONARY
  5
1ED1
330
72
100
AcDbDictionary
280
     1
281
     1
  3
ADSK_XREC_LAYER_RECONCILED
360
1ED2
  0
DICTIONARY
  5
1ED3
330
73
100
AcDbDictionary
280
     1
281
     1
  3
ADSK_XREC_LAYER_RECONCILED
360
1ED4
  0
DICTIONARY
  5
1CBA
330
1F
100
AcDbDictionary
280
     1
281
     1
  3
ACAD_SORTENTS
360
1CBB
  0
DICTIONARY
  5
1CFC
330
1CEF
100
AcDbDictionary
280
     1
281
     1
  3
ACAD_DIMASSOC
360
1D06
  0
DICTIONARY
  5
1E53
330
1E46
100
AcDbDictionary
280
     1
281
     1
  3
ACAD_DIMASSOC
360
1E5D
  0
DICTIONARY
  5
1E6B
330
1E5E
100
AcDbDictionary
280
     1
281
     1
  3
ACAD_DIMASSOC
360
1E75
  0
DICTIONARY
  5
1CAB
102
{ACAD_REACTORS
330
C
102
}
330
C
100
AcDbDictionary
281
     1
  0
DICTIONARY
  5
D
102
{ACAD_REACTORS
330
C
102
}
330
C
100
AcDbDictionary
281
     1
  0
DICTIONARY
  5
1A
102
{ACAD_REACTORS
330
C
102
}
330
C
100
AcDbDictionary
281
     1
  3
Model
350
22
  3
布局1
350
51
  3
布局2
350
56
  0
DICTIONARY
  5
1CAA
102
{ACAD_REACTORS
330
C
102
}
330
C
100
AcDbDictionary
281
     1
  3
ByBlock
350
1E8F
  3
ByLayer
350
1E87
  3
Global
350
1E97
  0
DICTIONARY
  5
1EC5
102
{ACAD_REACTORS
330
C
102
}
330
C
100
AcDbDictionary
281
     1
  3
Standard
350
1EC6
  0
DICTIONARY
  5
17
102
{ACAD_REACTORS
330
C
102
}
330
C
100
AcDbDictionary
281
     1
  3
Standard
350
18
  0
DICTIONARY
  5
19
102
{ACAD_REACTORS
330
C
102
}
330
C
100
AcDbDictionary
281
     1
  0
ACDBDICTIONARYWDFLT
  5
E
102
{ACAD_REACTORS
330
C
102
}
330
C
100
AcDbDictionary
281
     1
  3
Normal
350
F
100
AcDbDictionaryWithDefault
340
F
  0
DICTIONARY
  5
1EB3
102
{ACAD_REACTORS
330
C
102
}
330
C
100
AcDbDictionary
281
     1
  3
A0
350
1EB4
  3
A1
350
1EB5
  3
A2
350
1EB6
  3
A3
350
1EB7
  3
A4
350
1EB8
  3
A5
350
1EB9
  3
A6
350
1EBA
  3
A7
350
1EBB
  3
A8
350
1EBC
  3
A9
350
1EBD
  3
B0
350
1EBE
  3
B1
350
1EBF
  3
B2
350
1EC0
  3
B3
350
1EC1
  3
B4
350
1EC2
  3
B5
350
1EC3
  3
B6
350
1EC4
  0
DICTIONARY
  5
1CAC
102
{ACAD_REACTORS
330
C
102
}
330
C
100
AcDbDictionary
281
     1
  3
Standard
350
1CAD
  0
DICTIONARY
  5
1E9F
102
{ACAD_REACTORS
330
C
102
}
330
C
100
AcDbDictionary
281
     1
  3
2dWireframe
350
1EA5
  3
3D Hidden
350
1EA7
  3
3dWireframe
350
1EA6
  3
Basic
350
1EA4
  3
Brighten
350
1EAB
  3
ColorChange
350
1EAF
  3
Conceptual
350
1EA8
  3
Dim
350
1EAA
  3
EdgeColorOff
350
1EB2
  3
Facepattern
350
1EAE
  3
Flat
350
1EA0
  3
FlatWithEdges
350
1EA1
  3
Gouraud
350
1EA2
  3
GouraudWithEdges
350
1EA3
  3
JitterOff
350
1EB0
  3
Linepattern
350
1EAD
  3
OverhangOff
350
1EB1
  3
Realistic
350
1EA9
  3
Thicken
350
1EAC
  0
XRECORD
  5
1EDD
102
{ACAD_REACTORS
330
C
102
}
330
C
100
AcDbXrecord
280
     1
 90
        1
330
1CAD
  0
DICTIONARY
  5
5E
102
{ACAD_REACTORS
330
C
102
}
330
C
100
AcDbDictionary
281
     1
  3
CANNOSCALE
350
1ED7
  3
CMLEADERSTYLE
350
1ED5
  3
CTABLESTYLE
350
1CB4
  3
DIMASSOC
350
5F
  3
HIDETEXT
350
63
  3
LAYEREVAL
350
1ED9
  3
LAYERNOTIFY
350
1EDA
  3
LIGHTINGUNITS
350
1ED8
  3
MSLTSCALE
350
1ED6
  0
DICTIONARY
  5
1E7C
102
{ACAD_REACTORS
330
1CBD
102
}
330
1CBD
100
AcDbDictionary
281
     1
  0
DICTIONARY
  5
1E7B
102
{ACAD_REACTORS
330
1CBD
102
}
330
1CBD
100
AcDbDictionary
281
     1
1001
ACAD
1000
<All
  0
XRECORD
  5
1ECE
102
{ACAD_REACTORS
330
1ECD
102
}
330
1ECD
100
AcDbXrecord
280
     1
290
     1
  0
XRECORD
  5
1ED0
102
{ACAD_REACTORS
330
1ECF
102
}
330
1ECF
100
AcDbXrecord
280
     1
290
     1
  0
XRECORD
  5
1ED2
102
{ACAD_REACTORS
330
1ED1
102
}
330
1ED1
100
AcDbXrecord
280
     1
290
     1
  0
XRECORD
  5
1ED4
102
{ACAD_REACTORS
330
1ED3
102
}
330
1ED3
100
AcDbXrecord
280
     1
290
     1
  0
SORTENTSTABLE
  5
1CBB
102
{ACAD_REACTORS
330
1CBA
102
}
330
1CBA
100
AcDbSortentsTable
330
1F
331
1C1E
  5
1C1E
331
1CB9
  5
1CBC
331
1CBC
  5
1CB9
  0
DIMASSOC
  5
1D06
102
{ACAD_REACTORS
330
1CFC
102
}
330
1CFC
100
AcDbDimAssoc
330
1CEF
 90
        2
 70
     0
 71
     0
  1
AcDbOsnapPointRef
 72
     3
331
1C1E
 73
     2
 91
        0
 40
0.0
 10
0.0
 20
0.0
 30
0.0
 75
     0
  0
DIMASSOC
  5
1E5D
102
{ACAD_REACTORS
330
1E53
102
}
330
1E53
100
AcDbDimAssoc
330
1E46
 90
        2
 70
     0
 71
     0
  1
AcDbOsnapPointRef
 72
     3
331
1CB9
 73
     2
 91
        0
 40
0.0
 10
0.0
 20
0.0
 30
0.0
 75
     0
  0
DIMASSOC
  5
1E75
102
{ACAD_REACTORS
330
1E6B
102
}
330
1E6B
100
AcDbDimAssoc
330
1E5E
 90
        2
 70
     0
 71
     0
  1
AcDbOsnapPointRef
 72
     3
331
1CBC
 73
     2
 91
        0
 40
0.0
 10
0.0
 20
0.0
 30
0.0
 75
     0
  0
LAYOUT
  5
22
102
{ACAD_REACTORS
330
1A
102
}
330
1A
100
AcDbPlotSettings
  1

  2
SHARP AR-158
  4
A4
  6

 40
5.111750125885009
 41
5.11176061630249
 42
5.111740112304687
 43
5.11175537109375
 44
210.0579986572266
 45
296.9259948730469
 46
5.049999999999999
 47
-15.06
 48
0.0
 49
0.0
140
0.0
141
0.0
142
1.0
143
3.6
 70
 11940
 72
     1
 73
     1
 74
     0
  7

 75
     0
147
0.2777777777777778
 76
     0
 77
     2
 78
   300
148
-58.62743530494253
149
-9.834614527163466
100
AcDbLayout
  1
Model
 70
     1
 71
     0
 10
0.0
 20
0.0
 11
12.0
 21
9.0
 12
0.0
 22
0.0
 32
0.0
 14
0.0
 24
0.0
 34
0.0
 15
0.0
 25
0.0
 35
0.0
146
0.0
 13
0.0
 23
0.0
 33
0.0
 16
1.0
 26
0.0
 36
0.0
 17
0.0
 27
1.0
 37
0.0
 76
     0
330
1F
331
1E85
  0
LAYOUT
  5
51
102
{ACAD_REACTORS
330
1A
102
}
330
1A
100
AcDbPlotSettings
  1

  2
None
  4

  6

 40
0.0
 41
0.0
 42
0.0
 43
0.0
 44
0.0
 45
0.0
 46
0.0
 47
0.0
 48
0.0
 49
0.0
140
0.0
141
0.0
142
1.0
143
1.0
 70
   688
 72
     0
 73
     0
 74
     5
  7

 75
    16
147
1.0
 76
     0
 77
     2
 78
   300
148
0.0
149
0.0
100
AcDbLayout
  1
布局1
 70
     1
 71
     1
 10
0.0
 20
0.0
 11
12.0
 21
9.0
 12
0.0
 22
0.0
 32
0.0
 14
0.0
 24
0.0
 34
0.0
 15
0.0
 25
0.0
 35
0.0
146
0.0
 13
0.0
 23
0.0
 33
0.0
 16
1.0
 26
0.0
 36
0.0
 17
0.0
 27
1.0
 37
0.0
 76
     0
330
50
  0
LAYOUT
  5
56
102
{ACAD_REACTORS
330
1A
102
}
330
1A
100
AcDbPlotSettings
  1

  2
None
  4

  6

 40
0.0
 41
0.0
 42
0.0
 43
0.0
 44
0.0
 45
0.0
 46
0.0
 47
0.0
 48
0.0
 49
0.0
140
0.0
141
0.0
142
1.0
143
1.0
 70
   688
 72
     0
 73
     0
 74
     5
  7

 75
    16
147
1.0
 76
     0
 77
     2
 78
   300
148
0.0
149
0.0
100
AcDbLayout
  1
布局2
 70
     1
 71
     2
 10
0.0
 20
0.0
 11
12.0
 21
9.0
 12
0.0
 22
0.0
 32
0.0
 14
0.0
 24
0.0
 34
0.0
 15
0.0
 25
0.0
 35
0.0
146
0.0
 13
0.0
 23
0.0
 33
0.0
 16
1.0
 26
0.0
 36
0.0
 17
0.0
 27
1.0
 37
0.0
 76
     0
330
55
  0
MATERIAL
  5
1E8F
102
{ACAD_XDICTIONARY
360
1E90
102
}
102
{ACAD_REACTORS
330
1CAA
102
}
330
1CAA
100
AcDbMaterial
  1
ByBlock
 72
     0
 43
0.0008202099737533
 43
0.0
 43
0.0
 43
0.0
 43
0.0
 43
0.0008202099737533
 43
0.0
 43
0.0
 43
0.0
 43
0.0
 43
1.0
 43
0.0
 43
0.0
 43
0.0
 43
0.0
 43
1.0
 77
     0
 47
0.0008202099737533
 47
0.0
 47
0.0
 47
0.0
 47
0.0
 47
0.0008202099737533
 47
0.0
 47
0.0
 47
0.0
 47
0.0
 47
1.0
 47
0.0
 47
0.0
 47
0.0
 47
0.0
 47
1.0
171
     0
 49
0.0008202099737533
 49
0.0
 49
0.0
 49
0.0
 49
0.0
 49
0.0008202099737533
 49
0.0
 49
0.0
 49
0.0
 49
0.0
 49
1.0
 49
0.0
 49
0.0
 49
0.0
 49
0.0
 49
1.0
175
     0
142
0.0008202099737533
142
0.0
142
0.0
142
0.0
142
0.0
142
0.0008202099737533
142
0.0
142
0.0
142
0.0
142
0.0
142
1.0
142
0.0
142
0.0
142
0.0
142
0.0
142
1.0
179
     0
144
0.0008202099737533
144
0.0
144
0.0
144
0.0
144
0.0
144
0.0008202099737533
144
0.0
144
0.0
144
0.0
144
0.0
144
1.0
144
0.0
144
0.0
144
0.0
144
0.0
144
1.0
147
0.0008202099737533
147
0.0
147
0.0
147
0.0
147
0.0
147
0.0008202099737533
147
0.0
147
0.0
147
0.0
147
0.0
147
1.0
147
0.0
147
0.0
147
0.0
147
0.0
147
1.0
  0
MATERIAL
  5
1E87
102
{ACAD_XDICTIONARY
360
1E88
102
}
102
{ACAD_REACTORS
330
1CAA
102
}
330
1CAA
100
AcDbMaterial
  1
ByLayer
 72
     0
 43
0.0008202099737533
 43
0.0
 43
0.0
 43
0.0
 43
0.0
 43
0.0008202099737533
 43
0.0
 43
0.0
 43
0.0
 43
0.0
 43
1.0
 43
0.0
 43
0.0
 43
0.0
 43
0.0
 43
1.0
 77
     0
 47
0.0008202099737533
 47
0.0
 47
0.0
 47
0.0
 47
0.0
 47
0.0008202099737533
 47
0.0
 47
0.0
 47
0.0
 47
0.0
 47
1.0
 47
0.0
 47
0.0
 47
0.0
 47
0.0
 47
1.0
171
     0
 49
0.0008202099737533
 49
0.0
 49
0.0
 49
0.0
 49
0.0
 49
0.0008202099737533
 49
0.0
 49
0.0
 49
0.0
 49
0.0
 49
1.0
 49
0.0
 49
0.0
 49
0.0
 49
0.0
 49
1.0
175
     0
142
0.0008202099737533
142
0.0
142
0.0
142
0.0
142
0.0
142
0.0008202099737533
142
0.0
142
0.0
142
0.0
142
0.0
142
1.0
142
0.0
142
0.0
142
0.0
142
0.0
142
1.0
179
     0
144
0.0008202099737533
144
0.0
144
0.0
144
0.0
144
0.0
144
0.0008202099737533
144
0.0
144
0.0
144
0.0
144
0.0
144
1.0
144
0.0
144
0.0
144
0.0
144
0.0
144
1.0
147
0.0008202099737533
147
0.0
147
0.0
147
0.0
147
0.0
147
0.0008202099737533
147
0.0
147
0.0
147
0.0
147
0.0
147
1.0
147
0.0
147
0.0
147
0.0
147
0.0
147
1.0
  0
MATERIAL
  5
1E97
102
{ACAD_XDICTIONARY
360
1E98
102
}
102
{ACAD_REACTORS
330
1CAA
102
}
330
1CAA
100
AcDbMaterial
  1
Global
 72
     0
 43
0.0008202099737533
 43
0.0
 43
0.0
 43
0.0
 43
0.0
 43
0.0008202099737533
 43
0.0
 43
0.0
 43
0.0
 43
0.0
 43
1.0
 43
0.0
 43
0.0
 43
0.0
 43
0.0
 43
1.0
 77
     0
 47
0.0008202099737533
 47
0.0
 47
0.0
 47
0.0
 47
0.0
 47
0.0008202099737533
 47
0.0
 47
0.0
 47
0.0
 47
0.0
 47
1.0
 47
0.0
 47
0.0
 47
0.0
 47
0.0
 47
1.0
171
     0
 49
0.0008202099737533
 49
0.0
 49
0.0
 49
0.0
 49
0.0
 49
0.0008202099737533
 49
0.0
 49
0.0
 49
0.0
 49
0.0
 49
1.0
 49
0.0
 49
0.0
 49
0.0
 49
0.0
 49
1.0
175
     0
142
0.0008202099737533
142
0.0
142
0.0
142
0.0
142
0.0
142
0.0008202099737533
142
0.0
142
0.0
142
0.0
142
0.0
142
1.0
142
0.0
142
0.0
142
0.0
142
0.0
142
1.0
179
     0
144
0.0008202099737533
144
0.0
144
0.0
144
0.0
144
0.0
144
0.0008202099737533
144
0.0
144
0.0
144
0.0
144
0.0
144
1.0
144
0.0
144
0.0
144
0.0
144
0.0
144
1.0
147
0.0008202099737533
147
0.0
147
0.0
147
0.0
147
0.0
147
0.0008202099737533
147
0.0
147
0.0
147
0.0
147
0.0
147
1.0
147
0.0
147
0.0
147
0.0
147
0.0
147
1.0
  0
MLEADERSTYLE
  5
1EC6
102
{ACAD_REACTORS
330
1EC5
102
}
330
1EC5
100
AcDbMLeaderStyle
179
     2
170
     2
171
     1
172
     0
 90
        2
 40
0.0
 41
0.0
173
     1
 91
-1056964608
340
14
 92
       -2
290
     1
 42
2.0
291
     1
 43
0.36
  3
Standard
 44
4.0
300

342
11
174
     1
178
     6
175
     1
176
     0
 93
-1056964608
 45
4.0
292
     0
297
     0
 46
4.0
 94
-1056964608
 47
1.0
 49
1.0
140
1.0
293
     1
141
0.0
294
     1
177
     0
142
1.0
295
     1
296
     0
143
0.125
271
     0
272
     9
273
     9
  0
MLINESTYLE
  5
18
102
{ACAD_REACTORS
330
17
102
}
330
17
100
AcDbMlineStyle
  2
STANDARD
 70
     0
  3

 62
   256
 51
90.0
 52
90.0
 71
     2
 49
0.5
 62
   256
  6
BYLAYER
 49
-0.5
 62
   256
  6
BYLAYER
  0
ACDBPLACEHOLDER
  5
F
102
{ACAD_REACTORS
330
E
102
}
330
E
  0
SCALE
  5
1EB4
102
{ACAD_REACTORS
330
1EB3
102
}
330
1EB3
100
AcDbScale
 70
     0
300
1:1
140
1.0
141
1.0
290
     1
  0
SCALE
  5
1EB5
102
{ACAD_REACTORS
330
1EB3
102
}
330
1EB3
100
AcDbScale
 70
     0
300
1:2
140
1.0
141
2.0
290
     0
  0
SCALE
  5
1EB6
102
{ACAD_REACTORS
330
1EB3
102
}
330
1EB3
100
AcDbScale
 70
     0
300
1:4
140
1.0
141
4.0
290
     0
  0
SCALE
  5
1EB7
102
{ACAD_REACTORS
330
1EB3
102
}
330
1EB3
100
AcDbScale
 70
     0
300
1:5
140
1.0
141
5.0
290
     0
  0
SCALE
  5
1EB8
102
{ACAD_REACTORS
330
1EB3
102
}
330
1EB3
100
AcDbScale
 70
     0
300
1:8
140
1.0
141
8.0
290
     0
  0
SCALE
  5
1EB9
102
{ACAD_REACTORS
330
1EB3
102
}
330
1EB3
100
AcDbScale
 70
     0
300
1:10
140
1.0
141
10.0
290
     0
  0
SCALE
  5
1EBA
102
{ACAD_REACTORS
330
1EB3
102
}
330
1EB3
100
AcDbScale
 70
     0
300
1:16
140
1.0
141
16.0
290
     0
  0
SCALE
  5
1EBB
102
{ACAD_REACTORS
330
1EB3
102
}
330
1EB3
100
AcDbScale
 70
     0
300
1:20
140
1.0
141
20.0
290
     0
  0
SCALE
  5
1EBC
102
{ACAD_REACTORS
330
1EB3
102
}
330
1EB3
100
AcDbScale
 70
     0
300
1:30
140
1.0
141
30.0
290
     0
  0
SCALE
  5
1EBD
102
{ACAD_REACTORS
330
1EB3
102
}
330
1EB3
100
AcDbScale
 70
     0
300
1:40
140
1.0
141
40.0
290
     0
  0
SCALE
  5
1EBE
102
{ACAD_REACTORS
330
1EB3
102
}
330
1EB3
100
AcDbScale
 70
     0
300
1:50
140
1.0
141
50.0
290
     0
  0
SCALE
  5
1EBF
102
{ACAD_REACTORS
330
1EB3
102
}
330
1EB3
100
AcDbScale
 70
     0
300
1:100
140
1.0
141
100.0
290
     0
  0
SCALE
  5
1EC0
102
{ACAD_REACTORS
330
1EB3
102
}
330
1EB3
100
AcDbScale
 70
     0
300
2:1
140
2.0
141
1.0
290
     0
  0
SCALE
  5
1EC1
102
{ACAD_REACTORS
330
1EB3
102
}
330
1EB3
100
AcDbScale
 70
     0
300
4:1
140
4.0
141
1.0
290
     0
  0
SCALE
  5
1EC2
102
{ACAD_REACTORS
330
1EB3
102
}
330
1EB3
100
AcDbScale
 70
     0
300
8:1
140
8.0
141
1.0
290
     0
  0
SCALE
  5
1EC3
102
{ACAD_REACTORS
330
1EB3
102
}
330
1EB3
100
AcDbScale
 70
     0
300
10:1
140
10.0
141
1.0
290
     0
  0
SCALE
  5
1EC4
102
{ACAD_REACTORS
330
1EB3
102
}
330
1EB3
100
AcDbScale
 70
     0
300
100:1
140
100.0
141
1.0
290
     0
  0
TABLESTYLE
  5
1CAD
102
{ACAD_XDICTIONARY
360
1EDB
102
}
102
{ACAD_REACTORS
330
1CAC
102
}
330
1CAC
100
AcDbTableStyle
280
     0
  3
Standard
 70
     0
 71
     0
 40
1.5
 41
1.5
280
     0
281
     0
  7
Standard
140
4.5
170
     2
 62
     0
 63
     7
283
     0
 90
        4
 91
        0
  1

274
    -2
284
     1
 64
     0
275
    -2
285
     1
 65
     0
276
    -2
286
     1
 66
     0
277
    -2
287
     1
 67
     0
278
    -2
288
     1
 68
     0
279
    -2
289
     1
 69
     0
  7
Standard
140
6.0
170
     5
 62
     0
 63
     7
283
     0
 90
        4
 91
        0
  1

274
    -2
284
     1
 64
     0
275
    -2
285
     1
 65
     0
276
    -2
286
     1
 66
     0
277
    -2
287
     1
 67
     0
278
    -2
288
     1
 68
     0
279
    -2
289
     1
 69
     0
  7
Standard
140
4.5
170
     5
 62
     0
 63
     7
283
     0
 90
        4
 91
        0
  1

274
    -2
284
     1
 64
     0
275
    -2
285
     1
 65
     0
276
    -2
286
     1
 66
     0
277
    -2
287
     1
 67
     0
278
    -2
288
     1
 68
     0
279
    -2
289
     1
 69
     0
  0
VISUALSTYLE
  5
1EA5
102
{ACAD_REACTORS
330
1E9F
102
}
330
1E9F
100
AcDbVisualStyle
  2
2dWireframe
 70
     4
177
     2
291
     0
 71
     0
176
     1
 72
     2
176
     1
 73
     0
176
     1
 90
        0
176
     1
 40
0.6
176
     1
 41
30.0
176
     1
 63
     7
421
 16777215
176
     1
 74
     1
176
     1
 91
        4
176
     1
 64
     7
176
     1
 65
   257
176
     1
 75
     1
176
     1
175
     1
176
     1
 42
1.0
176
     1
 92
        0
176
     1
 66
   257
176
     1
 43
1.0
176
     1
 76
     1
176
     1
 77
     6
176
     1
 78
     2
176
     1
 67
     7
176
     1
 79
     5
176
     1
170
     0
176
     1
171
     0
176
     1
290
     0
176
     1
 93
        1
176
     1
 44
0.0
176
     1
173
     0
176
     1
  0
VISUALSTYLE
  5
1EA7
102
{ACAD_REACTORS
330
1E9F
102
}
330
1E9F
100
AcDbVisualStyle
  2
3D Hidden
 70
     6
177
     2
291
     0
 71
     1
176
     1
 72
     2
176
     1
 73
     2
176
     1
 90
        0
176
     1
 40
0.6
176
     1
 41
30.0
176
     1
 63
     7
421
 16777215
176
     1
 74
     2
176
     1
 91
        2
176
     1
 64
     7
176
     1
 65
   257
176
     1
 75
     2
176
     1
175
     1
176
     1
 42
179.0
176
     1
 92
        0
176
     1
 66
   257
176
     1
 43
1.0
176
     1
 76
     1
176
     1
 77
     6
176
     1
 78
     2
176
     1
 67
     7
176
     1
 79
     3
176
     1
170
     0
176
     1
171
     0
176
     1
290
     0
176
     1
 93
        1
176
     1
 44
0.0
176
     1
173
     0
176
     1
  0
VISUALSTYLE
  5
1EA6
102
{ACAD_REACTORS
330
1E9F
102
}
330
1E9F
100
AcDbVisualStyle
  2
3dWireframe
 70
     5
177
     2
291
     0
 71
     0
176
     1
 72
     2
176
     1
 73
     0
176
     1
 90
        0
176
     1
 40
0.6
176
     1
 41
30.0
176
     1
 63
     7
421
 16777215
176
     1
 74
     1
176
     1
 91
        4
176
     1
 64
     7
176
     1
 65
   257
176
     1
 75
     1
176
     1
175
     1
176
     1
 42
1.0
176
     1
 92
        0
176
     1
 66
   257
176
     1
 43
1.0
176
     1
 76
     1
176
     1
 77
     6
176
     1
 78
     2
176
     1
 67
     7
176
     1
 79
     5
176
     1
170
     0
176
     1
171
     0
176
     1
290
     0
176
     1
 93
        1
176
     1
 44
0.0
176
     1
173
     0
176
     1
  0
VISUALSTYLE
  5
1EA4
102
{ACAD_REACTORS
330
1E9F
102
}
330
1E9F
100
AcDbVisualStyle
  2
Basic
 70
     7
177
     2
291
     1
 71
     1
176
     1
 72
     0
176
     1
 73
     1
176
     1
 90
        0
176
     1
 40
0.6
176
     1
 41
30.0
176
     1
 63
     7
421
 16777215
176
     1
 74
     0
176
     1
 91
        4
176
     1
 64
     7
176
     1
 65
   257
176
     1
 75
     1
176
     1
175
     1
176
     1
 42
1.0
176
     1
 92
        8
176
     1
 66
     7
176
     1
 43
1.0
176
     1
 76
     1
176
     1
 77
     6
176
     1
 78
     2
176
     1
 67
     7
176
     1
 79
     5
176
     1
170
     0
176
     1
171
     0
176
     1
290
     0
176
     1
 93
        1
176
     1
 44
0.0
176
     1
173
     0
176
     1
  0
VISUALSTYLE
  5
1EAB
102
{ACAD_REACTORS
330
1E9F
102
}
330
1E9F
100
AcDbVisualStyle
  2
Brighten
 70
    12
177
     2
291
     1
 71
     2
176
     1
 72
     2
176
     1
 73
     0
176
     1
 90
        0
176
     1
 40
0.6
176
     1
 41
30.0
176
     1
 63
     7
421
 16777215
176
     1
 74
     1
176
     1
 91
        4
176
     1
 64
     7
176
     1
 65
   257
176
     1
 75
     1
176
     1
175
     1
176
     1
 42
1.0
176
     1
 92
        8
176
     1
 66
     7
176
     1
 43
1.0
176
     1
 76
     1
176
     1
 77
     6
176
     1
 78
     2
176
     1
 67
     7
176
     1
 79
     5
176
     1
170
     0
176
     1
171
     0
176
     1
290
     0
176
     1
 93
        1
176
     1
 44
50.0
176
     1
173
     0
176
     1
  0
VISUALSTYLE
  5
1EAF
102
{ACAD_REACTORS
330
1E9F
102
}
330
1E9F
100
AcDbVisualStyle
  2
ColorChange
 70
    16
177
     2
291
     1
 71
     2
176
     1
 72
     2
176
     1
 73
     3
176
     1
 90
        0
176
     1
 40
0.6
176
     1
 41
30.0
176
     1
 63
     8
421
  8421504
176
     1
 74
     1
176
     1
 91
        4
176
     1
 64
     7
176
     1
 65
   257
176
     1
 75
     1
176
     1
175
     1
176
     1
 42
1.0
176
     1
 92
        8
176
     1
 66
     8
424
  8421504
176
     1
 43
1.0
176
     1
 76
     1
176
     1
 77
     6
176
     1
 78
     2
176
     1
 67
     7
176
     1
 79
     5
176
     1
170
     0
176
     1
171
     0
176
     1
290
     0
176
     1
 93
        1
176
     1
 44
0.0
176
     1
173
     0
176
     1
  0
VISUALSTYLE
  5
1EA8
102
{ACAD_REACTORS
330
1E9F
102
}
330
1E9F
100
AcDbVisualStyle
  2
Conceptual
 70
     9
177
     2
291
     0
 71
     3
176
     1
 72
     2
176
     1
 73
     0
176
     1
 90
        0
176
     1
 40
0.6
176
     1
 41
30.0
176
     1
 63
     7
421
 16777215
176
     1
 74
     2
176
     1
 91
        2
176
     1
 64
     7
176
     1
 65
   257
176
     1
 75
     1
176
     1
175
     1
176
     1
 42
179.0
176
     1
 92
        8
176
     1
 66
     7
176
     1
 43
1.0
176
     1
 76
     1
176
     1
 77
     6
176
     1
 78
     2
176
     1
 67
     7
176
     1
 79
     3
176
     1
170
     0
176
     1
171
     0
176
     1
290
     0
176
     1
 93
        1
176
     1
 44
0.0
176
     1
173
     0
176
     1
  0
VISUALSTYLE
  5
1EAA
102
{ACAD_REACTORS
330
1E9F
102
}
330
1E9F
100
AcDbVisualStyle
  2
Dim
 70
    11
177
     2
291
     1
 71
     2
176
     1
 72
     2
176
     1
 73
     0
176
     1
 90
        0
176
     1
 40
0.6
176
     1
 41
30.0
176
     1
 63
     7
421
 16777215
176
     1
 74
     1
176
     1
 91
        4
176
     1
 64
     7
176
     1
 65
   257
176
     1
 75
     1
176
     1
175
     1
176
     1
 42
1.0
176
     1
 92
        8
176
     1
 66
     7
176
     1
 43
1.0
176
     1
 76
     1
176
     1
 77
     6
176
     1
 78
     2
176
     1
 67
     7
176
     1
 79
     5
176
     1
170
     0
176
     1
171
     0
176
     1
290
     0
176
     1
 93
        1
176
     1
 44
-50.0
176
     1
173
     0
176
     1
  0
VISUALSTYLE
  5
1EB2
102
{ACAD_REACTORS
330
1E9F
102
}
330
1E9F
100
AcDbVisualStyle
  2
EdgeColorOff
 70
    22
177
     2
291
     1
 71
     2
176
     0
 72
     2
176
     0
 73
     0
176
     0
 90
        0
176
     0
 40
0.6
176
     0
 41
30.0
176
     0
 63
     7
421
 16777215
176
     0
 74
     1
176
     0
 91
        4
176
     0
 64
     7
176
     0
 65
   257
176
     0
 75
     1
176
     0
175
     1
176
     0
 42
1.0
176
     0
 92
        8
176
     2
 66
     7
176
     0
 43
1.0
176
     0
 76
     1
176
     0
 77
     6
176
     0
 78
     2
176
     0
 67
     7
176
     0
 79
     5
176
     0
170
     0
176
     0
171
     0
176
     0
290
     0
176
     0
 93
        1
176
     0
 44
0.0
176
     0
173
     0
176
     0
  0
VISUALSTYLE
  5
1EAE
102
{ACAD_REACTORS
330
1E9F
102
}
330
1E9F
100
AcDbVisualStyle
  2
Facepattern
 70
    15
177
     2
291
     1
 71
     2
176
     1
 72
     2
176
     1
 73
     0
176
     1
 90
        0
176
     1
 40
0.6
176
     1
 41
30.0
176
     1
 63
     7
421
 16777215
176
     1
 74
     1
176
     1
 91
        4
176
     1
 64
     7
176
     1
 65
   257
176
     1
 75
     1
176
     1
175
     1
176
     1
 42
1.0
176
     1
 92
        8
176
     1
 66
     7
176
     1
 43
1.0
176
     1
 76
     1
176
     1
 77
     6
176
     1
 78
     2
176
     1
 67
     7
176
     1
 79
     5
176
     1
170
     0
176
     1
171
     0
176
     1
290
     0
176
     1
 93
        1
176
     1
 44
0.0
176
     1
173
     0
176
     1
  0
VISUALSTYLE
  5
1EA0
102
{ACAD_REACTORS
330
1E9F
102
}
330
1E9F
100
AcDbVisualStyle
  2
Flat
 70
     0
177
     2
291
     1
 71
     2
176
     1
 72
     1
176
     1
 73
     1
176
     1
 90
        2
176
     1
 40
0.6
176
     1
 41
30.0
176
     1
 63
     7
421
 16777215
176
     1
 74
     0
176
     1
 91
        4
176
     1
 64
     7
176
     1
 65
   257
176
     1
 75
     1
176
     1
175
     1
176
     1
 42
1.0
176
     1
 92
        8
176
     1
 66
     7
176
     1
 43
1.0
176
     1
 76
     1
176
     1
 77
     6
176
     1
 78
     2
176
     1
 67
     7
176
     1
 79
     5
176
     1
170
     0
176
     1
171
     0
176
     1
290
     0
176
     1
 93
       13
176
     1
 44
0.0
176
     1
173
     0
176
     1
  0
VISUALSTYLE
  5
1EA1
102
{ACAD_REACTORS
330
1E9F
102
}
330
1E9F
100
AcDbVisualStyle
  2
FlatWithEdges
 70
     1
177
     2
291
     1
 71
     2
176
     1
 72
     1
176
     1
 73
     1
176
     1
 90
        2
176
     1
 40
0.6
176
     1
 41
30.0
176
     1
 63
     7
421
 16777215
176
     1
 74
     1
176
     1
 91
        4
176
     1
 64
     7
176
     1
 65
   257
176
     1
 75
     1
176
     1
175
     1
176
     1
 42
1.0
176
     1
 92
        0
176
     1
 66
   257
176
     1
 43
1.0
176
     1
 76
     1
176
     1
 77
     6
176
     1
 78
     2
176
     1
 67
     7
176
     1
 79
     5
176
     1
170
     0
176
     1
171
     0
176
     1
290
     0
176
     1
 93
       13
176
     1
 44
0.0
176
     1
173
     0
176
     1
  0
VISUALSTYLE
  5
1EA2
102
{ACAD_REACTORS
330
1E9F
102
}
330
1E9F
100
AcDbVisualStyle
  2
Gouraud
 70
     2
177
     2
291
     1
 71
     2
176
     1
 72
     2
176
     1
 73
     1
176
     1
 90
        2
176
     1
 40
0.6
176
     1
 41
30.0
176
     1
 63
     7
421
 16777215
176
     1
 74
     0
176
     1
 91
        4
176
     1
 64
     7
176
     1
 65
   257
176
     1
 75
     1
176
     1
175
     1
176
     1
 42
1.0
176
     1
 92
        0
176
     1
 66
     7
176
     1
 43
1.0
176
     1
 76
     1
176
     1
 77
     6
176
     1
 78
     2
176
     1
 67
     7
176
     1
 79
     5
176
     1
170
     0
176
     1
171
     0
176
     1
290
     0
176
     1
 93
       13
176
     1
 44
0.0
176
     1
173
     0
176
     1
  0
VISUALSTYLE
  5
1EA3
102
{ACAD_REACTORS
330
1E9F
102
}
330
1E9F
100
AcDbVisualStyle
  2
GouraudWithEdges
 70
     3
177
     2
291
     1
 71
     2
176
     1
 72
     2
176
     1
 73
     1
176
     1
 90
        2
176
     1
 40
0.6
176
     1
 41
30.0
176
     1
 63
     7
421
 16777215
176
     1
 74
     1
176
     1
 91
        4
176
     1
 64
     7
176
     1
 65
   257
176
     1
 75
     1
176
     1
175
     1
176
     1
 42
1.0
176
     1
 92
        0
176
     1
 66
   257
176
     1
 43
1.0
176
     1
 76
     1
176
     1
 77
     6
176
     1
 78
     2
176
     1
 67
     7
176
     1
 79
     5
176
     1
170
     0
176
     1
171
     0
176
     1
290
     0
176
     1
 93
       13
176
     1
 44
0.0
176
     1
173
     0
176
     1
  0
VISUALSTYLE
  5
1EB0
102
{ACAD_REACTORS
330
1E9F
102
}
330
1E9F
100
AcDbVisualStyle
  2
JitterOff
 70
    20
177
     2
291
     1
 71
     2
176
     0
 72
     2
176
     0
 73
     0
176
     0
 90
        0
176
     0
 40
0.6
176
     0
 41
30.0
176
     0
 63
     7
421
 16777215
176
     0
 74
     1
176
     0
 91
        4
176
     0
 64
     7
176
     0
 65
   257
176
     0
 75
     1
176
     0
175
     1
176
     0
 42
1.0
176
     0
 92
       10
176
     2
 66
     7
176
     0
 43
1.0
176
     0
 76
     1
176
     0
 77
     6
176
     0
 78
     2
176
     0
 67
     7
176
     0
 79
     5
176
     0
170
     0
176
     0
171
     0
176
     0
290
     0
176
     0
 93
        1
176
     0
 44
0.0
176
     0
173
     0
176
     0
  0
VISUALSTYLE
  5
1EAD
102
{ACAD_REACTORS
330
1E9F
102
}
330
1E9F
100
AcDbVisualStyle
  2
Linepattern
 70
    14
177
     2
291
     1
 71
     2
176
     1
 72
     2
176
     1
 73
     0
176
     1
 90
        0
176
     1
 40
0.6
176
     1
 41
30.0
176
     1
 63
     7
421
 16777215
176
     1
 74
     1
176
     1
 91
        4
176
     1
 64
     7
176
     1
 65
   257
176
     1
 75
     7
176
     1
175
     7
176
     1
 42
1.0
176
     1
 92
        8
176
     1
 66
     7
176
     1
 43
1.0
176
     1
 76
     1
176
     1
 77
     6
176
     1
 78
     2
176
     1
 67
     7
176
     1
 79
     5
176
     1
170
     0
176
     1
171
     0
176
     1
290
     0
176
     1
 93
        1
176
     1
 44
0.0
176
     1
173
     0
176
     1
  0
VISUALSTYLE
  5
1EB1
102
{ACAD_REACTORS
330
1E9F
102
}
330
1E9F
100
AcDbVisualStyle
  2
OverhangOff
 70
    21
177
     2
291
     1
 71
     2
176
     0
 72
     2
176
     0
 73
     0
176
     0
 90
        0
176
     0
 40
0.6
176
     0
 41
30.0
176
     0
 63
     7
421
 16777215
176
     0
 74
     1
176
     0
 91
        4
176
     0
 64
     7
176
     0
 65
   257
176
     0
 75
     1
176
     0
175
     1
176
     0
 42
1.0
176
     0
 92
        9
176
     2
 66
     7
176
     0
 43
1.0
176
     0
 76
     1
176
     0
 77
     6
176
     0
 78
     2
176
     0
 67
     7
176
     0
 79
     5
176
     0
170
     0
176
     0
171
     0
176
     0
290
     0
176
     0
 93
        1
176
     0
 44
0.0
176
     0
173
     0
176
     0
  0
VISUALSTYLE
  5
1EA9
102
{ACAD_REACTORS
330
1E9F
102
}
330
1E9F
100
AcDbVisualStyle
  2
Realistic
 70
     8
177
     2
291
     0
 71
     2
176
     1
 72
     2
176
     1
 73
     0
176
     1
 90
        0
176
     1
 40
0.6
176
     1
 41
30.0
176
     1
 63
     7
421
 16777215
176
     1
 74
     1
176
     1
 91
        0
176
     1
 64
     7
176
     1
 65
   257
176
     1
 75
     1
176
     1
175
     1
176
     1
 42
1.0
176
     1
 92
        8
176
     1
 66
     8
424
  7895160
176
     1
 43
1.0
176
     1
 76
     1
176
     1
 77
     6
176
     1
 78
     2
176
     1
 67
     7
176
     1
 79
     5
176
     1
170
     0
176
     1
171
     0
176
     1
290
     0
176
     1
 93
       13
176
     1
 44
0.0
176
     1
173
     0
176
     1
  0
VISUALSTYLE
  5
1EAC
102
{ACAD_REACTORS
330
1E9F
102
}
330
1E9F
100
AcDbVisualStyle
  2
Thicken
 70
    13
177
     2
291
     1
 71
     2
176
     1
 72
     2
176
     1
 73
     0
176
     1
 90
        0
176
     1
 40
0.6
176
     1
 41
30.0
176
     1
 63
     7
421
 16777215
176
     1
 74
     1
176
     1
 91
        4
176
     1
 64
     7
176
     1
 65
   257
176
     1
 75
     1
176
     1
175
     1
176
     1
 42
1.0
176
     1
 92
       12
176
     1
 66
     7
176
     1
 43
1.0
176
     1
 76
     1
176
     1
 77
     6
176
     1
 78
     2
176
     1
 67
     7
176
     1
 79
     5
176
     1
170
     0
176
     1
171
     0
176
     1
290
     0
176
     1
 93
        1
176
     1
 44
0.0
176
     1
173
     0
176
     1
  0
DICTIONARYVAR
  5
1ED7
102
{ACAD_REACTORS
330
5E
102
}
330
5E
100
DictionaryVariables
280
     0
  1
1:1
  0
DICTIONARYVAR
  5
1ED5
102
{ACAD_REACTORS
330
5E
102
}
330
5E
100
DictionaryVariables
280
     0
  1
STANDARD
  0
DICTIONARYVAR
  5
1CB4
102
{ACAD_REACTORS
330
5E
102
}
330
5E
100
DictionaryVariables
280
     0
  1
STANDARD
  0
DICTIONARYVAR
  5
5F
102
{ACAD_REACTORS
330
5E
102
}
330
5E
100
DictionaryVariables
280
     0
  1
2
  0
DICTIONARYVAR
  5
63
102
{ACAD_REACTORS
330
5E
102
}
330
5E
100
DictionaryVariables
280
     0
  1
1
  0
DICTIONARYVAR
  5
1ED9
102
{ACAD_REACTORS
330
5E
102
}
330
5E
100
DictionaryVariables
280
     0
  1
1
  0
DICTIONARYVAR
  5
1EDA
102
{ACAD_REACTORS
330
5E
102
}
330
5E
100
DictionaryVariables
280
     0
  1
15
  0
DICTIONARYVAR
  5
1ED8
102
{ACAD_REACTORS
330
5E
102
}
330
5E
100
DictionaryVariables
280
     0
  1
0
  0
DICTIONARYVAR
  5
1ED6
102
{ACAD_REACTORS
330
5E
102
}
330
5E
100
DictionaryVariables
280
     0
  1
0
  0
DICTIONARY
  5
1E90
330
1E8F
100
AcDbDictionary
280
     1
281
     1
  3
BUMPTILE
360
1E92
  3
DIFFUSETILE
360
1E91
  3
OPACITYTILE
360
1E95
  3
REFLECTIONTILE
360
1E94
  3
REFRACTIONTILE
360
1E96
  3
SPECULARTILE
360
1E93
  0
DICTIONARY
  5
1E88
330
1E87
100
AcDbDictionary
280
     1
281
     1
  3
BUMPTILE
360
1E8A
  3
DIFFUSETILE
360
1E89
  3
OPACITYTILE
360
1E8D
  3
REFLECTIONTILE
360
1E8C
  3
REFRACTIONTILE
360
1E8E
  3
SPECULARTILE
360
1E8B
  0
DICTIONARY
  5
1E98
330
1E97
100
AcDbDictionary
280
     1
281
     1
  3
BUMPTILE
360
1E9A
  3
DIFFUSETILE
360
1E99
  3
OPACITYTILE
360
1E9D
  3
REFLECTIONTILE
360
1E9C
  3
REFRACTIONTILE
360
1E9E
  3
SPECULARTILE
360
1E9B
  0
DICTIONARY
  5
1EDB
330
1CAD
100
AcDbDictionary
280
     1
281
     1
  3
ACAD_ROUNDTRIP_2008_TABLESTYLE_CELLSTYLEMAP
360
1EDC
  0
XRECORD
  5
1E92
102
{ACAD_REACTORS
330
1E90
102
}
330
1E90
100
AcDbXrecord
280
     1
270
     1
271
     1
  0
XRECORD
  5
1E91
102
{ACAD_REACTORS
330
1E90
102
}
330
1E90
100
AcDbXrecord
280
     1
270
     1
271
     1
  0
XRECORD
  5
1E95
102
{ACAD_REACTORS
330
1E90
102
}
330
1E90
100
AcDbXrecord
280
     1
270
     1
271
     1
  0
XRECORD
  5
1E94
102
{ACAD_REACTORS
330
1E90
102
}
330
1E90
100
AcDbXrecord
280
     1
270
     1
271
     1
  0
XRECORD
  5
1E96
102
{ACAD_REACTORS
330
1E90
102
}
330
1E90
100
AcDbXrecord
280
     1
270
     1
271
     1
  0
XRECORD
  5
1E93
102
{ACAD_REACTORS
330
1E90
102
}
330
1E90
100
AcDbXrecord
280
     1
270
     1
271
     1
  0
XRECORD
  5
1E8A
102
{ACAD_REACTORS
330
1E88
102
}
330
1E88
100
AcDbXrecord
280
     1
270
     1
271
     1
  0
XRECORD
  5
1E89
102
{ACAD_REACTORS
330
1E88
102
}
330
1E88
100
AcDbXrecord
280
     1
270
     1
271
     1
  0
XRECORD
  5
1E8D
102
{ACAD_REACTORS
330
1E88
102
}
330
1E88
100
AcDbXrecord
280
     1
270
     1
271
     1
  0
XRECORD
  5
1E8C
102
{ACAD_REACTORS
330
1E88
102
}
330
1E88
100
AcDbXrecord
280
     1
270
     1
271
     1
  0
XRECORD
  5
1E8E
102
{ACAD_REACTORS
330
1E88
102
}
330
1E88
100
AcDbXrecord
280
     1
270
     1
271
     1
  0
XRECORD
  5
1E8B
102
{ACAD_REACTORS
330
1E88
102
}
330
1E88
100
AcDbXrecord
280
     1
270
     1
271
     1
  0
XRECORD
  5
1E9A
102
{ACAD_REACTORS
330
1E98
102
}
330
1E98
100
AcDbXrecord
280
     1
270
     1
271
     1
  0
XRECORD
  5
1E99
102
{ACAD_REACTORS
330
1E98
102
}
330
1E98
100
AcDbXrecord
280
     1
270
     1
271
     1
  0
XRECORD
  5
1E9D
102
{ACAD_REACTORS
330
1E98
102
}
330
1E98
100
AcDbXrecord
280
     1
270
     1
271
     1
  0
XRECORD
  5
1E9C
102
{ACAD_REACTORS
330
1E98
102
}
330
1E98
100
AcDbXrecord
280
     1
270
     1
271
     1
  0
XRECORD
  5
1E9E
102
{ACAD_REACTORS
330
1E98
102
}
330
1E98
100
AcDbXrecord
280
     1
270
     1
271
     1
  0
XRECORD
  5
1E9B
102
{ACAD_REACTORS
330
1E98
102
}
330
1E98
100
AcDbXrecord
280
     1
270
     1
271
     1
  0
CELLSTYLEMAP
  5
1EDC
102
{ACAD_REACTORS
330
1EDB
102
}
330
1EDB
100
AcDbCellStyleMap
 90
        3
300
CELLSTYLE
  1
TABLEFORMAT_BEGIN
 90
        5
170
     1
 91
        0
 92
    32768
 62
   257
 93
        1
300
CONTENTFORMAT
  1
CONTENTFORMAT_BEGIN
 90
        0
 91
        0
 92
        4
 93
        0
300

 40
0.0
140
1.0
 94
        5
 62
     0
340
11
144
6.0
309
CONTENTFORMAT_END
171
     1
301
MARGIN
  1
CELLMARGIN_BEGIN
 40
1.5
 40
1.5
 40
1.5
 40
1.5
 40
0.18
 40
0.18
309
CELLMARGIN_END
 94
        6
 95
        1
302
GRIDFORMAT
  1
GRIDFORMAT_BEGIN
 90
        0
 91
        1
 62
     0
 92
       -2
340
0
 93
        0
 40
0.045
309
GRIDFORMAT_END
 95
        2
302
GRIDFORMAT
  1
GRIDFORMAT_BEGIN
 90
        0
 91
        1
 62
     0
 92
       -2
340
0
 93
        0
 40
0.045
309
GRIDFORMAT_END
 95
        4
302
GRIDFORMAT
  1
GRIDFORMAT_BEGIN
 90
        0
 91
        1
 62
     0
 92
       -2
340
0
 93
        0
 40
0.045
309
GRIDFORMAT_END
 95
        8
302
GRIDFORMAT
  1
GRIDFORMAT_BEGIN
 90
        0
 91
        1
 62
     0
 92
       -2
340
0
 93
        0
 40
0.045
309
GRIDFORMAT_END
 95
       16
302
GRIDFORMAT
  1
GRIDFORMAT_BEGIN
 90
        0
 91
        1
 62
     0
 92
       -2
340
0
 93
        0
 40
0.045
309
GRIDFORMAT_END
 95
       32
302
GRIDFORMAT
  1
GRIDFORMAT_BEGIN
 90
        0
 91
        1
 62
     0
 92
       -2
340
0
 93
        0
 40
0.045
309
GRIDFORMAT_END
309
TABLEFORMAT_END
  1
CELLSTYLE_BEGIN
 90
        1
 91
        1
300
_TITLE
309
CELLSTYLE_END
300
CELLSTYLE
  1
TABLEFORMAT_BEGIN
 90
        5
170
     1
 91
        0
 92
        0
 62
   257
 93
        1
300
CONTENTFORMAT
  1
CONTENTFORMAT_BEGIN
 90
        0
 91
        0
 92
        4
 93
        0
300

 40
0.0
140
1.0
 94
        5
 62
     0
340
11
144
4.5
309
CONTENTFORMAT_END
171
     1
301
MARGIN
  1
CELLMARGIN_BEGIN
 40
1.5
 40
1.5
 40
1.5
 40
1.5
 40
0.18
 40
0.18
309
CELLMARGIN_END
 94
        6
 95
        1
302
GRIDFORMAT
  1
GRIDFORMAT_BEGIN
 90
        0
 91
        1
 62
     0
 92
       -2
340
0
 93
        0
 40
0.045
309
GRIDFORMAT_END
 95
        2
302
GRIDFORMAT
  1
GRIDFORMAT_BEGIN
 90
        0
 91
        1
 62
     0
 92
       -2
340
0
 93
        0
 40
0.045
309
GRIDFORMAT_END
 95
        4
302
GRIDFORMAT
  1
GRIDFORMAT_BEGIN
 90
        0
 91
        1
 62
     0
 92
       -2
340
0
 93
        0
 40
0.045
309
GRIDFORMAT_END
 95
        8
302
GRIDFORMAT
  1
GRIDFORMAT_BEGIN
 90
        0
 91
        1
 62
     0
 92
       -2
340
0
 93
        0
 40
0.045
309
GRIDFORMAT_END
 95
       16
302
GRIDFORMAT
  1
GRIDFORMAT_BEGIN
 90
        0
 91
        1
 62
     0
 92
       -2
340
0
 93
        0
 40
0.045
309
GRIDFORMAT_END
 95
       32
302
GRIDFORMAT
  1
GRIDFORMAT_BEGIN
 90
        0
 91
        1
 62
     0
 92
       -2
340
0
 93
        0
 40
0.045
309
GRIDFORMAT_END
309
TABLEFORMAT_END
  1
CELLSTYLE_BEGIN
 90
        2
 91
        1
300
_HEADER
309
CELLSTYLE_END
300
CELLSTYLE
  1
TABLEFORMAT_BEGIN
 90
        5
170
     1
 91
        0
 92
        0
 62
   257
 93
        1
300
CONTENTFORMAT
  1
CONTENTFORMAT_BEGIN
 90
        0
 91
        0
 92
        4
 93
        0
300

 40
0.0
140
1.0
 94
        2
 62
     0
340
11
144
4.5
309
CONTENTFORMAT_END
171
     1
301
MARGIN
  1
CELLMARGIN_BEGIN
 40
1.5
 40
1.5
 40
1.5
 40
1.5
 40
0.18
 40
0.18
309
CELLMARGIN_END
 94
        6
 95
        1
302
GRIDFORMAT
  1
GRIDFORMAT_BEGIN
 90
        0
 91
        1
 62
     0
 92
       -2
340
0
 93
        0
 40
0.045
309
GRIDFORMAT_END
 95
        2
302
GRIDFORMAT
  1
GRIDFORMAT_BEGIN
 90
        0
 91
        1
 62
     0
 92
       -2
340
0
 93
        0
 40
0.045
309
GRIDFORMAT_END
 95
        4
302
GRIDFORMAT
  1
GRIDFORMAT_BEGIN
 90
        0
 91
        1
 62
     0
 92
       -2
340
0
 93
        0
 40
0.045
309
GRIDFORMAT_END
 95
        8
302
GRIDFORMAT
  1
GRIDFORMAT_BEGIN
 90
        0
 91
        1
 62
     0
 92
       -2
340
0
 93
        0
 40
0.045
309
GRIDFORMAT_END
 95
       16
302
GRIDFORMAT
  1
GRIDFORMAT_BEGIN
 90
        0
 91
        1
 62
     0
 92
       -2
340
0
 93
        0
 40
0.045
309
GRIDFORMAT_END
 95
       32
302
GRIDFORMAT
  1
GRIDFORMAT_BEGIN
 90
        0
 91
        1
 62
     0
 92
       -2
340
0
 93
        0
 40
0.045
309
GRIDFORMAT_END
309
TABLEFORMAT_END
  1
CELLSTYLE_BEGIN
 90
        3
 91
        2
300
_DATA
309
CELLSTYLE_END
  0
ENDSEC
  0
EOF
