  0
SECTION
  2
HEADER
  9
$ACADVER
  1
AC1018
  9
$ACADMAINTVER
 70
   104
  9
$DWGCODEPAGE
  3
ANSI_936
  9
$LASTSAVEDBY
  1
Administrator
  9
$INSBASE
 10
0.0
 20
0.0
 30
0.0
  9
$EXTMIN
 10
453.6923425748027
 20
314.1629014751367
 30
0.0
  9
$EXTMAX
 10
2110.18335334523
 20
1524.602166799624
 30
0.0
  9
$LIMMIN
 10
0.0
 20
0.0
  9
$LIMMAX
 10
420.0
 20
297.0
  9
$ORTHOMODE
 70
     0
  9
$REGENMODE
 70
     1
  9
$FILLMODE
 70
     1
  9
$QTEXTMODE
 70
     0
  9
$MIRRTEXT
 70
     0
  9
$LTSCALE
 40
1.0
  9
$ATTMODE
 70
     1
  9
$TEXTSIZE
 40
2.5
  9
$TRACEWID
 40
1.0
  9
$TEXTSTYLE
  7
Standard
  9
$CLAYER
  8
0
  9
$CELTYPE
  6
ByLayer
  9
$CECOLOR
 62
   256
  9
$CELTSCALE
 40
1.0
  9
$DISPSILH
 70
     0
  9
$DIMSCALE
 40
1.0
  9
$DIMASZ
 40
2.5
  9
$DIMEXO
 40
0.625
  9
$DIMDLI
 40
3.75
  9
$DIMRND
 40
0.0
  9
$DIMDLE
 40
0.0
  9
$DIMEXE
 40
1.25
  9
$DIMTP
 40
0.0
  9
$DIMTM
 40
0.0
  9
$DIMTXT
 40
2.5
  9
$DIMCEN
 40
2.5
  9
$DIMTSZ
 40
0.0
  9
$DIMTOL
 70
     0
  9
$DIMLIM
 70
     0
  9
$DIMTIH
 70
     0
  9
$DIMTOH
 70
     0
  9
$DIMSE1
 70
     0
  9
$DIMSE2
 70
     0
  9
$DIMTAD
 70
     1
  9
$DIMZIN
 70
     8
  9
$DIMBLK
  1

  9
$DIMASO
 70
     1
  9
$DIMSHO
 70
     1
  9
$DIMPOST
  1

  9
$DIMAPOST
  1

  9
$DIMALT
 70
     0
  9
$DIMALTD
 70
     3
  9
$DIMALTF
 40
0.03937007874016
  9
$DIMLFAC
 40
1.0
  9
$DIMTOFL
 70
     1
  9
$DIMTVP
 40
0.0
  9
$DIMTIX
 70
     0
  9
$DIMSOXD
 70
     0
  9
$DIMSAH
 70
     0
  9
$DIMBLK1
  1

  9
$DIMBLK2
  1

  9
$DIMSTYLE
  2
ISO-25
  9
$DIMCLRD
 70
     0
  9
$DIMCLRE
 70
     0
  9
$DIMCLRT
 70
     0
  9
$DIMTFAC
 40
1.0
  9
$DIMGAP
 40
0.625
  9
$DIMJUST
 70
     0
  9
$DIMSD1
 70
     0
  9
$DIMSD2
 70
     0
  9
$DIMTOLJ
 70
     0
  9
$DIMTZIN
 70
     8
  9
$DIMALTZ
 70
     0
  9
$DIMALTTZ
 70
     0
  9
$DIMUPT
 70
     0
  9
$DIMDEC
 70
     2
  9
$DIMTDEC
 70
     2
  9
$DIMALTU
 70
     2
  9
$DIMALTTD
 70
     3
  9
$DIMTXSTY
  7
Standard
  9
$DIMAUNIT
 70
     0
  9
$DIMADEC
 70
     0
  9
$DIMALTRND
 40
0.0
  9
$DIMAZIN
 70
     0
  9
$DIMDSEP
 70
    44
  9
$DIMATFIT
 70
     3
  9
$DIMFRAC
 70
     0
  9
$DIMLDRBLK
  1

  9
$DIMLUNIT
 70
     2
  9
$DIMLWD
 70
    -2
  9
$DIMLWE
 70
    -2
  9
$DIMTMOVE
 70
     0
  9
$LUNITS
 70
     2
  9
$LUPREC
 70
     4
  9
$SKETCHINC
 40
1.0
  9
$FILLETRAD
 40
0.0
  9
$AUNITS
 70
     0
  9
$AUPREC
 70
     0
  9
$MENU
  1
.
  9
$ELEVATION
 40
0.0
  9
$PELEVATION
 40
0.0
  9
$THICKNESS
 40
0.0
  9
$LIMCHECK
 70
     0
  9
$CHAMFERA
 40
0.0
  9
$CHAMFERB
 40
0.0
  9
$CHAMFERC
 40
0.0
  9
$CHAMFERD
 40
0.0
  9
$SKPOLY
 70
     0
  9
$TDCREATE
 40
2457751.392612396
  9
$TDUCREATE
 40
2457751.059279063
  9
$TDUPDATE
 40
2457751.394586482
  9
$TDUUPDATE
 40
2457751.061253148
  9
$TDINDWG
 40
0.0019827778
  9
$TDUSRTIMER
 40
0.0019827431
  9
$USRTIMER
 70
     1
  9
$ANGBASE
 50
0.0
  9
$ANGDIR
 70
     0
  9
$PDMODE
 70
     0
  9
$PDSIZE
 40
0.0
  9
$PLINEWID
 40
0.0
  9
$SPLFRAME
 70
     0
  9
$SPLINETYPE
 70
     6
  9
$SPLINESEGS
 70
     8
  9
$HANDSEED
  5
8B0
  9
$SURFTAB1
 70
     6
  9
$SURFTAB2
 70
     6
  9
$SURFTYPE
 70
     6
  9
$SURFU
 70
     6
  9
$SURFV
 70
     6
  9
$UCSBASE
  2

  9
$UCSNAME
  2

  9
$UCSORG
 10
0.0
 20
0.0
 30
0.0
  9
$UCSXDIR
 10
1.0
 20
0.0
 30
0.0
  9
$UCSYDIR
 10
0.0
 20
1.0
 30
0.0
  9
$UCSORTHOREF
  2

  9
$UCSORTHOVIEW
 70
     0
  9
$UCSORGTOP
 10
0.0
 20
0.0
 30
0.0
  9
$UCSORGBOTTOM
 10
0.0
 20
0.0
 30
0.0
  9
$UCSORGLEFT
 10
0.0
 20
0.0
 30
0.0
  9
$UCSORGRIGHT
 10
0.0
 20
0.0
 30
0.0
  9
$UCSORGFRONT
 10
0.0
 20
0.0
 30
0.0
  9
$UCSORGBACK
 10
0.0
 20
0.0
 30
0.0
  9
$PUCSBASE
  2

  9
$PUCSNAME
  2

  9
$PUCSORG
 10
0.0
 20
0.0
 30
0.0
  9
$PUCSXDIR
 10
1.0
 20
0.0
 30
0.0
  9
$PUCSYDIR
 10
0.0
 20
1.0
 30
0.0
  9
$PUCSORTHOREF
  2

  9
$PUCSORTHOVIEW
 70
     0
  9
$PUCSORGTOP
 10
0.0
 20
0.0
 30
0.0
  9
$PUCSORGBOTTOM
 10
0.0
 20
0.0
 30
0.0
  9
$PUCSORGLEFT
 10
0.0
 20
0.0
 30
0.0
  9
$PUCSORGRIGHT
 10
0.0
 20
0.0
 30
0.0
  9
$PUCSORGFRONT
 10
0.0
 20
0.0
 30
0.0
  9
$PUCSORGBACK
 10
0.0
 20
0.0
 30
0.0
  9
$USERI1
 70
     0
  9
$USERI2
 70
     0
  9
$USERI3
 70
     0
  9
$USERI4
 70
     0
  9
$USERI5
 70
     0
  9
$USERR1
 40
0.0
  9
$USERR2
 40
0.0
  9
$USERR3
 40
0.0
  9
$USERR4
 40
0.0
  9
$USERR5
 40
0.0
  9
$WORLDVIEW
 70
     1
  9
$SHADEDGE
 70
     3
  9
$SHADEDIF
 70
    70
  9
$TILEMODE
 70
     1
  9
$MAXACTVP
 70
    64
  9
$PINSBASE
 10
0.0
 20
0.0
 30
0.0
  9
$PLIMCHECK
 70
     0
  9
$PEXTMIN
 10
0.0
 20
0.0
 30
0.0
  9
$PEXTMAX
 10
0.0
 20
0.0
 30
0.0
  9
$PLIMMIN
 10
0.0
 20
0.0
  9
$PLIMMAX
 10
12.0
 20
9.0
  9
$UNITMODE
 70
     0
  9
$VISRETAIN
 70
     1
  9
$PLINEGEN
 70
     0
  9
$PSLTSCALE
 70
     1
  9
$TREEDEPTH
 70
  3020
  9
$CMLSTYLE
  2
Standard
  9
$CMLJUST
 70
     0
  9
$CMLSCALE
 40
20.0
  9
$PROXYGRAPHICS
 70
     1
  9
$MEASUREMENT
 70
     1
  9
$CELWEIGHT
370
    -1
  9
$ENDCAPS
280
     0
  9
$JOINSTYLE
280
     0
  9
$LWDISPLAY
290
     0
  9
$INSUNITS
 70
     4
  9
$HYPERLINKBASE
  1

  9
$STYLESHEET
  1
monochrome.ctb
  9
$XEDIT
290
     1
  9
$CEPSNTYPE
380
     0
  9
$PSTYLEMODE
290
     1
  9
$FINGERPRINTGUID
  2
{239A47EC-5D89-4811-8245-9CC8F7A9B470}
  9
$VERSIONGUID
  2
{90377681-F5B5-4C0B-8847-B1211580426E}
  9
$EXTNAMES
290
     1
  9
$PSVPSCALE
 40
0.0
  9
$OLESTARTUP
290
     0
  9
$SORTENTS
280
   127
  9
$INDEXCTL
280
     0
  9
$HIDETEXT
280
     1
  9
$XCLIPFRAME
290
     0
  9
$HALOGAP
280
     0
  9
$OBSCOLOR
 70
   257
  9
$OBSLTYPE
280
     0
  9
$INTERSECTIONDISPLAY
280
     0
  9
$INTERSECTIONCOLOR
 70
   257
  9
$DIMASSOC
280
     2
  9
$PROJECTNAME
  1

  0
ENDSEC
  0
SECTION
  2
CLASSES
  0
CLASS
  1
ACDBDICTIONARYWDFLT
  2
AcDbDictionaryWithDefault
  3
ObjectDBX Classes
 90
        0
 91
        1
280
     0
281
     0
  0
CLASS
  1
DICTIONARYVAR
  2
AcDbDictionaryVar
  3
ObjectDBX Classes
 90
        0
 91
       12
280
     0
281
     0
  0
CLASS
  1
TABLESTYLE
  2
AcDbTableStyle
  3
ObjectDBX Classes
 90
     4095
 91
        1
280
     0
281
     0
  0
CLASS
  1
MATERIAL
  2
AcDbMaterial
  3
ObjectDBX Classes
 90
     1153
 91
        3
280
     0
281
     0
  0
CLASS
  1
VISUALSTYLE
  2
AcDbVisualStyle
  3
ObjectDBX Classes
 90
     4095
 91
       25
280
     0
281
     0
  0
CLASS
  1
SCALE
  2
AcDbScale
  3
ObjectDBX Classes
 90
     1153
 91
       17
280
     0
281
     0
  0
CLASS
  1
MLEADERSTYLE
  2
AcDbMLeaderStyle
  3
ACDB_MLEADERSTYLE_CLASS
 90
     4095
 91
        2
280
     0
281
     0
  0
CLASS
  1
CELLSTYLEMAP
  2
AcDbCellStyleMap
  3
ObjectDBX Classes
 90
     1152
 91
        4
280
     0
281
     0
  0
CLASS
  1
EXACXREFPANELOBJECT
  2
ExAcXREFPanelObject
  3
EXAC_ESW
 90
     1025
 91
        0
280
     0
281
     0
  0
CLASS
  1
NPOCOLLECTION
  2
AcDbImpNonPersistentObjectsCollection
  3
ObjectDBX Classes
 90
     1153
 91
        0
280
     0
281
     0
  0
CLASS
  1
LAYER_INDEX
  2
AcDbLayerIndex
  3
ObjectDBX Classes
 90
        0
 91
        0
280
     0
281
     0
  0
CLASS
  1
SPATIAL_INDEX
  2
AcDbSpatialIndex
  3
ObjectDBX Classes
 90
        0
 91
        0
280
     0
281
     0
  0
CLASS
  1
IDBUFFER
  2
AcDbIdBuffer
  3
ObjectDBX Classes
 90
        0
 91
        0
280
     0
281
     0
  0
CLASS
  1
DIMASSOC
  2
AcDbDimAssoc
  3
"AcDbDimAssoc|Product Desc:     AcDim ARX App For Dimension|Company:          Autodesk, Inc.|WEB Address:      www.autodesk.com"
 90
        0
 91
       52
280
     0
281
     0
  0
CLASS
  1
SORTENTSTABLE
  2
AcDbSortentsTable
  3
ObjectDBX Classes
 90
        0
 91
        2
280
     0
281
     0
  0
ENDSEC
  0
SECTION
  2
TABLES
  0
TABLE
  2
VPORT
  5
8
330
0
100
AcDbSymbolTable
 70
     1
  0
VPORT
  5
EA
330
8
100
AcDbSymbolTableRecord
100
AcDbViewportTableRecord
  2
*Active
 70
     0
 10
0.0
 20
0.0
 11
1.0
 21
1.0
 12
1355.945447142969
 22
749.7795265818467
 13
0.0
 23
0.0
 14
10.0
 24
10.0
 15
10.0
 25
10.0
 16
0.0
 26
0.0
 36
1.0
 17
0.0
 27
0.0
 37
0.0
 40
1665.699746340973
 41
2.143026004728132
 42
50.0
 43
0.0
 44
0.0
 50
0.0
 51
0.0
 71
     0
 72
  1000
 73
     1
 74
     3
 75
     0
 76
     1
 77
     0
 78
     0
281
     0
 65
     1
110
0.0
120
0.0
130
0.0
111
1.0
121
0.0
131
0.0
112
0.0
122
1.0
132
0.0
 79
     0
146
0.0
1001
ACAD_NAV_VCDISPLAY
1070
     3
  0
ENDTAB
  0
TABLE
  2
LTYPE
  5
5
330
0
100
AcDbSymbolTable
 70
     3
  0
LTYPE
  5
14
330
5
100
AcDbSymbolTableRecord
100
AcDbLinetypeTableRecord
  2
ByBlock
 70
     0
  3

 72
    65
 73
     0
 40
0.0
  0
LTYPE
  5
15
330
5
100
AcDbSymbolTableRecord
100
AcDbLinetypeTableRecord
  2
ByLayer
 70
     0
  3

 72
    65
 73
     0
 40
0.0
  0
LTYPE
  5
16
330
5
100
AcDbSymbolTableRecord
100
AcDbLinetypeTableRecord
  2
Continuous
 70
     0
  3
Solid line
 72
    65
 73
     0
 40
0.0
  0
LTYPE
  5
367
330
5
100
AcDbSymbolTableRecord
100
AcDbLinetypeTableRecord
  2
HIDDENX2
 70
     0
  3
Hidden (2x) ____ ____ ____ ____ ____ ____ ____
 72
    65
 73
     2
 40
19.05
 49
12.7
 74
     0
 49
-6.349999999999999
 74
     0
  0
ENDTAB
  0
TABLE
  2
LAYER
  5
2
102
{ACAD_XDICTIONARY
360
1FF
102
}
330
0
100
AcDbSymbolTable
 70
     6
  0
LAYER
  5
10
102
{ACAD_XDICTIONARY
360
13C
102
}
330
2
100
AcDbSymbolTableRecord
100
AcDbLayerTableRecord
  2
0
 70
     0
 62
     7
  6
Continuous
370
    -3
390
F
  0
LAYER
  5
368
330
2
100
AcDbSymbolTableRecord
100
AcDbLayerTableRecord
  2
Defpoints
 70
     0
 62
     7
  6
Continuous
290
     0
370
    -3
390
F
  0
LAYER
  5
369
330
2
100
AcDbSymbolTableRecord
100
AcDbLayerTableRecord
  2
外框线1
 70
     0
 62
     3
  6
Continuous
370
    -3
390
F
1001
AcAecLayerStandard
1000

1000

  0
LAYER
  5
36A
330
2
100
AcDbSymbolTableRecord
100
AcDbLayerTableRecord
  2
外框线2
 70
     0
 62
     6
  6
Continuous
370
    -3
390
F
1001
AcAecLayerStandard
1000

1000

  0
LAYER
  5
36B
330
2
100
AcDbSymbolTableRecord
100
AcDbLayerTableRecord
  2
标注
 70
     0
 62
     1
  6
Continuous
370
     9
390
F
1001
AcAecLayerStandard
1000

1000

  0
LAYER
  5
36C
330
2
100
AcDbSymbolTableRecord
100
AcDbLayerTableRecord
  2
注释
 70
     0
 62
     7
  6
Continuous
370
    15
390
F
1001
AcAecLayerStandard
1000

1000

  0
ENDTAB
  0
TABLE
  2
STYLE
  5
3
330
0
100
AcDbSymbolTable
 70
     5
  0
STYLE
  5
11
330
3
100
AcDbSymbolTableRecord
100
AcDbTextStyleTableRecord
  2
Standard
 70
     0
 40
0.0
 41
1.0
 50
0.0
 71
     0
 42
2.5
  3

  4

1001
ACAD
1000
SimSun
1071
       34
  0
STYLE
  5
132
330
3
100
AcDbSymbolTableRecord
100
AcDbTextStyleTableRecord
  2
Annotative
 70
     0
 40
0.0
 41
1.0
 50
0.0
 71
     0
 42
2.5
  3

  4

1001
AcadAnnotative
1000
AnnotativeData
1002
{
1070
     1
1070
     1
1002
}
1001
ACAD
1000
SimSun
1071
       34
  0
STYLE
  5
36D
330
3
100
AcDbSymbolTableRecord
100
AcDbTextStyleTableRecord
  2
样式 1
 70
     0
 40
0.0
 41
1.0
 50
0.0
 71
     0
 42
3.0
  3

  4

1001
ACAD
1000
NSimSun
1071
    34353
  0
ENDTAB
  0
TABLE
  2
VIEW
  5
6
330
0
100
AcDbSymbolTable
 70
     2
  0
ENDTAB
  0
TABLE
  2
UCS
  5
7
330
0
100
AcDbSymbolTable
 70
     0
  0
ENDTAB
  0
TABLE
  2
APPID
  5
9
330
0
100
AcDbSymbolTable
 70
    16
  0
APPID
  5
12
330
9
100
AcDbSymbolTableRecord
100
AcDbRegAppTableRecord
  2
ACAD
 70
     0
  0
APPID
  5
9E
330
9
100
AcDbSymbolTableRecord
100
AcDbRegAppTableRecord
  2
ACAD_PSEXT
 70
     0
  0
APPID
  5
133
330
9
100
AcDbSymbolTableRecord
100
AcDbRegAppTableRecord
  2
AcadAnnoPO
 70
     0
  0
APPID
  5
134
330
9
100
AcDbSymbolTableRecord
100
AcDbRegAppTableRecord
  2
AcadAnnotative
 70
     0
  0
APPID
  5
135
330
9
100
AcDbSymbolTableRecord
100
AcDbRegAppTableRecord
  2
ACAD_DSTYLE_DIMJAG
 70
     0
  0
APPID
  5
136
330
9
100
AcDbSymbolTableRecord
100
AcDbRegAppTableRecord
  2
ACAD_DSTYLE_DIMTALN
 70
     0
  0
APPID
  5
165
330
9
100
AcDbSymbolTableRecord
100
AcDbRegAppTableRecord
  2
ACAD_MLEADERVER
 70
     0
  0
APPID
  5
217
330
9
100
AcDbSymbolTableRecord
100
AcDbRegAppTableRecord
  2
ACAD_NAV_VCDISPLAY
 70
     0
  0
APPID
  5
373
330
9
100
AcDbSymbolTableRecord
100
AcDbRegAppTableRecord
  2
ACAD_DSTYLE_DIMBREAK
 70
     0
  0
APPID
  5
374
330
9
100
AcDbSymbolTableRecord
100
AcDbRegAppTableRecord
  2
AcAecLayerStandard
 70
     0
  0
APPID
  5
375
330
9
100
AcDbSymbolTableRecord
100
AcDbRegAppTableRecord
  2
ACAD_DSTYLE_DIMRADIAL_EXTENSION
 70
     0
  0
APPID
  5
376
330
9
100
AcDbSymbolTableRecord
100
AcDbRegAppTableRecord
  2
ACAD_DSTYLE_DIMJOGGED_JOGANGLE_SYMBOL
 70
     0
  0
APPID
  5
7F4
330
9
100
AcDbSymbolTableRecord
100
AcDbRegAppTableRecord
  2
ACAD_EXEMPT_FROM_CAD_STANDARDS
 70
     0
  0
APPID
  5
8A1
330
9
100
AcDbSymbolTableRecord
100
AcDbRegAppTableRecord
  2
ACAD_DSTYLE_DIMEXT_ENABLED
 70
     0
  0
APPID
  5
8A2
330
9
100
AcDbSymbolTableRecord
100
AcDbRegAppTableRecord
  2
ACAD_DSTYLE_DIMEXT_LENGTH
 70
     0
  0
APPID
  5
8A3
330
9
100
AcDbSymbolTableRecord
100
AcDbRegAppTableRecord
  2
ACAD_DSTYLE_DIM_LINETYPE
 70
     0
  0
ENDTAB
  0
TABLE
  2
DIMSTYLE
  5
A
330
0
100
AcDbSymbolTable
 70
    10
100
AcDbDimStyleTable
 71
     2
340
27
340
137
  0
DIMSTYLE
105
1B0
330
A
100
AcDbSymbolTableRecord
100
AcDbDimStyleTableRecord
  2
Standard
 70
     0
340
11
  0
DIMSTYLE
105
137
330
A
100
AcDbSymbolTableRecord
100
AcDbDimStyleTableRecord
  2
Annotative
 70
     0
 40
0.0
 41
2.5
 42
0.625
 43
3.75
 44
1.25
 73
     0
 74
     0
 77
     1
 78
     8
140
2.5
141
2.5
143
0.03937007874016
147
0.625
171
     3
172
     1
271
     2
272
     2
274
     3
278
    44
283
     0
284
     8
340
11
1001
AcadAnnotative
1000
AnnotativeData
1002
{
1070
     1
1070
     1
1002
}
1001
ACAD_DSTYLE_DIMJAG
1070
   388
1040
1.5
1001
ACAD_DSTYLE_DIMTALN
1070
   392
1070
     0
  0
DIMSTYLE
105
27
330
A
100
AcDbSymbolTableRecord
100
AcDbDimStyleTableRecord
  2
ISO-25
 70
     0
 41
2.5
 42
0.625
 43
3.75
 44
1.25
 73
     0
 74
     0
 77
     1
 78
     8
140
2.5
141
2.5
143
0.03937007874016
147
0.625
171
     3
172
     1
271
     2
272
     2
274
     3
278
    44
283
     0
284
     8
340
11
  0
DIMSTYLE
105
36E
102
{ACAD_REACTORS
330
3BC
330
3BF
330
3C2
330
3C3
330
3C6
330
3C7
330
3CA
330
3CD
330
3D0
330
3D3
330
3D6
330
3D9
330
3DC
330
3DF
330
3E2
330
3E3
330
3E6
330
3E9
330
3EC
330
3EF
330
3F2
330
3F5
330
3F8
330
3FC
330
412
102
}
330
A
100
AcDbSymbolTableRecord
100
AcDbDimStyleTableRecord
  2
1-8
 70
     0
  3
"
 40
8.0
 41
2.5
 42
0.625
 43
3.75
 44
1.25
 47
0.5
 48
0.5
 73
     0
 74
     0
 77
     1
 78
     8
140
2.299999999999999
141
2.5
143
0.03937007874016
144
0.03937007874016
147
0.625
171
     3
172
     1
271
     1
272
     1
273
     7
274
     3
283
     0
340
11
1001
ACAD_DSTYLE_DIMBREAK
1070
   391
1040
3.75
1001
ACAD_DSTYLE_DIMJAG
1070
   388
1040
1.5
1001
ACAD_DSTYLE_DIMTALN
1070
   392
1070
     0
  0
DIMSTYLE
105
36F
102
{ACAD_REACTORS
330
415
330
418
330
7C5
330
7C8
330
7CB
102
}
330
A
100
AcDbSymbolTableRecord
100
AcDbDimStyleTableRecord
  2
1-8-L
 70
     0
 40
8.0
 41
1.5
 42
0.625
 43
3.75
 44
1.25
 73
     0
 74
     0
 77
     1
 78
     8
140
2.299999999999999
141
2.5
143
0.03937007874016
147
0.625
171
     8
172
     1
271
     2
272
     2
273
     7
274
     8
283
     0
284
     8
340
11
1001
ACAD_DSTYLE_DIMBREAK
1070
   391
1040
3.75
1001
ACAD_DSTYLE_DIMJAG
1070
   388
1040
1.5
1001
ACAD_DSTYLE_DIMTALN
1070
   392
1070
     0
  0
DIMSTYLE
105
370
330
A
100
AcDbSymbolTableRecord
100
AcDbDimStyleTableRecord
  2
1-12
 70
     0
 40
12.0
 41
1.5
 42
0.625
 43
3.75
 44
1.25
 73
     0
 74
     0
 77
     1
 78
     8
140
2.299999999999999
141
2.5
143
0.03937007874016
147
0.625
170
     1
171
     8
172
     1
271
     2
272
     2
273
     7
274
     8
283
     0
284
     8
340
11
1001
ACAD_DSTYLE_DIMBREAK
1070
   391
1040
3.75
1001
ACAD_DSTYLE_DIMJAG
1070
   388
1040
1.5
1001
ACAD_DSTYLE_DIMTALN
1070
   392
1070
     0
  0
DIMSTYLE
105
371
330
A
100
AcDbSymbolTableRecord
100
AcDbDimStyleTableRecord
  2
1-8-m
 70
     0
 40
8.0
 41
1.5
 42
0.625
 43
3.75
 44
1.25
 73
     0
 74
     0
 77
     1
 78
     8
140
2.299999999999999
141
2.5
143
0.03937007874016
147
0.625
170
     1
171
     8
172
     1
271
     2
272
     2
273
     7
274
     8
283
     0
284
     8
340
11
1001
ACAD_DSTYLE_DIMBREAK
1070
   391
1040
3.75
1001
ACAD_DSTYLE_DIMJAG
1070
   388
1040
1.5
1001
ACAD_DSTYLE_DIMTALN
1070
   392
1070
     0
  0
DIMSTYLE
105
372
330
A
100
AcDbSymbolTableRecord
100
AcDbDimStyleTableRecord
  2
B-英寸
 70
     0
  4
"
 40
7.62
 41
1.5
 42
2.0
 43
0.1
 44
1.0
 73
     0
 74
     0
 77
     1
140
2.5
141
0.0
143
0.0394
147
0.4500000000000001
170
     1
171
     3
271
     0
272
     0
273
     7
274
     3
340
11
1001
ACAD_DSTYLE_DIMJAG
1070
   388
1040
1.5
1001
ACAD_DSTYLE_DIMTALN
1070
   392
1070
     0
1001
ACAD_DSTYLE_DIMEXT_ENABLED
1070
   383
1070
     1
1001
ACAD_DSTYLE_DIMEXT_LENGTH
1070
   378
1040
5.0
1001
ACAD_DSTYLE_DIMJOGGED_JOGANGLE_SYMBOL
1070
   384
1040
1.570796326794896
1001
ACAD_DSTYLE_DIM_LINETYPE
1070
   380
1005
14
  0
ENDTAB
  0
TABLE
  2
BLOCK_RECORD
  5
1
330
0
100
AcDbSymbolTable
 70
    65
  0
BLOCK_RECORD
  5
1F
102
{ACAD_XDICTIONARY
360
1CE
102
}
330
1
100
AcDbSymbolTableRecord
100
AcDbBlockTableRecord
  2
*Model_Space
340
22
  0
BLOCK_RECORD
  5
D2
330
1
100
AcDbSymbolTableRecord
100
AcDbBlockTableRecord
  2
*Paper_Space
340
D3
  0
BLOCK_RECORD
  5
D6
330
1
100
AcDbSymbolTableRecord
100
AcDbBlockTableRecord
  2
*Paper_Space0
340
D7
  0
BLOCK_RECORD
  5
21E
330
1
100
AcDbSymbolTableRecord
100
AcDbBlockTableRecord
  2
*D1
340
0
  0
BLOCK_RECORD
  5
22A
330
1
100
AcDbSymbolTableRecord
100
AcDbBlockTableRecord
  2
*D2
340
0
  0
BLOCK_RECORD
  5
236
330
1
100
AcDbSymbolTableRecord
100
AcDbBlockTableRecord
  2
*D3
340
0
  0
BLOCK_RECORD
  5
244
330
1
100
AcDbSymbolTableRecord
100
AcDbBlockTableRecord
  2
*D4
340
0
  0
BLOCK_RECORD
  5
250
330
1
100
AcDbSymbolTableRecord
100
AcDbBlockTableRecord
  2
*D5
340
0
  0
BLOCK_RECORD
  5
25C
330
1
100
AcDbSymbolTableRecord
100
AcDbBlockTableRecord
  2
*D6
340
0
  0
BLOCK_RECORD
  5
268
330
1
100
AcDbSymbolTableRecord
100
AcDbBlockTableRecord
  2
*D7
340
0
  0
BLOCK_RECORD
  5
274
330
1
100
AcDbSymbolTableRecord
100
AcDbBlockTableRecord
  2
*D8
340
0
  0
BLOCK_RECORD
  5
27F
330
1
100
AcDbSymbolTableRecord
100
AcDbBlockTableRecord
  2
*D9
340
0
  0
BLOCK_RECORD
  5
28A
330
1
100
AcDbSymbolTableRecord
100
AcDbBlockTableRecord
  2
*D10
340
0
  0
BLOCK_RECORD
  5
296
330
1
100
AcDbSymbolTableRecord
100
AcDbBlockTableRecord
  2
*D11
340
0
  0
BLOCK_RECORD
  5
2A1
330
1
100
AcDbSymbolTableRecord
100
AcDbBlockTableRecord
  2
*D12
340
0
  0
BLOCK_RECORD
  5
2AC
330
1
100
AcDbSymbolTableRecord
100
AcDbBlockTableRecord
  2
*D13
340
0
  0
BLOCK_RECORD
  5
2BA
330
1
100
AcDbSymbolTableRecord
100
AcDbBlockTableRecord
  2
*D14
340
0
  0
BLOCK_RECORD
  5
2C8
330
1
100
AcDbSymbolTableRecord
100
AcDbBlockTableRecord
  2
*D15
340
0
  0
BLOCK_RECORD
  5
2D6
330
1
100
AcDbSymbolTableRecord
100
AcDbBlockTableRecord
  2
*D16
340
0
  0
BLOCK_RECORD
  5
2E3
330
1
100
AcDbSymbolTableRecord
100
AcDbBlockTableRecord
  2
*D17
340
0
  0
BLOCK_RECORD
  5
2F1
330
1
100
AcDbSymbolTableRecord
100
AcDbBlockTableRecord
  2
*D18
340
0
  0
BLOCK_RECORD
  5
2FD
330
1
100
AcDbSymbolTableRecord
100
AcDbBlockTableRecord
  2
*D19
340
0
  0
BLOCK_RECORD
  5
309
330
1
100
AcDbSymbolTableRecord
100
AcDbBlockTableRecord
  2
*D20
340
0
  0
BLOCK_RECORD
  5
315
330
1
100
AcDbSymbolTableRecord
100
AcDbBlockTableRecord
  2
*D21
340
0
  0
BLOCK_RECORD
  5
321
330
1
100
AcDbSymbolTableRecord
100
AcDbBlockTableRecord
  2
*D22
340
0
  0
BLOCK_RECORD
  5
32D
330
1
100
AcDbSymbolTableRecord
100
AcDbBlockTableRecord
  2
*D23
340
0
  0
BLOCK_RECORD
  5
339
330
1
100
AcDbSymbolTableRecord
100
AcDbBlockTableRecord
  2
*D24
340
0
  0
BLOCK_RECORD
  5
347
330
1
100
AcDbSymbolTableRecord
100
AcDbBlockTableRecord
  2
*D25
340
0
  0
BLOCK_RECORD
  5
353
330
1
100
AcDbSymbolTableRecord
100
AcDbBlockTableRecord
  2
*D26
340
0
  0
BLOCK_RECORD
  5
35D
330
1
100
AcDbSymbolTableRecord
100
AcDbBlockTableRecord
  2
*D27
340
0
  0
BLOCK_RECORD
  5
4C3
330
1
100
AcDbSymbolTableRecord
100
AcDbBlockTableRecord
  2
*D29
340
0
  0
BLOCK_RECORD
  5
4CF
330
1
100
AcDbSymbolTableRecord
100
AcDbBlockTableRecord
  2
*D30
340
0
  0
BLOCK_RECORD
  5
4DB
330
1
100
AcDbSymbolTableRecord
100
AcDbBlockTableRecord
  2
*D31
340
0
  0
BLOCK_RECORD
  5
4E9
330
1
100
AcDbSymbolTableRecord
100
AcDbBlockTableRecord
  2
*D32
340
0
  0
BLOCK_RECORD
  5
4F3
330
1
100
AcDbSymbolTableRecord
100
AcDbBlockTableRecord
  2
*D33
340
0
  0
BLOCK_RECORD
  5
4FF
330
1
100
AcDbSymbolTableRecord
100
AcDbBlockTableRecord
  2
*D34
340
0
  0
BLOCK_RECORD
  5
514
330
1
100
AcDbSymbolTableRecord
100
AcDbBlockTableRecord
  2
*D35
340
0
  0
BLOCK_RECORD
  5
529
330
1
100
AcDbSymbolTableRecord
100
AcDbBlockTableRecord
  2
*D36
340
0
  0
BLOCK_RECORD
  5
535
330
1
100
AcDbSymbolTableRecord
100
AcDbBlockTableRecord
  2
*D37
340
0
  0
BLOCK_RECORD
  5
540
330
1
100
AcDbSymbolTableRecord
100
AcDbBlockTableRecord
  2
*D38
340
0
  0
BLOCK_RECORD
  5
54B
330
1
100
AcDbSymbolTableRecord
100
AcDbBlockTableRecord
  2
*D39
340
0
  0
BLOCK_RECORD
  5
557
330
1
100
AcDbSymbolTableRecord
100
AcDbBlockTableRecord
  2
*D40
340
0
  0
BLOCK_RECORD
  5
562
330
1
100
AcDbSymbolTableRecord
100
AcDbBlockTableRecord
  2
*D41
340
0
  0
BLOCK_RECORD
  5
56D
330
1
100
AcDbSymbolTableRecord
100
AcDbBlockTableRecord
  2
*D42
340
0
  0
BLOCK_RECORD
  5
57B
330
1
100
AcDbSymbolTableRecord
100
AcDbBlockTableRecord
  2
*D43
340
0
  0
BLOCK_RECORD
  5
589
330
1
100
AcDbSymbolTableRecord
100
AcDbBlockTableRecord
  2
*D44
340
0
  0
BLOCK_RECORD
  5
5A2
330
1
100
AcDbSymbolTableRecord
100
AcDbBlockTableRecord
  2
*D45
340
0
  0
BLOCK_RECORD
  5
5AF
330
1
100
AcDbSymbolTableRecord
100
AcDbBlockTableRecord
  2
*D46
340
0
  0
BLOCK_RECORD
  5
5BD
330
1
100
AcDbSymbolTableRecord
100
AcDbBlockTableRecord
  2
*D47
340
0
  0
BLOCK_RECORD
  5
5C9
330
1
100
AcDbSymbolTableRecord
100
AcDbBlockTableRecord
  2
*D48
340
0
  0
BLOCK_RECORD
  5
5D5
330
1
100
AcDbSymbolTableRecord
100
AcDbBlockTableRecord
  2
*D49
340
0
  0
BLOCK_RECORD
  5
5E1
330
1
100
AcDbSymbolTableRecord
100
AcDbBlockTableRecord
  2
*D50
340
0
  0
BLOCK_RECORD
  5
5ED
330
1
100
AcDbSymbolTableRecord
100
AcDbBlockTableRecord
  2
*D51
340
0
  0
BLOCK_RECORD
  5
5F9
330
1
100
AcDbSymbolTableRecord
100
AcDbBlockTableRecord
  2
*D52
340
0
  0
BLOCK_RECORD
  5
605
330
1
100
AcDbSymbolTableRecord
100
AcDbBlockTableRecord
  2
*D53
340
0
  0
BLOCK_RECORD
  5
613
330
1
100
AcDbSymbolTableRecord
100
AcDbBlockTableRecord
  2
*D54
340
0
  0
BLOCK_RECORD
  5
61F
330
1
100
AcDbSymbolTableRecord
100
AcDbBlockTableRecord
  2
*D55
340
0
  0
BLOCK_RECORD
  5
737
330
1
100
AcDbSymbolTableRecord
100
AcDbBlockTableRecord
  2
*D56
340
0
  0
BLOCK_RECORD
  5
743
330
1
100
AcDbSymbolTableRecord
100
AcDbBlockTableRecord
  2
*D57
340
0
  0
BLOCK_RECORD
  5
74F
330
1
100
AcDbSymbolTableRecord
100
AcDbBlockTableRecord
  2
*D58
340
0
  0
BLOCK_RECORD
  5
7CF
330
1
100
AcDbSymbolTableRecord
100
AcDbBlockTableRecord
  2
*D60
340
0
  0
BLOCK_RECORD
  5
7DB
330
1
100
AcDbSymbolTableRecord
100
AcDbBlockTableRecord
  2
*D61
340
0
  0
BLOCK_RECORD
  5
7E7
330
1
100
AcDbSymbolTableRecord
100
AcDbBlockTableRecord
  2
*D62
340
0
  0
ENDTAB
  0
ENDSEC
  0
SECTION
  2
BLOCKS
  0
BLOCK
  5
20
330
1F
100
AcDbEntity
  8
0
100
AcDbBlockBegin
  2
*Model_Space
 70
     0
 10
0.0
 20
0.0
 30
0.0
  3
*Model_Space
  1

  0
ENDBLK
  5
21
330
1F
100
AcDbEntity
  8
0
100
AcDbBlockEnd
  0
BLOCK
  5
D4
330
D2
100
AcDbEntity
 67
     1
  8
0
100
AcDbBlockBegin
  2
*Paper_Space
 70
     0
 10
0.0
 20
0.0
 30
0.0
  3
*Paper_Space
  1

  0
ENDBLK
  5
D5
330
D2
100
AcDbEntity
 67
     1
  8
0
100
AcDbBlockEnd
  0
BLOCK
  5
D8
330
D6
100
AcDbEntity
 67
     1
  8
0
100
AcDbBlockBegin
  2
*Paper_Space0
 70
     0
 10
0.0
 20
0.0
 30
0.0
  3
*Paper_Space0
  1

  0
ENDBLK
  5
D9
330
D6
100
AcDbEntity
 67
     1
  8
0
100
AcDbBlockEnd
  0
BLOCK
  5
21F
330
21E
100
AcDbEntity
  8
0
100
AcDbBlockBegin
  2
*D1
 70
     1
 10
0.0
 20
0.0
 30
0.0
  3
*D1
  1

  0
LINE
  5
220
330
21E
100
AcDbEntity
  8
标注
 62
     0
440
 16777216
 48
0.2
370
    -2
100
AcDbLine
 10
108885.9762604569
 20
41846.94903310901
 30
0.0
 11
108885.9762604569
 21
41918.81086430875
 31
0.0
  0
LINE
  5
221
330
21E
100
AcDbEntity
  8
标注
 62
     0
440
 16777216
 48
0.2
370
    -2
100
AcDbLine
 10
109305.0762604569
 20
41846.94903310901
 30
0.0
 11
109305.0762604569
 21
41918.81086430875
 31
0.0
  0
LINE
  5
222
330
21E
100
AcDbEntity
  8
标注
 62
     0
440
 16777216
 48
0.2
370
    -2
100
AcDbLine
 10
108905.9762604569
 20
41908.81086430874
 30
0.0
 11
109285.0762604569
 21
41908.81086430874
 31
0.0
  0
SOLID
  5
223
330
21E
100
AcDbEntity
  8
标注
 62
     0
440
 16777216
 48
0.2
100
AcDbTrace
 10
108905.9762604569
 20
41912.14419764208
 30
0.0
 11
108905.9762604569
 21
41905.47753097541
 31
0.0
 12
108885.9762604569
 22
41908.81086430874
 32
0.0
 13
108885.9762604569
 23
41908.81086430874
 33
0.0
  0
SOLID
  5
224
330
21E
100
AcDbEntity
  8
标注
 62
     0
440
 16777216
 48
0.2
100
AcDbTrace
 10
109285.0762604569
 20
41912.14419764208
 30
0.0
 11
109285.0762604569
 21
41905.47753097541
 31
0.0
 12
109305.0762604569
 22
41908.81086430874
 32
0.0
 13
109305.0762604569
 23
41908.81086430874
 33
0.0
  0
MTEXT
  5
225
330
21E
100
AcDbEntity
  8
标注
 62
     0
440
 16777216
 48
0.2
370
     9
100
AcDbMText
 10
109095.5262604569
 20
41924.76324526112
 30
0.0
 40
18.4
 41
0.0
 71
     5
 72
     1
  1
16.5"
 73
     1
 44
1.0
  0
POINT
  5
226
330
21E
100
AcDbEntity
  8
Defpoints
 62
     0
440
 16777216
 48
0.2
100
AcDbPoint
 10
108885.9762604569
 20
41841.94903310902
 30
0.0
  0
POINT
  5
227
330
21E
100
AcDbEntity
  8
Defpoints
 62
     0
440
 16777216
 48
0.2
100
AcDbPoint
 10
109305.0762604569
 20
41841.94903310902
 30
0.0
  0
POINT
  5
228
330
21E
100
AcDbEntity
  8
Defpoints
 62
     0
440
 16777216
 48
0.2
100
AcDbPoint
 10
109305.0762604569
 20
41908.81086430874
 30
0.0
  0
ENDBLK
  5
229
330
21E
100
AcDbEntity
  8
0
100
AcDbBlockEnd
  0
BLOCK
  5
22B
330
22A
100
AcDbEntity
  8
0
100
AcDbBlockBegin
  2
*D2
 70
     1
 10
0.0
 20
0.0
 30
0.0
  3
*D2
  1

  0
LINE
  5
22C
330
22A
100
AcDbEntity
  8
标注
 62
     0
440
 16777216
 48
0.2
370
    -2
100
AcDbLine
 10
108451.4762604569
 20
41856.94903310903
 30
0.0
 11
108378.139110612
 21
41856.94903310903
 31
0.0
  0
LINE
  5
22D
330
22A
100
AcDbEntity
  8
标注
 62
     0
440
 16777216
 48
0.2
370
    -2
100
AcDbLine
 10
108451.4762604569
 20
41450.54903310902
 30
0.0
 11
108378.139110612
 21
41450.54903310902
 31
0.0
  0
LINE
  5
22E
330
22A
100
AcDbEntity
  8
标注
 62
     0
440
 16777216
 48
0.2
370
    -2
100
AcDbLine
 10
108388.139110612
 20
41836.94903310902
 30
0.0
 11
108388.139110612
 21
41470.54903310903
 31
0.0
  0
SOLID
  5
22F
330
22A
100
AcDbEntity
  8
标注
 62
     0
440
 16777216
 48
0.2
100
AcDbTrace
 10
108384.8057772787
 20
41836.94903310902
 30
0.0
 11
108391.4724439454
 21
41836.94903310902
 31
0.0
 12
108388.139110612
 22
41856.94903310903
 32
0.0
 13
108388.139110612
 23
41856.94903310903
 33
0.0
  0
SOLID
  5
230
330
22A
100
AcDbEntity
  8
标注
 62
     0
440
 16777216
 48
0.2
100
AcDbTrace
 10
108384.8057772787
 20
41470.54903310903
 30
0.0
 11
108391.4724439454
 21
41470.54903310903
 31
0.0
 12
108388.139110612
 22
41450.54903310902
 32
0.0
 13
108388.139110612
 23
41450.54903310902
 33
0.0
  0
MTEXT
  5
231
330
22A
100
AcDbEntity
  8
标注
 62
     0
440
 16777216
 48
0.2
370
     9
100
AcDbMText
 10
108372.1867296596
 20
41653.74903310905
 30
0.0
 40
18.4
 41
0.0
 71
     5
 72
     1
  1
16"
 11
0.0000000000000001
 21
1.0
 31
0.0
 73
     1
 44
1.0
  0
POINT
  5
232
330
22A
100
AcDbEntity
  8
Defpoints
 62
     0
440
 16777216
 48
0.2
100
AcDbPoint
 10
108456.4762604569
 20
41856.94903310903
 30
0.0
  0
POINT
  5
233
330
22A
100
AcDbEntity
  8
Defpoints
 62
     0
440
 16777216
 48
0.2
100
AcDbPoint
 10
108456.4762604569
 20
41450.54903310902
 30
0.0
  0
POINT
  5
234
330
22A
100
AcDbEntity
  8
Defpoints
 62
     0
440
 16777216
 48
0.2
100
AcDbPoint
 10
108388.139110612
 20
41450.54903310902
 30
0.0
  0
ENDBLK
  5
235
330
22A
100
AcDbEntity
  8
0
100
AcDbBlockEnd
  0
BLOCK
  5
237
330
236
100
AcDbEntity
  8
0
100
AcDbBlockBegin
  2
*D3
 70
     1
 10
0.0
 20
0.0
 30
0.0
  3
*D3
  1

  0
LINE
  5
238
330
236
100
AcDbEntity
  8
标注
 62
     0
440
 16777216
 48
0.2
370
    -2
100
AcDbLine
 10
108912.5051705372
 20
41882.34903310902
 30
0.0
 11
108946.6546402886
 21
41882.34903310902
 31
0.0
  0
LINE
  5
239
330
236
100
AcDbEntity
  8
标注
 62
     0
440
 16777216
 48
0.2
370
    -2
100
AcDbLine
 10
108912.5051705372
 20
41856.94903310903
 30
0.0
 11
108946.6546402886
 21
41856.94903310903
 31
0.0
  0
LINE
  5
23A
330
236
100
AcDbEntity
  8
标注
 62
     0
440
 16777216
 48
0.2
370
    -2
100
AcDbLine
 10
108936.6546402886
 20
41902.34903310902
 30
0.0
 11
108936.6546402886
 21
41922.34903310902
 31
0.0
  0
LINE
  5
23B
330
236
100
AcDbEntity
  8
标注
 62
     0
440
 16777216
 48
0.2
370
    -2
100
AcDbLine
 10
108936.6546402886
 20
41836.94903310902
 30
0.0
 11
108936.6546402886
 21
41784.16808072807
 31
0.0
  0
LINE
  5
23C
330
236
100
AcDbEntity
  8
标注
 62
     0
440
 16777216
 48
0.2
370
    -2
100
AcDbLine
 10
108936.6546402886
 20
41882.34903310902
 30
0.0
 11
108936.6546402886
 21
41856.94903310903
 31
0.0
  0
SOLID
  5
23D
330
236
100
AcDbEntity
  8
标注
 62
     0
440
 16777216
 48
0.2
100
AcDbTrace
 10
108933.3213069553
 20
41902.34903310902
 30
0.0
 11
108939.987973622
 21
41902.34903310902
 31
0.0
 12
108936.6546402886
 22
41882.34903310902
 32
0.0
 13
108936.6546402886
 23
41882.34903310902
 33
0.0
  0
SOLID
  5
23E
330
236
100
AcDbEntity
  8
标注
 62
     0
440
 16777216
 48
0.2
100
AcDbTrace
 10
108933.3213069553
 20
41836.94903310902
 30
0.0
 11
108939.987973622
 21
41836.94903310902
 31
0.0
 12
108936.6546402886
 22
41856.94903310903
 32
0.0
 13
108936.6546402886
 23
41856.94903310903
 33
0.0
  0
MTEXT
  5
23F
330
236
100
AcDbEntity
  8
标注
 62
     0
440
 16777216
 48
0.2
370
     9
100
AcDbMText
 10
108920.7022593362
 20
41800.55855691856
 30
0.0
 40
18.4
 41
0.0
 71
     5
 72
     1
  1
1"
 11
0.0000000000000001
 21
1.0
 31
0.0
 73
     1
 44
1.0
  0
POINT
  5
240
330
236
100
AcDbEntity
  8
Defpoints
 62
     0
440
 16777216
 48
0.2
100
AcDbPoint
 10
108907.5051705372
 20
41882.34903310902
 30
0.0
  0
POINT
  5
241
330
236
100
AcDbEntity
  8
Defpoints
 62
     0
440
 16777216
 48
0.2
100
AcDbPoint
 10
108907.5051705372
 20
41856.94903310903
 30
0.0
  0
POINT
  5
242
330
236
100
AcDbEntity
  8
Defpoints
 62
     0
440
 16777216
 48
0.2
100
AcDbPoint
 10
108936.6546402886
 20
41856.94903310903
 30
0.0
  0
ENDBLK
  5
243
330
236
100
AcDbEntity
  8
0
100
AcDbBlockEnd
  0
BLOCK
  5
245
330
244
100
AcDbEntity
  8
0
100
AcDbBlockBegin
  2
*D4
 70
     1
 10
0.0
 20
0.0
 30
0.0
  3
*D4
  1

  0
LINE
  5
246
330
244
100
AcDbEntity
  8
标注
 62
     0
440
 16777216
 48
0.2
370
    -2
100
AcDbLine
 10
108416.0762604569
 20
41887.34903310902
 30
0.0
 11
108416.0762604569
 21
41962.38877012091
 31
0.0
  0
LINE
  5
247
330
244
100
AcDbEntity
  8
标注
 62
     0
440
 16777216
 48
0.2
370
    -2
100
AcDbLine
 10
109330.4762604569
 20
41887.34903310902
 30
0.0
 11
109330.4762604569
 21
41962.38877012091
 31
0.0
  0
LINE
  5
248
330
244
100
AcDbEntity
  8
标注
 62
     0
440
 16777216
 48
0.2
370
    -2
100
AcDbLine
 10
108436.0762604569
 20
41952.38877012092
 30
0.0
 11
109310.4762604569
 21
41952.38877012092
 31
0.0
  0
SOLID
  5
249
330
244
100
AcDbEntity
  8
标注
 62
     0
440
 16777216
 48
0.2
100
AcDbTrace
 10
108436.0762604569
 20
41955.72210345425
 30
0.0
 11
108436.0762604569
 21
41949.05543678758
 31
0.0
 12
108416.0762604569
 22
41952.38877012092
 32
0.0
 13
108416.0762604569
 23
41952.38877012092
 33
0.0
  0
SOLID
  5
24A
330
244
100
AcDbEntity
  8
标注
 62
     0
440
 16777216
 48
0.2
100
AcDbTrace
 10
109310.4762604569
 20
41955.72210345425
 30
0.0
 11
109310.4762604569
 21
41949.05543678758
 31
0.0
 12
109330.4762604569
 22
41952.38877012092
 32
0.0
 13
109330.4762604569
 23
41952.38877012092
 33
0.0
  0
MTEXT
  5
24B
330
244
100
AcDbEntity
  8
标注
 62
     0
440
 16777216
 48
0.2
370
     9
100
AcDbMText
 10
108873.2762604569
 20
41968.34115107329
 30
0.0
 40
18.4
 41
0.0
 71
     5
 72
     1
  1
36"
 73
     1
 44
1.0
  0
POINT
  5
24C
330
244
100
AcDbEntity
  8
Defpoints
 62
     0
440
 16777216
 48
0.2
100
AcDbPoint
 10
108416.0762604569
 20
41882.34903310902
 30
0.0
  0
POINT
  5
24D
330
244
100
AcDbEntity
  8
Defpoints
 62
     0
440
 16777216
 48
0.2
100
AcDbPoint
 10
109330.4762604569
 20
41882.34903310902
 30
0.0
  0
POINT
  5
24E
330
244
100
AcDbEntity
  8
Defpoints
 62
     0
440
 16777216
 48
0.2
100
AcDbPoint
 10
109330.4762604569
 20
41952.38877012092
 30
0.0
  0
ENDBLK
  5
24F
330
244
100
AcDbEntity
  8
0
100
AcDbBlockEnd
  0
BLOCK
  5
251
330
250
100
AcDbEntity
  8
0
100
AcDbBlockBegin
  2
*D5
 70
     1
 10
0.0
 20
0.0
 30
0.0
  3
*D5
  1

  0
LINE
  5
252
330
250
100
AcDbEntity
  8
标注
 62
     0
440
 16777216
 48
0.2
370
    -2
100
AcDbLine
 10
108441.4762604569
 20
41846.94903310902
 30
0.0
 11
108441.4762604569
 21
41918.81086430877
 31
0.0
  0
LINE
  5
253
330
250
100
AcDbEntity
  8
标注
 62
     0
440
 16777216
 48
0.2
370
    -2
100
AcDbLine
 10
108860.5762604569
 20
41846.94903310902
 30
0.0
 11
108860.5762604569
 21
41918.81086430877
 31
0.0
  0
LINE
  5
254
330
250
100
AcDbEntity
  8
标注
 62
     0
440
 16777216
 48
0.2
370
    -2
100
AcDbLine
 10
108461.4762604569
 20
41908.81086430877
 30
0.0
 11
108840.5762604569
 21
41908.81086430877
 31
0.0
  0
SOLID
  5
255
330
250
100
AcDbEntity
  8
标注
 62
     0
440
 16777216
 48
0.2
100
AcDbTrace
 10
108461.4762604569
 20
41912.14419764211
 30
0.0
 11
108461.4762604569
 21
41905.47753097543
 31
0.0
 12
108441.4762604569
 22
41908.81086430877
 32
0.0
 13
108441.4762604569
 23
41908.81086430877
 33
0.0
  0
SOLID
  5
256
330
250
100
AcDbEntity
  8
标注
 62
     0
440
 16777216
 48
0.2
100
AcDbTrace
 10
108840.5762604569
 20
41912.14419764211
 30
0.0
 11
108840.5762604569
 21
41905.47753097543
 31
0.0
 12
108860.5762604569
 22
41908.81086430877
 32
0.0
 13
108860.5762604569
 23
41908.81086430877
 33
0.0
  0
MTEXT
  5
257
330
250
100
AcDbEntity
  8
标注
 62
     0
440
 16777216
 48
0.2
370
     9
100
AcDbMText
 10
108651.0262604569
 20
41924.76324526116
 30
0.0
 40
18.4
 41
0.0
 71
     5
 72
     1
  1
16.5"
 73
     1
 44
1.0
  0
POINT
  5
258
330
250
100
AcDbEntity
  8
Defpoints
 62
     0
440
 16777216
 48
0.2
100
AcDbPoint
 10
108441.4762604569
 20
41841.94903310903
 30
0.0
  0
POINT
  5
259
330
250
100
AcDbEntity
  8
Defpoints
 62
     0
440
 16777216
 48
0.2
100
AcDbPoint
 10
108860.5762604569
 20
41841.94903310903
 30
0.0
  0
POINT
  5
25A
330
250
100
AcDbEntity
  8
Defpoints
 62
     0
440
 16777216
 48
0.2
100
AcDbPoint
 10
108860.5762604569
 20
41908.81086430877
 30
0.0
  0
ENDBLK
  5
25B
330
250
100
AcDbEntity
  8
0
100
AcDbBlockEnd
  0
BLOCK
  5
25D
330
25C
100
AcDbEntity
  8
0
100
AcDbBlockBegin
  2
*D6
 70
     1
 10
0.0
 20
0.0
 30
0.0
  3
*D6
  1

  0
LINE
  5
25E
330
25C
100
AcDbEntity
  8
标注
 62
     0
440
 16777216
 48
0.2
370
    -2
100
AcDbLine
 10
108411.0762604569
 20
41882.34903310902
 30
0.0
 11
108330.5476244728
 21
41882.34903310902
 31
0.0
  0
LINE
  5
25F
330
25C
100
AcDbEntity
  8
标注
 62
     0
440
 16777216
 48
0.2
370
    -2
100
AcDbLine
 10
108411.0762604569
 20
41399.74903310902
 30
0.0
 11
108330.5476244728
 21
41399.74903310902
 31
0.0
  0
LINE
  5
260
330
25C
100
AcDbEntity
  8
标注
 62
     0
440
 16777216
 48
0.2
370
    -2
100
AcDbLine
 10
108340.5476244728
 20
41862.34903310902
 30
0.0
 11
108340.5476244728
 21
41419.74903310902
 31
0.0
  0
SOLID
  5
261
330
25C
100
AcDbEntity
  8
标注
 62
     0
440
 16777216
 48
0.2
100
AcDbTrace
 10
108337.2142911394
 20
41862.34903310902
 30
0.0
 11
108343.8809578061
 21
41862.34903310902
 31
0.0
 12
108340.5476244728
 22
41882.34903310902
 32
0.0
 13
108340.5476244728
 23
41882.34903310902
 33
0.0
  0
SOLID
  5
262
330
25C
100
AcDbEntity
  8
标注
 62
     0
440
 16777216
 48
0.2
100
AcDbTrace
 10
108337.2142911394
 20
41419.74903310902
 30
0.0
 11
108343.8809578061
 21
41419.74903310902
 31
0.0
 12
108340.5476244728
 22
41399.74903310902
 32
0.0
 13
108340.5476244728
 23
41399.74903310902
 33
0.0
  0
MTEXT
  5
263
330
25C
100
AcDbEntity
  8
标注
 62
     0
440
 16777216
 48
0.2
370
     9
100
AcDbMText
 10
108324.5952435204
 20
41641.04903310903
 30
0.0
 40
18.4
 41
0.0
 71
     5
 72
     1
  1
19"
 11
0.0000000000000001
 21
1.0
 31
0.0
 73
     1
 44
1.0
  0
POINT
  5
264
330
25C
100
AcDbEntity
  8
Defpoints
 62
     0
440
 16777216
 48
0.2
100
AcDbPoint
 10
108416.0762604569
 20
41882.34903310902
 30
0.0
  0
POINT
  5
265
330
25C
100
AcDbEntity
  8
Defpoints
 62
     0
440
 16777216
 48
0.2
100
AcDbPoint
 10
108416.0762604569
 20
41399.74903310902
 30
0.0
  0
POINT
  5
266
330
25C
100
AcDbEntity
  8
Defpoints
 62
     0
440
 16777216
 48
0.2
100
AcDbPoint
 10
108340.5476244728
 20
41399.74903310902
 30
0.0
  0
ENDBLK
  5
267
330
25C
100
AcDbEntity
  8
0
100
AcDbBlockEnd
  0
BLOCK
  5
269
330
268
100
AcDbEntity
  8
0
100
AcDbBlockBegin
  2
*D7
 70
     1
 10
0.0
 20
0.0
 30
0.0
  3
*D7
  1

  0
LINE
  5
26A
330
268
100
AcDbEntity
  8
标注
 62
     0
440
 16777216
 48
0.2
370
    -2
100
AcDbLine
 10
108646.0262604569
 20
41736.94903310902
 30
0.0
 11
108577.7667516702
 21
41736.94903310902
 31
0.0
  0
LINE
  5
26B
330
268
100
AcDbEntity
  8
标注
 62
     0
440
 16777216
 48
0.2
370
    -2
100
AcDbLine
 10
108646.0262604569
 20
41856.94903310903
 30
0.0
 11
108577.7667516702
 21
41856.94903310903
 31
0.0
  0
LINE
  5
26C
330
268
100
AcDbEntity
  8
标注
 62
     0
440
 16777216
 48
0.2
370
    -2
100
AcDbLine
 10
108587.7667516702
 20
41756.94903310902
 30
0.0
 11
108587.7667516702
 21
41836.94903310902
 31
0.0
  0
SOLID
  5
26D
330
268
100
AcDbEntity
  8
标注
 62
     0
440
 16777216
 48
0.2
100
AcDbTrace
 10
108584.4334183368
 20
41756.94903310902
 30
0.0
 11
108591.1000850035
 21
41756.94903310902
 31
0.0
 12
108587.7667516702
 22
41736.94903310902
 32
0.0
 13
108587.7667516702
 23
41736.94903310902
 33
0.0
  0
SOLID
  5
26E
330
268
100
AcDbEntity
  8
标注
 62
     0
440
 16777216
 48
0.2
100
AcDbTrace
 10
108584.4334183368
 20
41836.94903310902
 30
0.0
 11
108591.1000850035
 21
41836.94903310902
 31
0.0
 12
108587.7667516702
 22
41856.94903310903
 32
0.0
 13
108587.7667516702
 23
41856.94903310903
 33
0.0
  0
MTEXT
  5
26F
330
268
100
AcDbEntity
  8
标注
 62
     0
440
 16777216
 48
0.2
370
     9
100
AcDbMText
 10
108571.8143707178
 20
41796.94903310904
 30
0.0
 40
18.4
 41
0.0
 71
     5
 72
     1
  1
4.7"
 11
0.0000000000000001
 21
1.0
 31
0.0
 73
     1
 44
1.0
  0
POINT
  5
270
330
268
100
AcDbEntity
  8
Defpoints
 62
     0
440
 16777216
 48
0.2
100
AcDbPoint
 10
108651.0262604569
 20
41736.94903310902
 30
0.0
  0
POINT
  5
271
330
268
100
AcDbEntity
  8
Defpoints
 62
     0
440
 16777216
 48
0.2
100
AcDbPoint
 10
108651.0262604569
 20
41856.94903310903
 30
0.0
  0
POINT
  5
272
330
268
100
AcDbEntity
  8
Defpoints
 62
     0
440
 16777216
 48
0.2
100
AcDbPoint
 10
108587.7667516702
 20
41856.94903310903
 30
0.0
  0
ENDBLK
  5
273
330
268
100
AcDbEntity
  8
0
100
AcDbBlockEnd
  0
BLOCK
  5
275
330
274
100
AcDbEntity
  8
0
100
AcDbBlockBegin
  2
*D8
 70
     1
 10
0.0
 20
0.0
 30
0.0
  3
*D8
  1

  0
LINE
  5
276
330
274
100
AcDbEntity
  8
标注
 62
     0
440
 16777216
 48
0.2
370
    -2
100
AcDbLine
 10
108485.3757393354
 20
41675.03537569329
 30
0.0
 11
108577.4945039691
 21
41709.4657511396
 31
0.0
  0
LINE
  5
277
330
274
100
AcDbEntity
  8
标注
 62
     0
440
 16777216
 48
0.2
370
    -2
100
AcDbLine
 10
108724.5580169448
 20
41764.43231507847
 30
0.0
 11
108743.2922224194
 21
41771.43442513437
 31
0.0
  0
MTEXT
  5
278
102
{ACAD_XDICTIONARY
360
899
102
}
330
274
100
AcDbEntity
  8
标注
 62
     0
440
 16777216
 48
0.2
370
     9
100
AcDbMText
 10
108516.4830025608
 20
41703.69226751706
 30
0.0
 40
18.4
 41
0.0
 71
     5
 72
     1
  1
\U+22054.6"
 11
0.9367102737306394
 21
0.3501055027951867
 31
0.0
 73
     1
 44
1.0
  0
LINE
  5
279
330
274
100
AcDbEntity
  8
标注
 62
     0
440
 16777216
 48
0.2
370
    -2
100
AcDbLine
 10
108705.8238114702
 20
41757.43020502256
 30
0.0
 11
108596.2287094437
 21
41716.4678611955
 31
0.0
  0
SOLID
  5
27A
330
274
100
AcDbEntity
  8
标注
 62
     0
440
 16777216
 48
0.2
100
AcDbTrace
 10
108723.3909986022
 20
41767.55468265757
 30
0.0
 11
108725.7250352875
 21
41761.30994749937
 31
0.0
 12
108705.8238114702
 22
41757.43020502256
 32
0.0
 13
108705.8238114702
 23
41757.43020502256
 33
0.0
  0
SOLID
  5
27B
330
274
100
AcDbEntity
  8
标注
 62
     0
440
 16777216
 48
0.2
100
AcDbTrace
 10
108576.3274856264
 20
41712.5881187187
 30
0.0
 11
108578.6615223117
 21
41706.34338356051
 31
0.0
 12
108596.2287094437
 22
41716.4678611955
 32
0.0
 13
108596.2287094437
 23
41716.4678611955
 33
0.0
  0
POINT
  5
27C
330
274
100
AcDbEntity
  8
Defpoints
 62
     0
440
 16777216
 48
0.2
100
AcDbPoint
 10
108596.2287094437
 20
41716.4678611955
 30
0.0
  0
POINT
  5
27D
330
274
100
AcDbEntity
  8
Defpoints
 62
     0
440
 16777216
 48
0.2
100
AcDbPoint
 10
108705.8238114702
 20
41757.43020502256
 30
0.0
  0
ENDBLK
  5
27E
330
274
100
AcDbEntity
  8
0
100
AcDbBlockEnd
  0
BLOCK
  5
280
330
27F
100
AcDbEntity
  8
0
100
AcDbBlockBegin
  2
*D9
 70
     1
 10
0.0
 20
0.0
 30
0.0
  3
*D9
  1

  0
LINE
  5
281
330
27F
100
AcDbEntity
  8
标注
 62
     0
440
 16777216
 48
0.2
370
    -2
100
AcDbLine
 10
108526.2711138723
 20
41631.51164704398
 30
0.0
 11
108601.3816988897
 21
41694.99170351344
 31
0.0
  0
LINE
  5
282
330
27F
100
AcDbEntity
  8
标注
 62
     0
440
 16777216
 48
0.2
370
    -2
100
AcDbLine
 10
108700.6708220242
 20
41778.90636270464
 30
0.0
 11
108715.9460717372
 21
41791.8163102725
 31
0.0
  0
MTEXT
  5
283
102
{ACAD_XDICTIONARY
360
89B
102
}
330
27F
100
AcDbEntity
  8
标注
 62
     0
440
 16777216
 48
0.2
370
     9
100
AcDbMText
 10
108545.8915614406
 20
41668.980531623
 30
0.0
 40
18.4
 41
0.0
 71
     5
 72
     1
  1
\U+22053.5"
 11
0.7637624856503886
 21
0.6454973783937005
 31
0.0
 73
     1
 44
1.0
  0
LINE
  5
284
330
27F
100
AcDbEntity
  8
标注
 62
     0
440
 16777216
 48
0.2
370
    -2
100
AcDbLine
 10
108685.3955723112
 20
41765.99641513676
 30
0.0
 11
108616.6569486026
 21
41707.9016510813
 31
0.0
  0
SOLID
  5
285
330
27F
100
AcDbEntity
  8
标注
 62
     0
440
 16777216
 48
0.2
100
AcDbTrace
 10
108698.5191640962
 20
41781.45223765681
 30
0.0
 11
108702.8224799522
 21
41776.36048775247
 31
0.0
 12
108685.3955723112
 22
41765.99641513676
 32
0.0
 13
108685.3955723112
 23
41765.99641513676
 33
0.0
  0
SOLID
  5
286
330
27F
100
AcDbEntity
  8
标注
 62
     0
440
 16777216
 48
0.2
100
AcDbTrace
 10
108599.2300409617
 20
41697.5375784656
 30
0.0
 11
108603.5333568176
 21
41692.44582856126
 31
0.0
 12
108616.6569486026
 22
41707.9016510813
 32
0.0
 13
108616.6569486026
 23
41707.9016510813
 33
0.0
  0
POINT
  5
287
330
27F
100
AcDbEntity
  8
Defpoints
 62
     0
440
 16777216
 48
0.2
100
AcDbPoint
 10
108616.6569486026
 20
41707.9016510813
 30
0.0
  0
POINT
  5
288
330
27F
100
AcDbEntity
  8
Defpoints
 62
     0
440
 16777216
 48
0.2
100
AcDbPoint
 10
108685.3955723112
 20
41765.99641513676
 30
0.0
  0
ENDBLK
  5
289
330
27F
100
AcDbEntity
  8
0
100
AcDbBlockEnd
  0
BLOCK
  5
28B
330
28A
100
AcDbEntity
  8
0
100
AcDbBlockBegin
  2
*D10
 70
     1
 10
0.0
 20
0.0
 30
0.0
  3
*D10
  1

  0
LINE
  5
28C
330
28A
100
AcDbEntity
  8
标注
 62
     0
440
 16777216
 48
0.2
370
    -2
100
AcDbLine
 10
109100.5262604569
 20
41736.94903310901
 30
0.0
 11
109177.2434859046
 21
41736.94903310901
 31
0.0
  0
LINE
  5
28D
330
28A
100
AcDbEntity
  8
标注
 62
     0
440
 16777216
 48
0.2
370
    -2
100
AcDbLine
 10
109100.5262604569
 20
41856.94903310902
 30
0.0
 11
109177.2434859046
 21
41856.94903310902
 31
0.0
  0
LINE
  5
28E
330
28A
100
AcDbEntity
  8
标注
 62
     0
440
 16777216
 48
0.2
370
    -2
100
AcDbLine
 10
109167.2434859046
 20
41756.94903310902
 30
0.0
 11
109167.2434859046
 21
41836.94903310902
 31
0.0
  0
SOLID
  5
28F
330
28A
100
AcDbEntity
  8
标注
 62
     0
440
 16777216
 48
0.2
100
AcDbTrace
 10
109163.9101525712
 20
41756.94903310902
 30
0.0
 11
109170.5768192379
 21
41756.94903310902
 31
0.0
 12
109167.2434859046
 22
41736.94903310901
 32
0.0
 13
109167.2434859046
 23
41736.94903310901
 33
0.0
  0
SOLID
  5
290
330
28A
100
AcDbEntity
  8
标注
 62
     0
440
 16777216
 48
0.2
100
AcDbTrace
 10
109163.9101525712
 20
41836.94903310902
 30
0.0
 11
109170.5768192379
 21
41836.94903310902
 31
0.0
 12
109167.2434859046
 22
41856.94903310902
 32
0.0
 13
109167.2434859046
 23
41856.94903310902
 33
0.0
  0
MTEXT
  5
291
330
28A
100
AcDbEntity
  8
标注
 62
     0
440
 16777216
 48
0.2
370
     9
100
AcDbMText
 10
109151.2911049522
 20
41796.94903310903
 30
0.0
 40
18.4
 41
0.0
 71
     5
 72
     1
  1
4.7"
 11
0.0000000000000001
 21
1.0
 31
0.0
 73
     1
 44
1.0
  0
POINT
  5
292
330
28A
100
AcDbEntity
  8
Defpoints
 62
     0
440
 16777216
 48
0.2
100
AcDbPoint
 10
109095.5262604569
 20
41736.94903310901
 30
0.0
  0
POINT
  5
293
330
28A
100
AcDbEntity
  8
Defpoints
 62
     0
440
 16777216
 48
0.2
100
AcDbPoint
 10
109095.5262604569
 20
41856.94903310902
 30
0.0
  0
POINT
  5
294
330
28A
100
AcDbEntity
  8
Defpoints
 62
     0
440
 16777216
 48
0.2
100
AcDbPoint
 10
109167.2434859046
 20
41856.94903310902
 30
0.0
  0
ENDBLK
  5
295
330
28A
100
AcDbEntity
  8
0
100
AcDbBlockEnd
  0
BLOCK
  5
297
330
296
100
AcDbEntity
  8
0
100
AcDbBlockBegin
  2
*D11
 70
     1
 10
0.0
 20
0.0
 30
0.0
  3
*D11
  1

  0
LINE
  5
298
330
296
100
AcDbEntity
  8
标注
 62
     0
440
 16777216
 48
0.2
370
    -2
100
AcDbLine
 10
109263.4027211902
 20
41681.35325940181
 30
0.0
 11
109170.0461046874
 21
41712.27024027269
 31
0.0
  0
LINE
  5
299
330
296
100
AcDbEntity
  8
标注
 62
     0
440
 16777216
 48
0.2
370
    -2
100
AcDbLine
 10
109021.0064162264
 20
41761.62782594537
 30
0.0
 11
109002.0204686518
 21
41767.91541647692
 31
0.0
  0
MTEXT
  5
29A
102
{ACAD_XDICTIONARY
360
89D
102
}
330
296
100
AcDbEntity
  8
标注
 62
     0
440
 16777216
 48
0.2
370
     9
100
AcDbMText
 10
109231.2324886978
 20
41708.81150799411
 30
0.0
 40
18.4
 41
0.0
 71
     5
 72
     1
  1
\U+22054.6"
 11
0.9492973787327001
 21
-0.3143795265777093
 31
0.0
 73
     1
 44
1.0
  0
LINE
  5
29B
330
296
100
AcDbEntity
  8
标注
 62
     0
440
 16777216
 48
0.2
370
    -2
100
AcDbLine
 10
109039.9923638011
 20
41755.34023541382
 30
0.0
 11
109151.0601571128
 21
41718.55783080424
 31
0.0
  0
SOLID
  5
29C
330
296
100
AcDbEntity
  8
标注
 62
     0
440
 16777216
 48
0.2
100
AcDbTrace
 10
109022.0543479817
 20
41764.79215054113
 30
0.0
 11
109019.9584844712
 21
41758.4635013496
 31
0.0
 12
109039.9923638011
 22
41755.34023541382
 32
0.0
 13
109039.9923638011
 23
41755.34023541382
 33
0.0
  0
SOLID
  5
29D
330
296
100
AcDbEntity
  8
标注
 62
     0
440
 16777216
 48
0.2
100
AcDbTrace
 10
109171.0940364427
 20
41715.43456486845
 30
0.0
 11
109168.9981729322
 21
41709.10591567691
 31
0.0
 12
109151.0601571128
 22
41718.55783080424
 32
0.0
 13
109151.0601571128
 23
41718.55783080424
 33
0.0
  0
POINT
  5
29E
330
296
100
AcDbEntity
  8
Defpoints
 62
     0
440
 16777216
 48
0.2
100
AcDbPoint
 10
109151.0601571128
 20
41718.55783080424
 30
0.0
  0
POINT
  5
29F
330
296
100
AcDbEntity
  8
Defpoints
 62
     0
440
 16777216
 48
0.2
100
AcDbPoint
 10
109039.9923638011
 20
41755.34023541382
 30
0.0
  0
ENDBLK
  5
2A0
330
296
100
AcDbEntity
  8
0
100
AcDbBlockEnd
  0
BLOCK
  5
2A2
330
2A1
100
AcDbEntity
  8
0
100
AcDbBlockBegin
  2
*D12
 70
     1
 10
0.0
 20
0.0
 30
0.0
  3
*D12
  1

  0
LINE
  5
2A3
330
2A1
100
AcDbEntity
  8
标注
 62
     0
440
 16777216
 48
0.2
370
    -2
100
AcDbLine
 10
109217.728352123
 20
41628.56297417137
 30
0.0
 11
109144.1548696121
 21
41693.81832048296
 31
0.0
  0
LINE
  5
2A4
330
2A1
100
AcDbEntity
  8
标注
 62
     0
440
 16777216
 48
0.2
370
    -2
100
AcDbLine
 10
109046.8976513017
 20
41780.07974573505
 30
0.0
 11
109031.9350023309
 21
41793.35073423537
 31
0.0
  0
MTEXT
  5
2A5
102
{ACAD_XDICTIONARY
360
89F
102
}
330
2A1
100
AcDbEntity
  8
标注
 62
     0
440
 16777216
 48
0.2
370
     9
100
AcDbMText
 10
109199.0081285615
 20
41666.48964689897
 30
0.0
 40
18.4
 41
0.0
 71
     5
 72
     1
  1
\U+22053.5"
 11
0.7481324485414181
 21
-0.66354942501627
 31
0.0
 73
     1
 44
1.0
  0
LINE
  5
2A6
330
2A1
100
AcDbEntity
  8
标注
 62
     0
440
 16777216
 48
0.2
370
    -2
100
AcDbLine
 10
109061.8603002726
 20
41766.80875723473
 30
0.0
 11
109129.1922206413
 21
41707.08930898329
 31
0.0
  0
SOLID
  5
2A7
330
2A1
100
AcDbEntity
  8
标注
 62
     0
440
 16777216
 48
0.2
100
AcDbTrace
 10
109049.1094827185
 20
41782.5735205635
 30
0.0
 11
109044.685819885
 21
41777.58597090657
 31
0.0
 12
109061.8603002726
 22
41766.80875723473
 32
0.0
 13
109061.8603002726
 23
41766.80875723473
 33
0.0
  0
SOLID
  5
2A8
330
2A1
100
AcDbEntity
  8
标注
 62
     0
440
 16777216
 48
0.2
100
AcDbTrace
 10
109146.3667010288
 20
41696.31209531142
 30
0.0
 11
109141.9430381954
 21
41691.32454565449
 31
0.0
 12
109129.1922206413
 22
41707.08930898329
 32
0.0
 13
109129.1922206413
 23
41707.08930898329
 33
0.0
  0
POINT
  5
2A9
330
2A1
100
AcDbEntity
  8
Defpoints
 62
     0
440
 16777216
 48
0.2
100
AcDbPoint
 10
109129.1922206413
 20
41707.08930898329
 30
0.0
  0
POINT
  5
2AA
330
2A1
100
AcDbEntity
  8
Defpoints
 62
     0
440
 16777216
 48
0.2
100
AcDbPoint
 10
109061.8603002726
 20
41766.80875723473
 30
0.0
  0
ENDBLK
  5
2AB
330
2A1
100
AcDbEntity
  8
0
100
AcDbBlockEnd
  0
BLOCK
  5
2AD
330
2AC
100
AcDbEntity
  8
0
100
AcDbBlockBegin
  2
*D13
 70
     1
 10
0.0
 20
0.0
 30
0.0
  3
*D13
  1

  0
LINE
  5
2AE
330
2AC
100
AcDbEntity
  8
标注
 62
     0
440
 16777216
 48
0.2
370
    -2
100
AcDbLine
 10
108885.9762604569
 20
41639.59368873209
 30
0.0
 11
108885.9762604569
 21
41601.47555691718
 31
0.0
  0
LINE
  5
2AF
330
2AC
100
AcDbEntity
  8
标注
 62
     0
440
 16777216
 48
0.2
370
    -2
100
AcDbLine
 10
108860.5762604569
 20
41639.8077229709
 30
0.0
 11
108860.5762604569
 21
41601.47555691718
 31
0.0
  0
LINE
  5
2B0
330
2AC
100
AcDbEntity
  8
标注
 62
     0
440
 16777216
 48
0.2
370
    -2
100
AcDbLine
 10
108905.9762604569
 20
41611.47555691718
 30
0.0
 11
108925.9762604569
 21
41611.47555691718
 31
0.0
  0
LINE
  5
2B1
330
2AC
100
AcDbEntity
  8
标注
 62
     0
440
 16777216
 48
0.2
370
    -2
100
AcDbLine
 10
108840.5762604569
 20
41611.47555691718
 30
0.0
 11
108787.795308076
 21
41611.47555691718
 31
0.0
  0
LINE
  5
2B2
330
2AC
100
AcDbEntity
  8
标注
 62
     0
440
 16777216
 48
0.2
370
    -2
100
AcDbLine
 10
108885.9762604569
 20
41611.47555691718
 30
0.0
 11
108860.5762604569
 21
41611.47555691718
 31
0.0
  0
SOLID
  5
2B3
330
2AC
100
AcDbEntity
  8
标注
 62
     0
440
 16777216
 48
0.2
100
AcDbTrace
 10
108905.9762604569
 20
41614.80889025051
 30
0.0
 11
108905.9762604569
 21
41608.14222358385
 31
0.0
 12
108885.9762604569
 22
41611.47555691718
 32
0.0
 13
108885.9762604569
 23
41611.47555691718
 33
0.0
  0
SOLID
  5
2B4
330
2AC
100
AcDbEntity
  8
标注
 62
     0
440
 16777216
 48
0.2
100
AcDbTrace
 10
108840.5762604569
 20
41614.80889025051
 30
0.0
 11
108840.5762604569
 21
41608.14222358385
 31
0.0
 12
108860.5762604569
 22
41611.47555691718
 32
0.0
 13
108860.5762604569
 23
41611.47555691718
 33
0.0
  0
MTEXT
  5
2B5
330
2AC
100
AcDbEntity
  8
标注
 62
     0
440
 16777216
 48
0.2
370
     9
100
AcDbMText
 10
108804.1857842664
 20
41627.42793786956
 30
0.0
 40
18.4
 41
0.0
 71
     5
 72
     1
  1
1"
 73
     1
 44
1.0
  0
POINT
  5
2B6
330
2AC
100
AcDbEntity
  8
Defpoints
 62
     0
440
 16777216
 48
0.2
100
AcDbPoint
 10
108885.9762604569
 20
41644.59368873209
 30
0.0
  0
POINT
  5
2B7
330
2AC
100
AcDbEntity
  8
Defpoints
 62
     0
440
 16777216
 48
0.2
100
AcDbPoint
 10
108860.5762604569
 20
41644.8077229709
 30
0.0
  0
POINT
  5
2B8
330
2AC
100
AcDbEntity
  8
Defpoints
 62
     0
440
 16777216
 48
0.2
100
AcDbPoint
 10
108860.5762604569
 20
41611.47555691718
 30
0.0
  0
ENDBLK
  5
2B9
330
2AC
100
AcDbEntity
  8
0
100
AcDbBlockEnd
  0
BLOCK
  5
2BB
330
2BA
100
AcDbEntity
  8
0
100
AcDbBlockBegin
  2
*D14
 70
     1
 10
0.0
 20
0.0
 30
0.0
  3
*D14
  1

  0
LINE
  5
2BC
330
2BA
100
AcDbEntity
  8
标注
 62
     0
440
 16777216
 48
0.2
370
    -2
100
AcDbLine
 10
108416.0762604569
 20
41636.04903310902
 30
0.0
 11
108416.0762604569
 21
41591.47951913513
 31
0.0
  0
LINE
  5
2BD
330
2BA
100
AcDbEntity
  8
标注
 62
     0
440
 16777216
 48
0.2
370
    -2
100
AcDbLine
 10
108441.4762604569
 20
41636.04903310902
 30
0.0
 11
108441.4762604569
 21
41591.47951913513
 31
0.0
  0
LINE
  5
2BE
330
2BA
100
AcDbEntity
  8
标注
 62
     0
440
 16777216
 48
0.2
370
    -2
100
AcDbLine
 10
108396.0762604569
 20
41601.47951913512
 30
0.0
 11
108376.0762604569
 21
41601.47951913512
 31
0.0
  0
LINE
  5
2BF
330
2BA
100
AcDbEntity
  8
标注
 62
     0
440
 16777216
 48
0.2
370
    -2
100
AcDbLine
 10
108461.4762604569
 20
41601.47951913512
 30
0.0
 11
108514.2572128379
 21
41601.47951913512
 31
0.0
  0
LINE
  5
2C0
330
2BA
100
AcDbEntity
  8
标注
 62
     0
440
 16777216
 48
0.2
370
    -2
100
AcDbLine
 10
108416.0762604569
 20
41601.47951913512
 30
0.0
 11
108441.4762604569
 21
41601.47951913512
 31
0.0
  0
SOLID
  5
2C1
330
2BA
100
AcDbEntity
  8
标注
 62
     0
440
 16777216
 48
0.2
100
AcDbTrace
 10
108396.0762604569
 20
41604.81285246846
 30
0.0
 11
108396.0762604569
 21
41598.14618580179
 31
0.0
 12
108416.0762604569
 22
41601.47951913512
 32
0.0
 13
108416.0762604569
 23
41601.47951913512
 33
0.0
  0
SOLID
  5
2C2
330
2BA
100
AcDbEntity
  8
标注
 62
     0
440
 16777216
 48
0.2
100
AcDbTrace
 10
108461.4762604569
 20
41604.81285246846
 30
0.0
 11
108461.4762604569
 21
41598.14618580179
 31
0.0
 12
108441.4762604569
 22
41601.47951913512
 32
0.0
 13
108441.4762604569
 23
41601.47951913512
 33
0.0
  0
MTEXT
  5
2C3
330
2BA
100
AcDbEntity
  8
标注
 62
     0
440
 16777216
 48
0.2
370
     9
100
AcDbMText
 10
108497.8667366474
 20
41617.43190008751
 30
0.0
 40
18.4
 41
0.0
 71
     5
 72
     1
  1
1"
 73
     1
 44
1.0
  0
POINT
  5
2C4
330
2BA
100
AcDbEntity
  8
Defpoints
 62
     0
440
 16777216
 48
0.2
100
AcDbPoint
 10
108416.0762604569
 20
41641.04903310902
 30
0.0
  0
POINT
  5
2C5
330
2BA
100
AcDbEntity
  8
Defpoints
 62
     0
440
 16777216
 48
0.2
100
AcDbPoint
 10
108441.4762604569
 20
41641.04903310902
 30
0.0
  0
POINT
  5
2C6
330
2BA
100
AcDbEntity
  8
Defpoints
 62
     0
440
 16777216
 48
0.2
100
AcDbPoint
 10
108441.4762604569
 20
41601.47951913512
 30
0.0
  0
ENDBLK
  5
2C7
330
2BA
100
AcDbEntity
  8
0
100
AcDbBlockEnd
  0
BLOCK
  5
2C9
330
2C8
100
AcDbEntity
  8
0
100
AcDbBlockBegin
  2
*D15
 70
     1
 10
0.0
 20
0.0
 30
0.0
  3
*D15
  1

  0
LINE
  5
2CA
330
2C8
100
AcDbEntity
  8
标注
 62
     0
440
 16777216
 48
0.2
370
    -2
100
AcDbLine
 10
109330.4762604569
 20
41636.04903310902
 30
0.0
 11
109330.4762604569
 21
41594.08507083716
 31
0.0
  0
LINE
  5
2CB
330
2C8
100
AcDbEntity
  8
标注
 62
     0
440
 16777216
 48
0.2
370
    -2
100
AcDbLine
 10
109305.0762604569
 20
41636.04903310902
 30
0.0
 11
109305.0762604569
 21
41594.08507083716
 31
0.0
  0
LINE
  5
2CC
330
2C8
100
AcDbEntity
  8
标注
 62
     0
440
 16777216
 48
0.2
370
    -2
100
AcDbLine
 10
109350.4762604569
 20
41604.08507083715
 30
0.0
 11
109370.4762604569
 21
41604.08507083715
 31
0.0
  0
LINE
  5
2CD
330
2C8
100
AcDbEntity
  8
标注
 62
     0
440
 16777216
 48
0.2
370
    -2
100
AcDbLine
 10
109285.0762604569
 20
41604.08507083715
 30
0.0
 11
109232.295308076
 21
41604.08507083715
 31
0.0
  0
LINE
  5
2CE
330
2C8
100
AcDbEntity
  8
标注
 62
     0
440
 16777216
 48
0.2
370
    -2
100
AcDbLine
 10
109330.4762604569
 20
41604.08507083715
 30
0.0
 11
109305.0762604569
 21
41604.08507083715
 31
0.0
  0
SOLID
  5
2CF
330
2C8
100
AcDbEntity
  8
标注
 62
     0
440
 16777216
 48
0.2
100
AcDbTrace
 10
109350.4762604569
 20
41607.41840417049
 30
0.0
 11
109350.4762604569
 21
41600.75173750382
 31
0.0
 12
109330.4762604569
 22
41604.08507083715
 32
0.0
 13
109330.4762604569
 23
41604.08507083715
 33
0.0
  0
SOLID
  5
2D0
330
2C8
100
AcDbEntity
  8
标注
 62
     0
440
 16777216
 48
0.2
100
AcDbTrace
 10
109285.0762604569
 20
41607.41840417049
 30
0.0
 11
109285.0762604569
 21
41600.75173750382
 31
0.0
 12
109305.0762604569
 22
41604.08507083715
 32
0.0
 13
109305.0762604569
 23
41604.08507083715
 33
0.0
  0
MTEXT
  5
2D1
330
2C8
100
AcDbEntity
  8
标注
 62
     0
440
 16777216
 48
0.2
370
     9
100
AcDbMText
 10
109248.6857842664
 20
41620.03745178954
 30
0.0
 40
18.4
 41
0.0
 71
     5
 72
     1
  1
1"
 73
     1
 44
1.0
  0
POINT
  5
2D2
330
2C8
100
AcDbEntity
  8
Defpoints
 62
     0
440
 16777216
 48
0.2
100
AcDbPoint
 10
109330.4762604569
 20
41641.04903310902
 30
0.0
  0
POINT
  5
2D3
330
2C8
100
AcDbEntity
  8
Defpoints
 62
     0
440
 16777216
 48
0.2
100
AcDbPoint
 10
109305.0762604569
 20
41641.04903310902
 30
0.0
  0
POINT
  5
2D4
330
2C8
100
AcDbEntity
  8
Defpoints
 62
     0
440
 16777216
 48
0.2
100
AcDbPoint
 10
109305.0762604569
 20
41604.08507083715
 30
0.0
  0
ENDBLK
  5
2D5
330
2C8
100
AcDbEntity
  8
0
100
AcDbBlockEnd
  0
BLOCK
  5
2D7
330
2D6
100
AcDbEntity
  8
0
100
AcDbBlockBegin
  2
*D16
 70
     1
 10
0.0
 20
0.0
 30
0.0
  3
*D16
  1

  0
LINE
  5
2D8
330
2D6
100
AcDbEntity
  8
标注
 62
     0
440
 16777216
 48
0.2
370
    -2
100
AcDbLine
 10
108656.0262604569
 20
41450.54903310902
 30
0.0
 11
108664.0078826202
 21
41450.54903310902
 31
0.0
  0
LINE
  5
2D9
330
2D6
100
AcDbEntity
  8
标注
 62
     0
440
 16777216
 48
0.2
370
    -2
100
AcDbLine
 10
108656.0262604569
 20
41399.74903310902
 30
0.0
 11
108664.0078826202
 21
41399.74903310902
 31
0.0
  0
LINE
  5
2DA
330
2D6
100
AcDbEntity
  8
标注
 62
     0
440
 16777216
 48
0.2
370
    -2
100
AcDbLine
 10
108654.0078826202
 20
41419.74903310902
 30
0.0
 11
108654.0078826202
 21
41430.54903310902
 31
0.0
  0
LINE
  5
2DB
330
2D6
100
AcDbEntity
  8
标注
 62
     0
440
 16777216
 48
0.2
370
    -2
100
AcDbLine
 10
108654.0078826202
 20
41450.54903310902
 30
0.0
 11
108654.0078826202
 21
41511.03142259264
 31
0.0
  0
SOLID
  5
2DC
330
2D6
100
AcDbEntity
  8
标注
 62
     0
440
 16777216
 48
0.2
100
AcDbTrace
 10
108650.6745492869
 20
41419.74903310902
 30
0.0
 11
108657.3412159536
 21
41419.74903310902
 31
0.0
 12
108654.0078826202
 22
41399.74903310902
 32
0.0
 13
108654.0078826202
 23
41399.74903310902
 33
0.0
  0
SOLID
  5
2DD
330
2D6
100
AcDbEntity
  8
标注
 62
     0
440
 16777216
 48
0.2
100
AcDbTrace
 10
108650.6745492869
 20
41430.54903310902
 30
0.0
 11
108657.3412159536
 21
41430.54903310902
 31
0.0
 12
108654.0078826202
 22
41450.54903310902
 32
0.0
 13
108654.0078826202
 23
41450.54903310902
 33
0.0
  0
MTEXT
  5
2DE
330
2D6
100
AcDbEntity
  8
标注
 62
     0
440
 16777216
 48
0.2
370
     9
100
AcDbMText
 10
108638.0555016678
 20
41493.32666068789
 30
0.0
 40
18.4
 41
0.0
 71
     5
 72
     1
  1
2"
 11
0.0000000000000001
 21
1.0
 31
0.0
 73
     1
 44
1.0
  0
POINT
  5
2DF
330
2D6
100
AcDbEntity
  8
Defpoints
 62
     0
440
 16777216
 48
0.2
100
AcDbPoint
 10
108651.0262604569
 20
41450.54903310902
 30
0.0
  0
POINT
  5
2E0
330
2D6
100
AcDbEntity
  8
Defpoints
 62
     0
440
 16777216
 48
0.2
100
AcDbPoint
 10
108651.0262604569
 20
41399.74903310902
 30
0.0
  0
POINT
  5
2E1
330
2D6
100
AcDbEntity
  8
Defpoints
 62
     0
440
 16777216
 48
0.2
100
AcDbPoint
 10
108654.0078826202
 20
41399.74903310902
 30
0.0
  0
ENDBLK
  5
2E2
330
2D6
100
AcDbEntity
  8
0
100
AcDbBlockEnd
  0
BLOCK
  5
2E4
330
2E3
100
AcDbEntity
  8
0
100
AcDbBlockBegin
  2
*D17
 70
     1
 10
0.0
 20
0.0
 30
0.0
  3
*D17
  1

  0
LINE
  5
2E5
330
2E3
100
AcDbEntity
  8
标注
 62
     0
440
 16777216
 48
0.2
370
    -2
100
AcDbLine
 10
108583.3275534052
 20
41399.74903310902
 30
0.0
 11
108577.9058285169
 21
41399.74903310902
 31
0.0
  0
LINE
  5
2E6
330
2E3
100
AcDbEntity
  8
标注
 62
     0
440
 16777216
 48
0.2
370
    -2
100
AcDbLine
 10
108583.3275534052
 20
41434.74903310902
 30
0.0
 11
108577.9058285169
 21
41434.74903310902
 31
0.0
  0
LINE
  5
2E7
330
2E3
100
AcDbEntity
  8
标注
 62
     0
440
 16777216
 48
0.2
370
    -2
100
AcDbLine
 10
108587.9058285169
 20
41379.74903310902
 30
0.0
 11
108587.9058285169
 21
41359.74903310902
 31
0.0
  0
LINE
  5
2E8
330
2E3
100
AcDbEntity
  8
标注
 62
     0
440
 16777216
 48
0.2
370
    -2
100
AcDbLine
 10
108587.9058285169
 20
41454.74903310902
 30
0.0
 11
108587.9058285169
 21
41533.81569977568
 31
0.0
  0
LINE
  5
2E9
330
2E3
100
AcDbEntity
  8
标注
 62
     0
440
 16777216
 48
0.2
370
    -2
100
AcDbLine
 10
108587.9058285169
 20
41399.74903310902
 30
0.0
 11
108587.9058285169
 21
41434.74903310902
 31
0.0
  0
SOLID
  5
2EA
330
2E3
100
AcDbEntity
  8
标注
 62
     0
440
 16777216
 48
0.2
100
AcDbTrace
 10
108584.5724951836
 20
41379.74903310902
 30
0.0
 11
108591.2391618502
 21
41379.74903310902
 31
0.0
 12
108587.9058285169
 22
41399.74903310902
 32
0.0
 13
108587.9058285169
 23
41399.74903310902
 33
0.0
  0
SOLID
  5
2EB
330
2E3
100
AcDbEntity
  8
标注
 62
     0
440
 16777216
 48
0.2
100
AcDbTrace
 10
108584.5724951836
 20
41454.74903310902
 30
0.0
 11
108591.2391618502
 21
41454.74903310902
 31
0.0
 12
108587.9058285169
 22
41434.74903310902
 32
0.0
 13
108587.9058285169
 23
41434.74903310902
 33
0.0
  0
MTEXT
  5
2EC
330
2E3
100
AcDbEntity
  8
标注
 62
     0
440
 16777216
 48
0.2
370
     9
100
AcDbMText
 10
108571.9534475645
 20
41504.28236644237
 30
0.0
 40
18.4
 41
0.0
 71
     5
 72
     1
  1
1.4"
 11
0.0000000000000001
 21
1.0
 31
0.0
 73
     1
 44
1.0
  0
POINT
  5
2ED
330
2E3
100
AcDbEntity
  8
Defpoints
 62
     0
440
 16777216
 48
0.2
100
AcDbPoint
 10
108588.3275534052
 20
41399.74903310902
 30
0.0
  0
POINT
  5
2EE
330
2E3
100
AcDbEntity
  8
Defpoints
 62
     0
440
 16777216
 48
0.2
100
AcDbPoint
 10
108588.3275534052
 20
41434.74903310902
 30
0.0
  0
POINT
  5
2EF
330
2E3
100
AcDbEntity
  8
Defpoints
 62
     0
440
 16777216
 48
0.2
100
AcDbPoint
 10
108587.9058285169
 20
41434.74903310902
 30
0.0
  0
ENDBLK
  5
2F0
330
2E3
100
AcDbEntity
  8
0
100
AcDbBlockEnd
  0
BLOCK
  5
2F2
330
2F1
100
AcDbEntity
  8
0
100
AcDbBlockBegin
  2
*D18
 70
     1
 10
0.0
 20
0.0
 30
0.0
  3
*D18
  1

  0
LINE
  5
2F3
330
2F1
100
AcDbEntity
  8
标注
 62
     0
440
 16777216
 48
0.2
370
    -2
100
AcDbLine
 10
109478.6103378031
 20
41887.34903310902
 30
0.0
 11
109478.6103378031
 21
41918.18973558441
 31
0.0
  0
LINE
  5
2F4
330
2F1
100
AcDbEntity
  8
标注
 62
     0
440
 16777216
 48
0.2
370
    -2
100
AcDbLine
 10
109529.4103378031
 20
41887.34903310902
 30
0.0
 11
109529.4103378031
 21
41918.18973558441
 31
0.0
  0
LINE
  5
2F5
330
2F1
100
AcDbEntity
  8
标注
 62
     0
440
 16777216
 48
0.2
370
    -2
100
AcDbLine
 10
109498.6103378031
 20
41908.18973558441
 30
0.0
 11
109509.4103378031
 21
41908.18973558441
 31
0.0
  0
SOLID
  5
2F6
330
2F1
100
AcDbEntity
  8
标注
 62
     0
440
 16777216
 48
0.2
100
AcDbTrace
 10
109498.6103378031
 20
41911.52306891774
 30
0.0
 11
109498.6103378031
 21
41904.85640225108
 31
0.0
 12
109478.6103378031
 22
41908.18973558441
 32
0.0
 13
109478.6103378031
 23
41908.18973558441
 33
0.0
  0
SOLID
  5
2F7
330
2F1
100
AcDbEntity
  8
标注
 62
     0
440
 16777216
 48
0.2
100
AcDbTrace
 10
109509.4103378031
 20
41911.52306891774
 30
0.0
 11
109509.4103378031
 21
41904.85640225108
 31
0.0
 12
109529.4103378031
 22
41908.18973558441
 32
0.0
 13
109529.4103378031
 23
41908.18973558441
 33
0.0
  0
MTEXT
  5
2F8
330
2F1
100
AcDbEntity
  8
标注
 62
     0
440
 16777216
 48
0.2
370
     9
100
AcDbMText
 10
109504.0103378031
 20
41924.14211653679
 30
0.0
 40
18.4
 41
0.0
 71
     5
 72
     1
  1
2"
 73
     1
 44
1.0
  0
POINT
  5
2F9
330
2F1
100
AcDbEntity
  8
Defpoints
 62
     0
440
 16777216
 48
0.2
100
AcDbPoint
 10
109478.6103378031
 20
41882.34903310902
 30
0.0
  0
POINT
  5
2FA
330
2F1
100
AcDbEntity
  8
Defpoints
 62
     0
440
 16777216
 48
0.2
100
AcDbPoint
 10
109529.4103378031
 20
41882.34903310902
 30
0.0
  0
POINT
  5
2FB
330
2F1
100
AcDbEntity
  8
Defpoints
 62
     0
440
 16777216
 48
0.2
100
AcDbPoint
 10
109529.4103378031
 20
41908.18973558441
 30
0.0
  0
ENDBLK
  5
2FC
330
2F1
100
AcDbEntity
  8
0
100
AcDbBlockEnd
  0
BLOCK
  5
2FE
330
2FD
100
AcDbEntity
  8
0
100
AcDbBlockBegin
  2
*D19
 70
     1
 10
0.0
 20
0.0
 30
0.0
  3
*D19
  1

  0
LINE
  5
2FF
330
2FD
100
AcDbEntity
  8
标注
 62
     0
440
 16777216
 48
0.2
370
    -2
100
AcDbLine
 10
109478.6103378031
 20
41887.34903310902
 30
0.0
 11
109478.6103378031
 21
41967.5155106488
 31
0.0
  0
LINE
  5
300
330
2FD
100
AcDbEntity
  8
标注
 62
     0
440
 16777216
 48
0.2
370
    -2
100
AcDbLine
 10
109732.6103378031
 20
41846.94903310901
 30
0.0
 11
109732.6103378031
 21
41967.5155106488
 31
0.0
  0
LINE
  5
301
330
2FD
100
AcDbEntity
  8
标注
 62
     0
440
 16777216
 48
0.2
370
    -2
100
AcDbLine
 10
109498.6103378031
 20
41957.51551064881
 30
0.0
 11
109712.6103378031
 21
41957.51551064881
 31
0.0
  0
SOLID
  5
302
330
2FD
100
AcDbEntity
  8
标注
 62
     0
440
 16777216
 48
0.2
100
AcDbTrace
 10
109498.6103378031
 20
41960.84884398215
 30
0.0
 11
109498.6103378031
 21
41954.18217731547
 31
0.0
 12
109478.6103378031
 22
41957.51551064881
 32
0.0
 13
109478.6103378031
 23
41957.51551064881
 33
0.0
  0
SOLID
  5
303
330
2FD
100
AcDbEntity
  8
标注
 62
     0
440
 16777216
 48
0.2
100
AcDbTrace
 10
109712.6103378031
 20
41960.84884398215
 30
0.0
 11
109712.6103378031
 21
41954.18217731547
 31
0.0
 12
109732.6103378031
 22
41957.51551064881
 32
0.0
 13
109732.6103378031
 23
41957.51551064881
 33
0.0
  0
MTEXT
  5
304
330
2FD
100
AcDbEntity
  8
标注
 62
     0
440
 16777216
 48
0.2
370
     9
100
AcDbMText
 10
109605.6103378031
 20
41973.46789160119
 30
0.0
 40
18.4
 41
0.0
 71
     5
 72
     1
  1
10"
 73
     1
 44
1.0
  0
POINT
  5
305
330
2FD
100
AcDbEntity
  8
Defpoints
 62
     0
440
 16777216
 48
0.2
100
AcDbPoint
 10
109478.6103378031
 20
41882.34903310902
 30
0.0
  0
POINT
  5
306
330
2FD
100
AcDbEntity
  8
Defpoints
 62
     0
440
 16777216
 48
0.2
100
AcDbPoint
 10
109732.6103378031
 20
41841.94903310902
 30
0.0
  0
POINT
  5
307
330
2FD
100
AcDbEntity
  8
Defpoints
 62
     0
440
 16777216
 48
0.2
100
AcDbPoint
 10
109732.6103378031
 20
41957.51551064881
 30
0.0
  0
ENDBLK
  5
308
330
2FD
100
AcDbEntity
  8
0
100
AcDbBlockEnd
  0
BLOCK
  5
30A
330
309
100
AcDbEntity
  8
0
100
AcDbBlockBegin
  2
*D20
 70
     1
 10
0.0
 20
0.0
 30
0.0
  3
*D20
  1

  0
LINE
  5
30B
330
309
100
AcDbEntity
  8
标注
 62
     0
440
 16777216
 48
0.2
370
    -2
100
AcDbLine
 10
109478.6103378031
 20
41394.74903310902
 30
0.0
 11
109478.6103378031
 21
41344.01378149999
 31
0.0
  0
LINE
  5
30C
330
309
100
AcDbEntity
  8
标注
 62
     0
440
 16777216
 48
0.2
370
    -2
100
AcDbLine
 10
109707.2103378031
 20
41394.74903310902
 30
0.0
 11
109707.2103378031
 21
41344.01378149999
 31
0.0
  0
LINE
  5
30D
330
309
100
AcDbEntity
  8
标注
 62
     0
440
 16777216
 48
0.2
370
    -2
100
AcDbLine
 10
109498.6103378031
 20
41354.0137815
 30
0.0
 11
109687.2103378031
 21
41354.0137815
 31
0.0
  0
SOLID
  5
30E
330
309
100
AcDbEntity
  8
标注
 62
     0
440
 16777216
 48
0.2
100
AcDbTrace
 10
109498.6103378031
 20
41357.34711483333
 30
0.0
 11
109498.6103378031
 21
41350.68044816666
 31
0.0
 12
109478.6103378031
 22
41354.0137815
 32
0.0
 13
109478.6103378031
 23
41354.0137815
 33
0.0
  0
SOLID
  5
30F
330
309
100
AcDbEntity
  8
标注
 62
     0
440
 16777216
 48
0.2
100
AcDbTrace
 10
109687.2103378031
 20
41357.34711483333
 30
0.0
 11
109687.2103378031
 21
41350.68044816666
 31
0.0
 12
109707.2103378031
 22
41354.0137815
 32
0.0
 13
109707.2103378031
 23
41354.0137815
 33
0.0
  0
MTEXT
  5
310
330
309
100
AcDbEntity
  8
标注
 62
     0
440
 16777216
 48
0.2
370
     9
100
AcDbMText
 10
109592.9103378031
 20
41369.96616245237
 30
0.0
 40
18.4
 41
0.0
 71
     5
 72
     1
  1
9"
 73
     1
 44
1.0
  0
POINT
  5
311
330
309
100
AcDbEntity
  8
Defpoints
 62
     0
440
 16777216
 48
0.2
100
AcDbPoint
 10
109478.6103378031
 20
41399.74903310902
 30
0.0
  0
POINT
  5
312
330
309
100
AcDbEntity
  8
Defpoints
 62
     0
440
 16777216
 48
0.2
100
AcDbPoint
 10
109707.2103378031
 20
41399.74903310902
 30
0.0
  0
POINT
  5
313
330
309
100
AcDbEntity
  8
Defpoints
 62
     0
440
 16777216
 48
0.2
100
AcDbPoint
 10
109707.2103378031
 20
41354.0137815
 30
0.0
  0
ENDBLK
  5
314
330
309
100
AcDbEntity
  8
0
100
AcDbBlockEnd
  0
BLOCK
  5
316
330
315
100
AcDbEntity
  8
0
100
AcDbBlockBegin
  2
*D21
 70
     1
 10
0.0
 20
0.0
 30
0.0
  3
*D21
  1

  0
LINE
  5
317
330
315
100
AcDbEntity
  8
标注
 62
     0
440
 16777216
 48
0.2
370
    -2
100
AcDbLine
 10
108411.0762604569
 20
41241.96913434075
 30
0.0
 11
108371.6880101835
 21
41241.96913434075
 31
0.0
  0
LINE
  5
318
330
315
100
AcDbEntity
  8
标注
 62
     0
440
 16777216
 48
0.2
370
    -2
100
AcDbLine
 10
108411.0762604569
 20
41013.36913434075
 30
0.0
 11
108371.6880101835
 21
41013.36913434075
 31
0.0
  0
LINE
  5
319
330
315
100
AcDbEntity
  8
标注
 62
     0
440
 16777216
 48
0.2
370
    -2
100
AcDbLine
 10
108381.6880101835
 20
41221.96913434075
 30
0.0
 11
108381.6880101835
 21
41033.36913434075
 31
0.0
  0
SOLID
  5
31A
330
315
100
AcDbEntity
  8
标注
 62
     0
440
 16777216
 48
0.2
100
AcDbTrace
 10
108378.3546768501
 20
41221.96913434075
 30
0.0
 11
108385.0213435168
 21
41221.96913434075
 31
0.0
 12
108381.6880101835
 22
41241.96913434075
 32
0.0
 13
108381.6880101835
 23
41241.96913434075
 33
0.0
  0
SOLID
  5
31B
330
315
100
AcDbEntity
  8
标注
 62
     0
440
 16777216
 48
0.2
100
AcDbTrace
 10
108378.3546768501
 20
41033.36913434075
 30
0.0
 11
108385.0213435168
 21
41033.36913434075
 31
0.0
 12
108381.6880101835
 22
41013.36913434075
 32
0.0
 13
108381.6880101835
 23
41013.36913434075
 33
0.0
  0
MTEXT
  5
31C
330
315
100
AcDbEntity
  8
标注
 62
     0
440
 16777216
 48
0.2
370
     9
100
AcDbMText
 10
108365.7356292311
 20
41127.66913434076
 30
0.0
 40
18.4
 41
0.0
 71
     5
 72
     1
  1
9"
 11
0.0000000000000001
 21
1.0
 31
0.0
 73
     1
 44
1.0
  0
POINT
  5
31D
330
315
100
AcDbEntity
  8
Defpoints
 62
     0
440
 16777216
 48
0.2
100
AcDbPoint
 10
108416.0762604569
 20
41241.96913434075
 30
0.0
  0
POINT
  5
31E
330
315
100
AcDbEntity
  8
Defpoints
 62
     0
440
 16777216
 48
0.2
100
AcDbPoint
 10
108416.0762604569
 20
41013.36913434075
 30
0.0
  0
POINT
  5
31F
330
315
100
AcDbEntity
  8
Defpoints
 62
     0
440
 16777216
 48
0.2
100
AcDbPoint
 10
108381.6880101835
 20
41013.36913434075
 30
0.0
  0
ENDBLK
  5
320
330
315
100
AcDbEntity
  8
0
100
AcDbBlockEnd
  0
BLOCK
  5
322
330
321
100
AcDbEntity
  8
0
100
AcDbBlockBegin
  2
*D22
 70
     1
 10
0.0
 20
0.0
 30
0.0
  3
*D22
  1

  0
LINE
  5
323
330
321
100
AcDbEntity
  8
标注
 62
     0
440
 16777216
 48
0.2
370
    -2
100
AcDbLine
 10
108411.0762604569
 20
41241.96913434075
 30
0.0
 11
108329.3750270468
 21
41241.96913434075
 31
0.0
  0
LINE
  5
324
330
321
100
AcDbEntity
  8
标注
 62
     0
440
 16777216
 48
0.2
370
    -2
100
AcDbLine
 10
108451.4762604569
 20
40987.96913434075
 30
0.0
 11
108329.3750270468
 21
40987.96913434075
 31
0.0
  0
LINE
  5
325
330
321
100
AcDbEntity
  8
标注
 62
     0
440
 16777216
 48
0.2
370
    -2
100
AcDbLine
 10
108339.3750270468
 20
41221.96913434075
 30
0.0
 11
108339.3750270468
 21
41007.96913434075
 31
0.0
  0
SOLID
  5
326
330
321
100
AcDbEntity
  8
标注
 62
     0
440
 16777216
 48
0.2
100
AcDbTrace
 10
108336.0416937135
 20
41221.96913434075
 30
0.0
 11
108342.7083603801
 21
41221.96913434075
 31
0.0
 12
108339.3750270468
 22
41241.96913434075
 32
0.0
 13
108339.3750270468
 23
41241.96913434075
 33
0.0
  0
SOLID
  5
327
330
321
100
AcDbEntity
  8
标注
 62
     0
440
 16777216
 48
0.2
100
AcDbTrace
 10
108336.0416937135
 20
41007.96913434075
 30
0.0
 11
108342.7083603801
 21
41007.96913434075
 31
0.0
 12
108339.3750270468
 22
40987.96913434075
 32
0.0
 13
108339.3750270468
 23
40987.96913434075
 33
0.0
  0
MTEXT
  5
328
330
321
100
AcDbEntity
  8
标注
 62
     0
440
 16777216
 48
0.2
370
     9
100
AcDbMText
 10
108323.4226460944
 20
41114.96913434076
 30
0.0
 40
18.4
 41
0.0
 71
     5
 72
     1
  1
10"
 11
0.0000000000000001
 21
1.0
 31
0.0
 73
     1
 44
1.0
  0
POINT
  5
329
330
321
100
AcDbEntity
  8
Defpoints
 62
     0
440
 16777216
 48
0.2
100
AcDbPoint
 10
108416.0762604569
 20
41241.96913434075
 30
0.0
  0
POINT
  5
32A
330
321
100
AcDbEntity
  8
Defpoints
 62
     0
440
 16777216
 48
0.2
100
AcDbPoint
 10
108456.4762604569
 20
40987.96913434075
 30
0.0
  0
POINT
  5
32B
330
321
100
AcDbEntity
  8
Defpoints
 62
     0
440
 16777216
 48
0.2
100
AcDbPoint
 10
108339.3750270468
 20
40987.96913434075
 30
0.0
  0
ENDBLK
  5
32C
330
321
100
AcDbEntity
  8
0
100
AcDbBlockEnd
  0
BLOCK
  5
32E
330
32D
100
AcDbEntity
  8
0
100
AcDbBlockBegin
  2
*D23
 70
     1
 10
0.0
 20
0.0
 30
0.0
  3
*D23
  1

  0
LINE
  5
32F
330
32D
100
AcDbEntity
  8
标注
 62
     0
440
 16777216
 48
0.2
370
    -2
100
AcDbLine
 10
109335.4762604569
 20
41399.74903310902
 30
0.0
 11
109400.3336557071
 21
41399.74903310902
 31
0.0
  0
LINE
  5
330
330
32D
100
AcDbEntity
  8
标注
 62
     0
440
 16777216
 48
0.2
370
    -2
100
AcDbLine
 10
109335.4762604569
 20
41501.34903310902
 30
0.0
 11
109400.3336557071
 21
41501.34903310902
 31
0.0
  0
LINE
  5
331
330
32D
100
AcDbEntity
  8
标注
 62
     0
440
 16777216
 48
0.2
370
    -2
100
AcDbLine
 10
109390.3336557072
 20
41419.74903310902
 30
0.0
 11
109390.3336557072
 21
41481.34903310903
 31
0.0
  0
SOLID
  5
332
330
32D
100
AcDbEntity
  8
标注
 62
     0
440
 16777216
 48
0.2
100
AcDbTrace
 10
109387.0003223738
 20
41419.74903310902
 30
0.0
 11
109393.6669890405
 21
41419.74903310902
 31
0.0
 12
109390.3336557072
 22
41399.74903310902
 32
0.0
 13
109390.3336557072
 23
41399.74903310902
 33
0.0
  0
SOLID
  5
333
330
32D
100
AcDbEntity
  8
标注
 62
     0
440
 16777216
 48
0.2
100
AcDbTrace
 10
109387.0003223738
 20
41481.34903310903
 30
0.0
 11
109393.6669890405
 21
41481.34903310903
 31
0.0
 12
109390.3336557072
 22
41501.34903310902
 32
0.0
 13
109390.3336557072
 23
41501.34903310902
 33
0.0
  0
MTEXT
  5
334
330
32D
100
AcDbEntity
  8
标注
 62
     0
440
 16777216
 48
0.2
370
     9
100
AcDbMText
 10
109374.3812747548
 20
41450.54903310904
 30
0.0
 40
18.4
 41
0.0
 71
     5
 72
     1
  1
4"
 11
0.0000000000000001
 21
1.0
 31
0.0
 73
     1
 44
1.0
  0
POINT
  5
335
330
32D
100
AcDbEntity
  8
Defpoints
 62
     0
440
 16777216
 48
0.2
100
AcDbPoint
 10
109330.4762604569
 20
41399.74903310902
 30
0.0
  0
POINT
  5
336
330
32D
100
AcDbEntity
  8
Defpoints
 62
     0
440
 16777216
 48
0.2
100
AcDbPoint
 10
109330.4762604569
 20
41501.34903310902
 30
0.0
  0
POINT
  5
337
330
32D
100
AcDbEntity
  8
Defpoints
 62
     0
440
 16777216
 48
0.2
100
AcDbPoint
 10
109390.3336557072
 20
41501.34903310902
 30
0.0
  0
ENDBLK
  5
338
330
32D
100
AcDbEntity
  8
0
100
AcDbBlockEnd
  0
BLOCK
  5
33A
330
339
100
AcDbEntity
  8
0
100
AcDbBlockBegin
  2
*D24
 70
     1
 10
0.0
 20
0.0
 30
0.0
  3
*D24
  1

  0
LINE
  5
33B
330
339
100
AcDbEntity
  8
标注
 62
     0
440
 16777216
 48
0.2
370
    -2
100
AcDbLine
 10
108646.0262604569
 20
41216.96913434075
 30
0.0
 11
108571.4267614756
 21
41216.96913434075
 31
0.0
  0
LINE
  5
33C
330
339
100
AcDbEntity
  8
标注
 62
     0
440
 16777216
 48
0.2
370
    -2
100
AcDbLine
 10
108646.0262604569
 20
41241.96913434075
 30
0.0
 11
108571.4267614756
 21
41241.96913434075
 31
0.0
  0
LINE
  5
33D
330
339
100
AcDbEntity
  8
标注
 62
     0
440
 16777216
 48
0.2
370
    -2
100
AcDbLine
 10
108581.4267614756
 20
41261.96913434075
 30
0.0
 11
108581.4267614756
 21
41281.96913434075
 31
0.0
  0
LINE
  5
33E
330
339
100
AcDbEntity
  8
标注
 62
     0
440
 16777216
 48
0.2
370
    -2
100
AcDbLine
 10
108581.4267614756
 20
41196.96913434075
 30
0.0
 11
108581.4267614756
 21
41144.18818195979
 31
0.0
  0
LINE
  5
33F
330
339
100
AcDbEntity
  8
标注
 62
     0
440
 16777216
 48
0.2
370
    -2
100
AcDbLine
 10
108581.4267614756
 20
41241.96913434075
 30
0.0
 11
108581.4267614756
 21
41216.96913434075
 31
0.0
  0
SOLID
  5
340
330
339
100
AcDbEntity
  8
标注
 62
     0
440
 16777216
 48
0.2
100
AcDbTrace
 10
108578.0934281423
 20
41261.96913434075
 30
0.0
 11
108584.7600948089
 21
41261.96913434075
 31
0.0
 12
108581.4267614756
 22
41241.96913434075
 32
0.0
 13
108581.4267614756
 23
41241.96913434075
 33
0.0
  0
SOLID
  5
341
330
339
100
AcDbEntity
  8
标注
 62
     0
440
 16777216
 48
0.2
100
AcDbTrace
 10
108578.0934281423
 20
41196.96913434075
 30
0.0
 11
108584.7600948089
 21
41196.96913434075
 31
0.0
 12
108581.4267614756
 22
41216.96913434075
 32
0.0
 13
108581.4267614756
 23
41216.96913434075
 33
0.0
  0
MTEXT
  5
342
330
339
100
AcDbEntity
  8
标注
 62
     0
440
 16777216
 48
0.2
370
     9
100
AcDbMText
 10
108565.4743805232
 20
41160.57865815028
 30
0.0
 40
18.4
 41
0.0
 71
     5
 72
     1
  1
1"
 11
0.0000000000000001
 21
1.0
 31
0.0
 73
     1
 44
1.0
  0
POINT
  5
343
330
339
100
AcDbEntity
  8
Defpoints
 62
     0
440
 16777216
 48
0.2
100
AcDbPoint
 10
108651.0262604569
 20
41216.96913434075
 30
0.0
  0
POINT
  5
344
330
339
100
AcDbEntity
  8
Defpoints
 62
     0
440
 16777216
 48
0.2
100
AcDbPoint
 10
108651.0262604569
 20
41241.96913434075
 30
0.0
  0
POINT
  5
345
330
339
100
AcDbEntity
  8
Defpoints
 62
     0
440
 16777216
 48
0.2
100
AcDbPoint
 10
108581.4267614756
 20
41241.96913434075
 30
0.0
  0
ENDBLK
  5
346
330
339
100
AcDbEntity
  8
0
100
AcDbBlockEnd
  0
BLOCK
  5
348
330
347
100
AcDbEntity
  8
0
100
AcDbBlockBegin
  2
*D25
 70
     1
 10
0.0
 20
0.0
 30
0.0
  3
*D25
  1

  0
LINE
  5
349
330
347
100
AcDbEntity
  8
标注
 62
     0
440
 16777216
 48
0.2
370
    -2
100
AcDbLine
 10
109712.2103378031
 20
41501.34903310902
 30
0.0
 11
109799.8157629992
 21
41501.34903310902
 31
0.0
  0
LINE
  5
34A
330
347
100
AcDbEntity
  8
标注
 62
     0
440
 16777216
 48
0.2
370
    -2
100
AcDbLine
 10
109712.2103378031
 20
41399.74903310903
 30
0.0
 11
109799.8157629992
 21
41399.74903310903
 31
0.0
  0
LINE
  5
34B
330
347
100
AcDbEntity
  8
标注
 62
     0
440
 16777216
 48
0.2
370
    -2
100
AcDbLine
 10
109789.8157629992
 20
41481.34903310903
 30
0.0
 11
109789.8157629992
 21
41419.74903310902
 31
0.0
  0
SOLID
  5
34C
330
347
100
AcDbEntity
  8
标注
 62
     0
440
 16777216
 48
0.2
100
AcDbTrace
 10
109786.4824296659
 20
41481.34903310903
 30
0.0
 11
109793.1490963325
 21
41481.34903310903
 31
0.0
 12
109789.8157629992
 22
41501.34903310902
 32
0.0
 13
109789.8157629992
 23
41501.34903310902
 33
0.0
  0
SOLID
  5
34D
330
347
100
AcDbEntity
  8
标注
 62
     0
440
 16777216
 48
0.2
100
AcDbTrace
 10
109786.4824296659
 20
41419.74903310902
 30
0.0
 11
109793.1490963325
 21
41419.74903310902
 31
0.0
 12
109789.8157629992
 22
41399.74903310903
 32
0.0
 13
109789.8157629992
 23
41399.74903310903
 33
0.0
  0
MTEXT
  5
34E
330
347
100
AcDbEntity
  8
标注
 62
     0
440
 16777216
 48
0.2
370
     9
100
AcDbMText
 10
109773.8633820468
 20
41450.54903310905
 30
0.0
 40
18.4
 41
0.0
 71
     5
 72
     1
  1
4"
 11
0.0000000000000001
 21
1.0
 31
0.0
 73
     1
 44
1.0
  0
POINT
  5
34F
330
347
100
AcDbEntity
  8
Defpoints
 62
     0
440
 16777216
 48
0.2
100
AcDbPoint
 10
109707.2103378031
 20
41501.34903310902
 30
0.0
  0
POINT
  5
350
330
347
100
AcDbEntity
  8
Defpoints
 62
     0
440
 16777216
 48
0.2
100
AcDbPoint
 10
109707.2103378031
 20
41399.74903310903
 30
0.0
  0
POINT
  5
351
330
347
100
AcDbEntity
  8
Defpoints
 62
     0
440
 16777216
 48
0.2
100
AcDbPoint
 10
109789.8157629992
 20
41399.74903310903
 30
0.0
  0
ENDBLK
  5
352
330
347
100
AcDbEntity
  8
0
100
AcDbBlockEnd
  0
BLOCK
  5
354
330
353
100
AcDbEntity
  8
0
100
AcDbBlockBegin
  2
*D26
 70
     1
 10
0.0
 20
0.0
 30
0.0
  3
*D26
  1

  0
LINE
  5
355
330
353
100
AcDbEntity
  8
标注
 62
     0
440
 16777216
370
    -2
100
AcDbLine
 10
108547.3280436194
 20
41497.52394716451
 30
0.0
 11
108481.9449448498
 21
41474.51263256985
 31
0.0
  0
MTEXT
  5
356
330
353
100
AcDbEntity
  8
标注
 62
     0
440
 16777216
370
     9
100
AcDbMText
 10
108515.5820125314
 20
41501.40484227994
 30
0.0
 40
18.4
 41
0.0
 71
     5
 72
     1
  1
R15
 11
0.9432846071450029
 21
0.3319851652157028
 31
0.0
 73
     1
 44
1.0
  0
LINE
  5
357
330
353
100
AcDbEntity
  8
标注
 62
     0
440
 16777216
370
    -2
100
AcDbLine
 10
108456.4762604569
 20
41465.549033109
 30
0.0
 11
108470.6255295641
 21
41470.52881058725
 31
0.0
  0
SOLID
  5
358
330
353
100
AcDbEntity
  8
标注
 62
     0
440
 16777216
100
AcDbTrace
 10
108481.2809745194
 20
41476.39920178414
 30
0.0
 11
108482.6089151802
 21
41472.62606335555
 31
0.0
 12
108470.6255295641
 22
41470.52881058725
 32
0.0
 13
108470.6255295641
 23
41470.52881058725
 33
0.0
  0
ARC
  5
359
330
353
100
AcDbEntity
  8
标注
 62
     0
440
 16777216
370
    -2
100
AcDbCircle
 10
108456.4762604569
 20
41465.549033109
 30
0.0
 40
15.00000000005821
100
AcDbArc
 50
289.0985931709533
 51
57.58649765009113
  0
POINT
  5
35A
330
353
100
AcDbEntity
  8
Defpoints
 62
     0
440
 16777216
100
AcDbPoint
 10
108470.6255295641
 20
41470.52881058725
 30
0.0
  0
POINT
  5
35B
330
353
100
AcDbEntity
  8
Defpoints
 62
     0
440
 16777216
100
AcDbPoint
 10
108456.4762604569
 20
41465.549033109
 30
0.0
  0
ENDBLK
  5
35C
330
353
100
AcDbEntity
  8
0
100
AcDbBlockEnd
  0
BLOCK
  5
35E
330
35D
100
AcDbEntity
  8
0
100
AcDbBlockBegin
  2
*D27
 70
     1
 10
0.0
 20
0.0
 30
0.0
  3
*D27
  1

  0
LINE
  5
35F
330
35D
100
AcDbEntity
  8
标注
 62
     0
440
 16777216
370
    -2
100
AcDbLine
 10
108547.3280436193
 20
41034.94404839628
 30
0.0
 11
108481.9449448498
 21
41011.93273380158
 31
0.0
  0
MTEXT
  5
360
330
35D
100
AcDbEntity
  8
标注
 62
     0
440
 16777216
370
     9
100
AcDbMText
 10
108515.5820125314
 20
41038.82494351169
 30
0.0
 40
18.4
 41
0.0
 71
     5
 72
     1
  1
R15
 11
0.9432846071448514
 21
0.3319851652161334
 31
0.0
 73
     1
 44
1.0
  0
LINE
  5
361
330
35D
100
AcDbEntity
  8
标注
 62
     0
440
 16777216
370
    -2
100
AcDbLine
 10
108456.4762604569
 20
41002.96913434073
 30
0.0
 11
108470.6255295641
 21
41007.94891181899
 31
0.0
  0
SOLID
  5
362
330
35D
100
AcDbEntity
  8
标注
 62
     0
440
 16777216
100
AcDbTrace
 10
108481.2809745194
 20
41013.81930301587
 30
0.0
 11
108482.6089151802
 21
41010.04616458729
 31
0.0
 12
108470.6255295641
 22
41007.94891181899
 32
0.0
 13
108470.6255295641
 23
41007.94891181899
 33
0.0
  0
ARC
  5
363
330
35D
100
AcDbEntity
  8
标注
 62
     0
440
 16777216
370
    -2
100
AcDbCircle
 10
108456.4762604569
 20
41002.96913434073
 30
0.0
 40
15.00000000005821
100
AcDbArc
 50
289.0985931709534
 51
57.58649765011733
  0
POINT
  5
364
330
35D
100
AcDbEntity
  8
Defpoints
 62
     0
440
 16777216
100
AcDbPoint
 10
108470.6255295641
 20
41007.94891181899
 30
0.0
  0
POINT
  5
365
330
35D
100
AcDbEntity
  8
Defpoints
 62
     0
440
 16777216
100
AcDbPoint
 10
108456.4762604569
 20
41002.96913434073
 30
0.0
  0
ENDBLK
  5
366
330
35D
100
AcDbEntity
  8
0
100
AcDbBlockEnd
  0
BLOCK
  5
4C4
330
4C3
100
AcDbEntity
  8
0
100
AcDbBlockBegin
  2
*D29
 70
     1
 10
0.0
 20
0.0
 30
0.0
  3
*D29
  1

  0
LINE
  5
50B
330
4C3
100
AcDbEntity
  8
标注
 62
     0
440
 16777216
 48
0.2
370
    -2
100
AcDbLine
 10
1196.343850802978
 20
1180.142800243432
 30
0.0
 11
1196.343850802978
 21
1252.004631443159
 31
0.0
  0
LINE
  5
50C
330
4C3
100
AcDbEntity
  8
标注
 62
     0
440
 16777216
 48
0.2
370
    -2
100
AcDbLine
 10
1615.443850802954
 20
1180.142800243432
 30
0.0
 11
1615.443850802954
 21
1252.004631443159
 31
0.0
  0
LINE
  5
50D
330
4C3
100
AcDbEntity
  8
标注
 62
     0
440
 16777216
 48
0.2
370
    -2
100
AcDbLine
 10
1216.343850802977
 20
1242.004631443159
 30
0.0
 11
1595.443850802954
 21
1242.004631443159
 31
0.0
  0
SOLID
  5
50E
330
4C3
100
AcDbEntity
  8
标注
 62
     0
440
 16777216
 48
0.2
100
AcDbTrace
 10
1216.343850802977
 20
1245.337964776492
 30
0.0
 11
1216.343850802977
 21
1238.671298109826
 31
0.0
 12
1196.343850802978
 22
1242.004631443159
 32
0.0
 13
1196.343850802978
 23
1242.004631443159
 33
0.0
  0
SOLID
  5
50F
330
4C3
100
AcDbEntity
  8
标注
 62
     0
440
 16777216
 48
0.2
100
AcDbTrace
 10
1595.443850802954
 20
1245.337964776492
 30
0.0
 11
1595.443850802954
 21
1238.671298109826
 31
0.0
 12
1615.443850802954
 22
1242.004631443159
 32
0.0
 13
1615.443850802954
 23
1242.004631443159
 33
0.0
  0
MTEXT
  5
510
330
4C3
100
AcDbEntity
  8
标注
 62
     0
440
 16777216
 48
0.2
370
     9
100
AcDbMText
 10
1405.893850802966
 20
1256.204631443159
 30
0.0
 40
18.4
 41
0.0
 71
     5
 72
     1
  1
16.5"
 73
     1
 44
1.0
  0
POINT
  5
511
330
4C3
100
AcDbEntity
  8
Defpoints
 62
     0
440
 16777216
 48
0.2
100
AcDbPoint
 10
1196.343850802978
 20
1175.142800243432
 30
0.0
  0
POINT
  5
512
330
4C3
100
AcDbEntity
  8
Defpoints
 62
     0
440
 16777216
 48
0.2
100
AcDbPoint
 10
1615.443850802954
 20
1175.142800243432
 30
0.0
  0
POINT
  5
513
330
4C3
100
AcDbEntity
  8
Defpoints
 62
     0
440
 16777216
 48
0.2
100
AcDbPoint
 10
1615.443850802954
 20
1242.004631443159
 30
0.0
  0
ENDBLK
  5
4C5
330
4C3
100
AcDbEntity
  8
0
100
AcDbBlockEnd
  0
BLOCK
  5
4D0
330
4CF
100
AcDbEntity
  8
0
100
AcDbBlockBegin
  2
*D30
 70
     1
 10
0.0
 20
0.0
 30
0.0
  3
*D30
  1

  0
LINE
  5
520
330
4CF
100
AcDbEntity
  8
标注
 62
     0
440
 16777216
 48
0.2
370
    -2
100
AcDbLine
 10
761.8438508029485
 20
1190.142800243439
 30
0.0
 11
688.5067009580943
 21
1190.142800243439
 31
0.0
  0
LINE
  5
521
330
4CF
100
AcDbEntity
  8
标注
 62
     0
440
 16777216
 48
0.2
370
    -2
100
AcDbLine
 10
761.8438508029485
 20
783.742800243438
 30
0.0
 11
688.5067009580943
 21
783.742800243438
 31
0.0
  0
LINE
  5
522
330
4CF
100
AcDbEntity
  8
标注
 62
     0
440
 16777216
 48
0.2
370
    -2
100
AcDbLine
 10
698.5067009580943
 20
1170.142800243439
 30
0.0
 11
698.5067009580943
 21
803.742800243438
 31
0.0
  0
SOLID
  5
523
330
4CF
100
AcDbEntity
  8
标注
 62
     0
440
 16777216
 48
0.2
100
AcDbTrace
 10
695.1733676247609
 20
1170.142800243439
 30
0.0
 11
701.8400342914277
 21
1170.142800243439
 31
0.0
 12
698.5067009580943
 22
1190.142800243439
 32
0.0
 13
698.5067009580943
 23
1190.142800243439
 33
0.0
  0
SOLID
  5
524
330
4CF
100
AcDbEntity
  8
标注
 62
     0
440
 16777216
 48
0.2
100
AcDbTrace
 10
695.1733676247609
 20
803.742800243438
 30
0.0
 11
701.8400342914277
 21
803.742800243438
 31
0.0
 12
698.5067009580943
 22
783.742800243438
 32
0.0
 13
698.5067009580943
 23
783.742800243438
 33
0.0
  0
MTEXT
  5
525
330
4CF
100
AcDbEntity
  8
标注
 62
     0
440
 16777216
 48
0.2
370
     9
100
AcDbMText
 10
684.3067009580941
 20
986.9428002434389
 30
0.0
 40
18.4
 41
0.0
 71
     5
 72
     1
  1
16"
 11
0.0000000000000001
 21
1.0
 31
0.0
 73
     1
 44
1.0
  0
POINT
  5
526
330
4CF
100
AcDbEntity
  8
Defpoints
 62
     0
440
 16777216
 48
0.2
100
AcDbPoint
 10
766.8438508029485
 20
1190.142800243439
 30
0.0
  0
POINT
  5
527
330
4CF
100
AcDbEntity
  8
Defpoints
 62
     0
440
 16777216
 48
0.2
100
AcDbPoint
 10
766.8438508029485
 20
783.742800243438
 30
0.0
  0
POINT
  5
528
330
4CF
100
AcDbEntity
  8
Defpoints
 62
     0
440
 16777216
 48
0.2
100
AcDbPoint
 10
698.5067009580943
 20
783.742800243438
 30
0.0
  0
ENDBLK
  5
4D1
330
4CF
100
AcDbEntity
  8
0
100
AcDbBlockEnd
  0
BLOCK
  5
4DC
330
4DB
100
AcDbEntity
  8
0
100
AcDbBlockBegin
  2
*D31
 70
     1
 10
0.0
 20
0.0
 30
0.0
  3
*D31
  1

  0
LINE
  5
597
330
4DB
100
AcDbEntity
  8
标注
 62
     0
440
 16777216
 48
0.2
370
    -2
100
AcDbLine
 10
1222.872760883283
 20
1215.542800243434
 30
0.0
 11
1257.022230634668
 21
1215.542800243434
 31
0.0
  0
LINE
  5
598
330
4DB
100
AcDbEntity
  8
标注
 62
     0
440
 16777216
 48
0.2
370
    -2
100
AcDbLine
 10
1222.872760883283
 20
1190.142800243439
 30
0.0
 11
1257.022230634668
 21
1190.142800243439
 31
0.0
  0
LINE
  5
599
330
4DB
100
AcDbEntity
  8
标注
 62
     0
440
 16777216
 48
0.2
370
    -2
100
AcDbLine
 10
1247.022230634668
 20
1235.542800243434
 30
0.0
 11
1247.022230634668
 21
1255.542800243434
 31
0.0
  0
LINE
  5
59A
330
4DB
100
AcDbEntity
  8
标注
 62
     0
440
 16777216
 48
0.2
370
    -2
100
AcDbLine
 10
1247.022230634668
 20
1170.142800243439
 30
0.0
 11
1247.022230634668
 21
1118.967381249026
 31
0.0
  0
LINE
  5
59B
330
4DB
100
AcDbEntity
  8
标注
 62
     0
440
 16777216
 48
0.2
370
    -2
100
AcDbLine
 10
1247.022230634668
 20
1215.542800243434
 30
0.0
 11
1247.022230634668
 21
1190.142800243439
 31
0.0
  0
SOLID
  5
59C
330
4DB
100
AcDbEntity
  8
标注
 62
     0
440
 16777216
 48
0.2
100
AcDbTrace
 10
1243.688897301334
 20
1235.542800243434
 30
0.0
 11
1250.355563968001
 21
1235.542800243434
 31
0.0
 12
1247.022230634668
 22
1215.542800243434
 32
0.0
 13
1247.022230634668
 23
1215.542800243434
 33
0.0
  0
SOLID
  5
59D
330
4DB
100
AcDbEntity
  8
标注
 62
     0
440
 16777216
 48
0.2
100
AcDbTrace
 10
1243.688897301334
 20
1170.142800243439
 30
0.0
 11
1250.355563968001
 21
1170.142800243439
 31
0.0
 12
1247.022230634668
 22
1190.142800243439
 32
0.0
 13
1247.022230634668
 23
1190.142800243439
 33
0.0
  0
MTEXT
  5
59E
330
4DB
100
AcDbEntity
  8
标注
 62
     0
440
 16777216
 48
0.2
370
     9
100
AcDbMText
 10
1232.822230634667
 20
1134.555090746233
 30
0.0
 40
18.4
 41
0.0
 71
     5
 72
     1
  1
1"
 11
0.0000000000000001
 21
1.0
 31
0.0
 73
     1
 44
1.0
  0
POINT
  5
59F
330
4DB
100
AcDbEntity
  8
Defpoints
 62
     0
440
 16777216
 48
0.2
100
AcDbPoint
 10
1217.872760883283
 20
1215.542800243434
 30
0.0
  0
POINT
  5
5A0
330
4DB
100
AcDbEntity
  8
Defpoints
 62
     0
440
 16777216
 48
0.2
100
AcDbPoint
 10
1217.872760883283
 20
1190.142800243439
 30
0.0
  0
POINT
  5
5A1
330
4DB
100
AcDbEntity
  8
Defpoints
 62
     0
440
 16777216
 48
0.2
100
AcDbPoint
 10
1247.022230634668
 20
1190.142800243439
 30
0.0
  0
ENDBLK
  5
4DD
330
4DB
100
AcDbEntity
  8
0
100
AcDbBlockEnd
  0
BLOCK
  5
4EA
330
4E9
100
AcDbEntity
  8
0
100
AcDbBlockBegin
  2
*D32
 70
     1
 10
0.0
 20
0.0
 30
0.0
  3
*D32
  1

  0
LINE
  5
629
330
4E9
100
AcDbEntity
  8
标注
 62
     0
440
 16777216
370
    -2
100
AcDbLine
 10
847.9715967638178
 20
364.7154803494809
 30
0.0
 11
792.3125351958629
 21
345.1265009360016
 31
0.0
  0
MTEXT
  5
62A
330
4E9
100
AcDbEntity
  8
标注
 62
     0
440
 16777216
370
     9
100
AcDbMText
 10
821.0875842766403
 20
370.307543055495
 30
0.0
 40
18.4
 41
0.0
 71
     5
 72
     1
  1
R15
 11
0.9432846071448514
 21
0.3319851652161334
 31
0.0
 73
     1
 44
1.0
  0
LINE
  5
62B
330
4E9
100
AcDbEntity
  8
标注
 62
     0
440
 16777216
370
    -2
100
AcDbLine
 10
766.8438508028904
 20
336.1629014751443
 30
0.0
 11
780.9931199101247
 21
341.142678953408
 31
0.0
  0
SOLID
  5
62C
330
4E9
100
AcDbEntity
  8
标注
 62
     0
440
 16777216
100
AcDbTrace
 10
791.6485648654306
 20
347.0130701502913
 30
0.0
 11
792.9765055262952
 21
343.2399317217119
 31
0.0
 12
780.9931199101247
 22
341.142678953408
 32
0.0
 13
780.9931199101247
 23
341.142678953408
 33
0.0
  0
ARC
  5
62D
330
4E9
100
AcDbEntity
  8
标注
 62
     0
440
 16777216
370
    -2
100
AcDbCircle
 10
766.8438508028904
 20
336.1629014751443
 30
0.0
 40
15.00000000006525
100
AcDbArc
 50
289.0985931709443
 51
57.58649765009952
  0
POINT
  5
62E
330
4E9
100
AcDbEntity
  8
Defpoints
 62
     0
440
 16777216
100
AcDbPoint
 10
780.9931199101247
 20
341.142678953408
 30
0.0
  0
POINT
  5
62F
330
4E9
100
AcDbEntity
  8
Defpoints
 62
     0
440
 16777216
100
AcDbPoint
 10
766.8438508028904
 20
336.1629014751443
 30
0.0
  0
ENDBLK
  5
4EB
330
4E9
100
AcDbEntity
  8
0
100
AcDbBlockEnd
  0
BLOCK
  5
4F4
330
4F3
100
AcDbEntity
  8
0
100
AcDbBlockBegin
  2
*D33
 70
     1
 10
0.0
 20
0.0
 30
0.0
  3
*D33
  1

  0
LINE
  5
4F6
330
4F3
100
AcDbEntity
  8
标注
 62
     0
440
 16777216
 48
0.2
370
    -2
100
AcDbLine
 10
726.4438508029543
 20
1220.542800243433
 30
0.0
 11
726.4438508029543
 21
1295.582537255329
 31
0.0
  0
LINE
  5
4F7
330
4F3
100
AcDbEntity
  8
标注
 62
     0
440
 16777216
 48
0.2
370
    -2
100
AcDbLine
 10
1640.843850802963
 20
1220.542800243433
 30
0.0
 11
1640.843850802963
 21
1295.582537255329
 31
0.0
  0
LINE
  5
4F8
330
4F3
100
AcDbEntity
  8
标注
 62
     0
440
 16777216
 48
0.2
370
    -2
100
AcDbLine
 10
746.4438508029543
 20
1285.582537255329
 30
0.0
 11
1620.843850802963
 21
1285.582537255329
 31
0.0
  0
SOLID
  5
4F9
330
4F3
100
AcDbEntity
  8
标注
 62
     0
440
 16777216
 48
0.2
100
AcDbTrace
 10
746.4438508029543
 20
1288.915870588662
 30
0.0
 11
746.4438508029543
 21
1282.249203921996
 31
0.0
 12
726.4438508029543
 22
1285.582537255329
 32
0.0
 13
726.4438508029543
 23
1285.582537255329
 33
0.0
  0
SOLID
  5
4FA
330
4F3
100
AcDbEntity
  8
标注
 62
     0
440
 16777216
 48
0.2
100
AcDbTrace
 10
1620.843850802963
 20
1288.915870588662
 30
0.0
 11
1620.843850802963
 21
1282.249203921996
 31
0.0
 12
1640.843850802963
 22
1285.582537255329
 32
0.0
 13
1640.843850802963
 23
1285.582537255329
 33
0.0
  0
MTEXT
  5
4FB
330
4F3
100
AcDbEntity
  8
标注
 62
     0
440
 16777216
 48
0.2
370
     9
100
AcDbMText
 10
1183.643850802958
 20
1299.782537255329
 30
0.0
 40
18.4
 41
0.0
 71
     5
 72
     1
  1
36"
 73
     1
 44
1.0
  0
POINT
  5
4FC
330
4F3
100
AcDbEntity
  8
Defpoints
 62
     0
440
 16777216
 48
0.2
100
AcDbPoint
 10
726.4438508029543
 20
1215.542800243434
 30
0.0
  0
POINT
  5
4FD
330
4F3
100
AcDbEntity
  8
Defpoints
 62
     0
440
 16777216
 48
0.2
100
AcDbPoint
 10
1640.843850802963
 20
1215.542800243434
 30
0.0
  0
POINT
  5
4FE
330
4F3
100
AcDbEntity
  8
Defpoints
 62
     0
440
 16777216
 48
0.2
100
AcDbPoint
 10
1640.843850802963
 20
1285.582537255329
 30
0.0
  0
ENDBLK
  5
4F5
330
4F3
100
AcDbEntity
  8
0
100
AcDbBlockEnd
  0
BLOCK
  5
500
330
4FF
100
AcDbEntity
  8
0
100
AcDbBlockBegin
  2
*D34
 70
     1
 10
0.0
 20
0.0
 30
0.0
  3
*D34
  1

  0
LINE
  5
502
330
4FF
100
AcDbEntity
  8
标注
 62
     0
440
 16777216
 48
0.2
370
    -2
100
AcDbLine
 10
751.8438508029484
 20
1180.142800243439
 30
0.0
 11
751.8438508029484
 21
1252.004631443188
 31
0.0
  0
LINE
  5
503
330
4FF
100
AcDbEntity
  8
标注
 62
     0
440
 16777216
 48
0.2
370
    -2
100
AcDbLine
 10
1170.943850802969
 20
1180.142800243439
 30
0.0
 11
1170.943850802969
 21
1252.004631443188
 31
0.0
  0
LINE
  5
504
330
4FF
100
AcDbEntity
  8
标注
 62
     0
440
 16777216
 48
0.2
370
    -2
100
AcDbLine
 10
771.8438508029485
 20
1242.004631443188
 30
0.0
 11
1150.943850802969
 21
1242.004631443188
 31
0.0
  0
SOLID
  5
505
330
4FF
100
AcDbEntity
  8
标注
 62
     0
440
 16777216
 48
0.2
100
AcDbTrace
 10
771.8438508029485
 20
1245.337964776522
 30
0.0
 11
771.8438508029485
 21
1238.671298109855
 31
0.0
 12
751.8438508029484
 22
1242.004631443188
 32
0.0
 13
751.8438508029484
 23
1242.004631443188
 33
0.0
  0
SOLID
  5
506
330
4FF
100
AcDbEntity
  8
标注
 62
     0
440
 16777216
 48
0.2
100
AcDbTrace
 10
1150.943850802969
 20
1245.337964776522
 30
0.0
 11
1150.943850802969
 21
1238.671298109855
 31
0.0
 12
1170.943850802969
 22
1242.004631443188
 32
0.0
 13
1170.943850802969
 23
1242.004631443188
 33
0.0
  0
MTEXT
  5
507
330
4FF
100
AcDbEntity
  8
标注
 62
     0
440
 16777216
 48
0.2
370
     9
100
AcDbMText
 10
961.3938508029587
 20
1256.204631443188
 30
0.0
 40
18.4
 41
0.0
 71
     5
 72
     1
  1
16.5"
 73
     1
 44
1.0
  0
POINT
  5
508
330
4FF
100
AcDbEntity
  8
Defpoints
 62
     0
440
 16777216
 48
0.2
100
AcDbPoint
 10
751.8438508029484
 20
1175.142800243439
 30
0.0
  0
POINT
  5
509
330
4FF
100
AcDbEntity
  8
Defpoints
 62
     0
440
 16777216
 48
0.2
100
AcDbPoint
 10
1170.943850802969
 20
1175.142800243439
 30
0.0
  0
POINT
  5
50A
330
4FF
100
AcDbEntity
  8
Defpoints
 62
     0
440
 16777216
 48
0.2
100
AcDbPoint
 10
1170.943850802969
 20
1242.004631443188
 30
0.0
  0
ENDBLK
  5
501
330
4FF
100
AcDbEntity
  8
0
100
AcDbBlockEnd
  0
BLOCK
  5
515
330
514
100
AcDbEntity
  8
0
100
AcDbBlockBegin
  2
*D35
 70
     1
 10
0.0
 20
0.0
 30
0.0
  3
*D35
  1

  0
LINE
  5
517
330
514
100
AcDbEntity
  8
标注
 62
     0
440
 16777216
 48
0.2
370
    -2
100
AcDbLine
 10
721.4438508029543
 20
1215.542800243434
 30
0.0
 11
640.9152148187842
 21
1215.542800243434
 31
0.0
  0
LINE
  5
518
330
514
100
AcDbEntity
  8
标注
 62
     0
440
 16777216
 48
0.2
370
    -2
100
AcDbLine
 10
721.4438508029543
 20
732.9428002434351
 30
0.0
 11
640.9152148187841
 21
732.9428002434351
 31
0.0
  0
LINE
  5
519
330
514
100
AcDbEntity
  8
标注
 62
     0
440
 16777216
 48
0.2
370
    -2
100
AcDbLine
 10
650.9152148187841
 20
1195.542800243433
 30
0.0
 11
650.915214818784
 21
752.9428002434351
 31
0.0
  0
SOLID
  5
51A
330
514
100
AcDbEntity
  8
标注
 62
     0
440
 16777216
 48
0.2
100
AcDbTrace
 10
647.5818814854508
 20
1195.542800243433
 30
0.0
 11
654.2485481521175
 21
1195.542800243433
 31
0.0
 12
650.9152148187841
 22
1215.542800243434
 32
0.0
 13
650.9152148187841
 23
1215.542800243434
 33
0.0
  0
SOLID
  5
51B
330
514
100
AcDbEntity
  8
标注
 62
     0
440
 16777216
 48
0.2
100
AcDbTrace
 10
647.5818814854506
 20
752.9428002434351
 30
0.0
 11
654.2485481521175
 21
752.9428002434351
 31
0.0
 12
650.915214818784
 22
732.9428002434351
 32
0.0
 13
650.915214818784
 23
732.9428002434351
 33
0.0
  0
MTEXT
  5
51C
330
514
100
AcDbEntity
  8
标注
 62
     0
440
 16777216
 48
0.2
370
     9
100
AcDbMText
 10
636.715214818784
 20
974.2428002434346
 30
0.0
 40
18.4
 41
0.0
 71
     5
 72
     1
  1
19"
 11
0.0000000000000001
 21
1.0
 31
0.0
 73
     1
 44
1.0
  0
POINT
  5
51D
330
514
100
AcDbEntity
  8
Defpoints
 62
     0
440
 16777216
 48
0.2
100
AcDbPoint
 10
726.4438508029543
 20
1215.542800243434
 30
0.0
  0
POINT
  5
51E
330
514
100
AcDbEntity
  8
Defpoints
 62
     0
440
 16777216
 48
0.2
100
AcDbPoint
 10
726.4438508029543
 20
732.9428002434351
 30
0.0
  0
POINT
  5
51F
330
514
100
AcDbEntity
  8
Defpoints
 62
     0
440
 16777216
 48
0.2
100
AcDbPoint
 10
650.915214818784
 20
732.9428002434351
 30
0.0
  0
ENDBLK
  5
516
330
514
100
AcDbEntity
  8
0
100
AcDbBlockEnd
  0
BLOCK
  5
52A
330
529
100
AcDbEntity
  8
0
100
AcDbBlockBegin
  2
*D36
 70
     1
 10
0.0
 20
0.0
 30
0.0
  3
*D36
  1

  0
LINE
  5
52C
330
529
100
AcDbEntity
  8
标注
 62
     0
440
 16777216
 48
0.2
370
    -2
100
AcDbLine
 10
956.3938508029659
 20
1070.142800243439
 30
0.0
 11
888.1343420162284
 21
1070.142800243439
 31
0.0
  0
LINE
  5
52D
330
529
100
AcDbEntity
  8
标注
 62
     0
440
 16777216
 48
0.2
370
    -2
100
AcDbLine
 10
956.3938508029659
 20
1190.142800243439
 30
0.0
 11
888.1343420162284
 21
1190.142800243439
 31
0.0
  0
LINE
  5
52E
330
529
100
AcDbEntity
  8
标注
 62
     0
440
 16777216
 48
0.2
370
    -2
100
AcDbLine
 10
898.1343420162284
 20
1090.142800243439
 30
0.0
 11
898.1343420162284
 21
1170.142800243439
 31
0.0
  0
SOLID
  5
52F
330
529
100
AcDbEntity
  8
标注
 62
     0
440
 16777216
 48
0.2
100
AcDbTrace
 10
894.8010086828951
 20
1090.142800243439
 30
0.0
 11
901.4676753495617
 21
1090.142800243439
 31
0.0
 12
898.1343420162284
 22
1070.142800243439
 32
0.0
 13
898.1343420162284
 23
1070.142800243439
 33
0.0
  0
SOLID
  5
530
330
529
100
AcDbEntity
  8
标注
 62
     0
440
 16777216
 48
0.2
100
AcDbTrace
 10
894.8010086828951
 20
1170.142800243439
 30
0.0
 11
901.4676753495617
 21
1170.142800243439
 31
0.0
 12
898.1343420162284
 22
1190.142800243439
 32
0.0
 13
898.1343420162284
 23
1190.142800243439
 33
0.0
  0
MTEXT
  5
531
330
529
100
AcDbEntity
  8
标注
 62
     0
440
 16777216
 48
0.2
370
     9
100
AcDbMText
 10
883.9343420162283
 20
1130.142800243439
 30
0.0
 40
18.4
 41
0.0
 71
     5
 72
     1
  1
4.7"
 11
0.0000000000000001
 21
1.0
 31
0.0
 73
     1
 44
1.0
  0
POINT
  5
532
330
529
100
AcDbEntity
  8
Defpoints
 62
     0
440
 16777216
 48
0.2
100
AcDbPoint
 10
961.393850802966
 20
1070.142800243439
 30
0.0
  0
POINT
  5
533
330
529
100
AcDbEntity
  8
Defpoints
 62
     0
440
 16777216
 48
0.2
100
AcDbPoint
 10
961.393850802966
 20
1190.142800243439
 30
0.0
  0
POINT
  5
534
330
529
100
AcDbEntity
  8
Defpoints
 62
     0
440
 16777216
 48
0.2
100
AcDbPoint
 10
898.1343420162284
 20
1190.142800243439
 30
0.0
  0
ENDBLK
  5
52B
330
529
100
AcDbEntity
  8
0
100
AcDbBlockEnd
  0
BLOCK
  5
536
330
535
100
AcDbEntity
  8
0
100
AcDbBlockBegin
  2
*D37
 70
     1
 10
0.0
 20
0.0
 30
0.0
  3
*D37
  1

  0
LINE
  5
675
330
535
100
AcDbEntity
  8
标注
 62
     0
440
 16777216
 48
0.2
370
    -2
100
AcDbLine
 10
794.730837429322
 20
1007.850712998414
 30
0.0
 11
887.8620943151108
 21
1042.659518274017
 31
0.0
  0
LINE
  5
676
330
535
100
AcDbEntity
  8
标注
 62
     0
440
 16777216
 48
0.2
370
    -2
100
AcDbLine
 10
1034.925607290856
 20
1097.626082212875
 30
0.0
 11
1053.659812765469
 21
1104.628192268778
 31
0.0
  0
MTEXT
  5
677
102
{ACAD_XDICTIONARY
360
8A8
102
}
330
535
100
AcDbEntity
  8
标注
 62
     0
440
 16777216
 48
0.2
370
     9
100
AcDbMText
 10
826.7095909974655
 20
1035.719605704359
 30
0.0
 40
18.4
 41
0.0
 71
     5
 72
     1
  1
\U+22054.6"
 11
0.9367102737306394
 21
0.3501055027951867
 31
0.0
 73
     1
 44
1.0
  0
LINE
  5
678
330
535
100
AcDbEntity
  8
标注
 62
     0
440
 16777216
 48
0.2
370
    -2
100
AcDbLine
 10
1016.191401816244
 20
1090.623972156971
 30
0.0
 11
906.5962997897235
 21
1049.661628329921
 31
0.0
  0
SOLID
  5
679
330
535
100
AcDbEntity
  8
标注
 62
     0
440
 16777216
 48
0.2
100
AcDbTrace
 10
1033.758588948206
 20
1100.748449791977
 30
0.0
 11
1036.092625633507
 21
1094.503714633773
 31
0.0
 12
1016.191401816244
 22
1090.623972156971
 32
0.0
 13
1016.191401816244
 23
1090.623972156971
 33
0.0
  0
SOLID
  5
67A
330
535
100
AcDbEntity
  8
标注
 62
     0
440
 16777216
 48
0.2
100
AcDbTrace
 10
886.6950759724602
 20
1045.781885853119
 30
0.0
 11
889.0291126577615
 21
1039.537150694915
 31
0.0
 12
906.5962997897235
 22
1049.661628329921
 32
0.0
 13
906.5962997897235
 23
1049.661628329921
 33
0.0
  0
POINT
  5
67B
330
535
100
AcDbEntity
  8
Defpoints
 62
     0
440
 16777216
 48
0.2
100
AcDbPoint
 10
906.5962997897235
 20
1049.661628329921
 30
0.0
  0
POINT
  5
67C
330
535
100
AcDbEntity
  8
Defpoints
 62
     0
440
 16777216
 48
0.2
100
AcDbPoint
 10
1016.191401816244
 20
1090.623972156971
 30
0.0
  0
ENDBLK
  5
537
330
535
100
AcDbEntity
  8
0
100
AcDbBlockEnd
  0
BLOCK
  5
541
330
540
100
AcDbEntity
  8
0
100
AcDbBlockBegin
  2
*D38
 70
     1
 10
0.0
 20
0.0
 30
0.0
  3
*D38
  1

  0
LINE
  5
66D
330
540
100
AcDbEntity
  8
标注
 62
     0
440
 16777216
 48
0.2
370
    -2
100
AcDbLine
 10
835.8131516212967
 20
964.0076946031037
 30
0.0
 11
911.7492892356942
 21
1028.185470647844
 31
0.0
  0
LINE
  5
66E
330
540
100
AcDbEntity
  8
标注
 62
     0
440
 16777216
 48
0.2
370
    -2
100
AcDbLine
 10
1011.038412370252
 20
1112.100129839046
 30
0.0
 11
1026.313662083259
 21
1125.010077406922
 31
0.0
  0
MTEXT
  5
66F
102
{ACAD_XDICTIONARY
360
8A6
102
}
330
540
100
AcDbEntity
  8
标注
 62
     0
440
 16777216
 48
0.2
370
     9
100
AcDbMText
 10
856.5197844532494
 20
1001.028651062793
 30
0.0
 40
18.4
 41
0.0
 71
     5
 72
     1
  1
\U+22053.5"
 11
0.7637624856503337
 21
0.6454973783937655
 31
0.0
 73
     1
 44
1.0
  0
LINE
  5
670
330
540
100
AcDbEntity
  8
标注
 62
     0
440
 16777216
 48
0.2
370
    -2
100
AcDbLine
 10
995.7631626572457
 20
1099.190182271171
 30
0.0
 11
927.0245389487008
 21
1041.09541821572
 31
0.0
  0
SOLID
  5
671
330
540
100
AcDbEntity
  8
标注
 62
     0
440
 16777216
 48
0.2
100
AcDbTrace
 10
1008.886754442273
 20
1114.646004791214
 30
0.0
 11
1013.190070298231
 21
1109.554254886879
 31
0.0
 12
995.7631626572457
 22
1099.190182271171
 32
0.0
 13
995.7631626572457
 23
1099.190182271171
 33
0.0
  0
SOLID
  5
672
330
540
100
AcDbEntity
  8
标注
 62
     0
440
 16777216
 48
0.2
100
AcDbTrace
 10
909.5976313077152
 20
1030.731345600012
 30
0.0
 11
913.9009471636736
 21
1025.639595695677
 31
0.0
 12
927.0245389487008
 22
1041.09541821572
 32
0.0
 13
927.0245389487008
 23
1041.09541821572
 33
0.0
  0
POINT
  5
673
330
540
100
AcDbEntity
  8
Defpoints
 62
     0
440
 16777216
 48
0.2
100
AcDbPoint
 10
927.0245389487008
 20
1041.09541821572
 30
0.0
  0
POINT
  5
674
330
540
100
AcDbEntity
  8
Defpoints
 62
     0
440
 16777216
 48
0.2
100
AcDbPoint
 10
995.7631626572457
 20
1099.190182271171
 30
0.0
  0
ENDBLK
  5
542
330
540
100
AcDbEntity
  8
0
100
AcDbBlockEnd
  0
BLOCK
  5
54C
330
54B
100
AcDbEntity
  8
0
100
AcDbBlockBegin
  2
*D39
 70
     1
 10
0.0
 20
0.0
 30
0.0
  3
*D39
  1

  0
LINE
  5
54E
330
54B
100
AcDbEntity
  8
标注
 62
     0
440
 16777216
 48
0.2
370
    -2
100
AcDbLine
 10
1410.893850802966
 20
1070.142800243432
 30
0.0
 11
1487.611076250598
 21
1070.142800243432
 31
0.0
  0
LINE
  5
54F
330
54B
100
AcDbEntity
  8
标注
 62
     0
440
 16777216
 48
0.2
370
    -2
100
AcDbLine
 10
1410.893850802966
 20
1190.142800243432
 30
0.0
 11
1487.611076250598
 21
1190.142800243432
 31
0.0
  0
LINE
  5
550
330
54B
100
AcDbEntity
  8
标注
 62
     0
440
 16777216
 48
0.2
370
    -2
100
AcDbLine
 10
1477.611076250598
 20
1090.142800243432
 30
0.0
 11
1477.611076250598
 21
1170.142800243432
 31
0.0
  0
SOLID
  5
551
330
54B
100
AcDbEntity
  8
标注
 62
     0
440
 16777216
 48
0.2
100
AcDbTrace
 10
1474.277742917264
 20
1090.142800243432
 30
0.0
 11
1480.944409583931
 21
1090.142800243432
 31
0.0
 12
1477.611076250598
 22
1070.142800243432
 32
0.0
 13
1477.611076250598
 23
1070.142800243432
 33
0.0
  0
SOLID
  5
552
330
54B
100
AcDbEntity
  8
标注
 62
     0
440
 16777216
 48
0.2
100
AcDbTrace
 10
1474.277742917264
 20
1170.142800243432
 30
0.0
 11
1480.944409583931
 21
1170.142800243432
 31
0.0
 12
1477.611076250598
 22
1190.142800243432
 32
0.0
 13
1477.611076250598
 23
1190.142800243432
 33
0.0
  0
MTEXT
  5
553
330
54B
100
AcDbEntity
  8
标注
 62
     0
440
 16777216
 48
0.2
370
     9
100
AcDbMText
 10
1463.411076250597
 20
1130.142800243432
 30
0.0
 40
18.4
 41
0.0
 71
     5
 72
     1
  1
4.7"
 11
0.0000000000000001
 21
1.0
 31
0.0
 73
     1
 44
1.0
  0
POINT
  5
554
330
54B
100
AcDbEntity
  8
Defpoints
 62
     0
440
 16777216
 48
0.2
100
AcDbPoint
 10
1405.893850802966
 20
1070.142800243432
 30
0.0
  0
POINT
  5
555
330
54B
100
AcDbEntity
  8
Defpoints
 62
     0
440
 16777216
 48
0.2
100
AcDbPoint
 10
1405.893850802966
 20
1190.142800243432
 30
0.0
  0
POINT
  5
556
330
54B
100
AcDbEntity
  8
Defpoints
 62
     0
440
 16777216
 48
0.2
100
AcDbPoint
 10
1477.611076250598
 20
1190.142800243432
 30
0.0
  0
ENDBLK
  5
54D
330
54B
100
AcDbEntity
  8
0
100
AcDbBlockEnd
  0
BLOCK
  5
558
330
557
100
AcDbEntity
  8
0
100
AcDbBlockBegin
  2
*D40
 70
     1
 10
0.0
 20
0.0
 30
0.0
  3
*D40
  1

  0
LINE
  5
685
330
557
100
AcDbEntity
  8
标注
 62
     0
440
 16777216
 48
0.2
370
    -2
100
AcDbLine
 10
1574.79640921858
 20
1014.207212995372
 30
0.0
 11
1480.413695033484
 21
1045.464007407085
 31
0.0
  0
LINE
  5
686
330
557
100
AcDbEntity
  8
标注
 62
     0
440
 16777216
 48
0.2
370
    -2
100
AcDbLine
 10
1331.374006572479
 20
1094.821593079769
 30
0.0
 11
1312.388058997824
 21
1101.109183611323
 31
0.0
  0
MTEXT
  5
687
102
{ACAD_XDICTIONARY
360
8AC
102
}
330
557
100
AcDbEntity
  8
标注
 62
     0
440
 16777216
 48
0.2
370
     9
100
AcDbMText
 10
1541.785154451219
 20
1040.845022948743
 30
0.0
 40
18.4
 41
0.0
 71
     5
 72
     1
  1
\U+22054.6"
 11
0.9492973787327123
 21
-0.3143795265776722
 31
0.0
 73
     1
 44
1.0
  0
LINE
  5
688
330
557
100
AcDbEntity
  8
标注
 62
     0
440
 16777216
 48
0.2
370
    -2
100
AcDbLine
 10
1350.359954147133
 20
1088.534002548216
 30
0.0
 11
1461.42774745883
 21
1051.751597938638
 31
0.0
  0
SOLID
  5
689
330
557
100
AcDbEntity
  8
标注
 62
     0
440
 16777216
 48
0.2
100
AcDbTrace
 10
1332.421938327737
 20
1097.985917675545
 30
0.0
 11
1330.32607481722
 21
1091.657268483993
 31
0.0
 12
1350.359954147133
 22
1088.534002548216
 32
0.0
 13
1350.359954147133
 23
1088.534002548216
 33
0.0
  0
SOLID
  5
68A
330
557
100
AcDbEntity
  8
标注
 62
     0
440
 16777216
 48
0.2
100
AcDbTrace
 10
1481.461626788743
 20
1048.62833200286
 30
0.0
 11
1479.365763278225
 21
1042.299682811309
 31
0.0
 12
1461.42774745883
 22
1051.751597938638
 32
0.0
 13
1461.42774745883
 23
1051.751597938638
 33
0.0
  0
POINT
  5
68B
330
557
100
AcDbEntity
  8
Defpoints
 62
     0
440
 16777216
 48
0.2
100
AcDbPoint
 10
1461.42774745883
 20
1051.751597938638
 30
0.0
  0
POINT
  5
68C
330
557
100
AcDbEntity
  8
Defpoints
 62
     0
440
 16777216
 48
0.2
100
AcDbPoint
 10
1350.359954147133
 20
1088.534002548216
 30
0.0
  0
ENDBLK
  5
559
330
557
100
AcDbEntity
  8
0
100
AcDbBlockEnd
  0
BLOCK
  5
563
330
562
100
AcDbEntity
  8
0
100
AcDbBlockBegin
  2
*D41
 70
     1
 10
0.0
 20
0.0
 30
0.0
  3
*D41
  1

  0
LINE
  5
67D
330
562
100
AcDbEntity
  8
标注
 62
     0
440
 16777216
 48
0.2
370
    -2
100
AcDbLine
 10
1528.904600523578
 20
961.0395092325047
 30
0.0
 11
1454.522459958158
 21
1027.012087617375
 31
0.0
  0
LINE
  5
67E
330
562
100
AcDbEntity
  8
标注
 62
     0
440
 16777216
 48
0.2
370
    -2
100
AcDbLine
 10
1357.265241647803
 20
1113.273512869464
 30
0.0
 11
1342.302592676974
 21
1126.544501369789
 31
0.0
  0
MTEXT
  5
67F
102
{ACAD_XDICTIONARY
360
8AA
102
}
330
562
100
AcDbEntity
  8
标注
 62
     0
440
 16777216
 48
0.2
370
     9
100
AcDbMText
 10
1509.087806344765
 20
998.5443159764688
 30
0.0
 40
18.4
 41
0.0
 71
     5
 72
     1
  1
\U+22053.5"
 11
0.7481324485414192
 21
-0.6635494250162687
 31
0.0
 73
     1
 44
1.0
  0
LINE
  5
680
330
562
100
AcDbEntity
  8
标注
 62
     0
440
 16777216
 48
0.2
370
    -2
100
AcDbLine
 10
1372.227890618632
 20
1100.002524369138
 30
0.0
 11
1439.55981098733
 21
1040.2830761177
 31
0.0
  0
SOLID
  5
681
330
562
100
AcDbEntity
  8
标注
 62
     0
440
 16777216
 48
0.2
100
AcDbTrace
 10
1359.477073064524
 20
1115.767287697935
 30
0.0
 11
1355.053410231082
 21
1110.779738040992
 31
0.0
 12
1372.227890618632
 22
1100.002524369138
 32
0.0
 13
1372.227890618632
 23
1100.002524369138
 33
0.0
  0
SOLID
  5
682
330
562
100
AcDbEntity
  8
标注
 62
     0
440
 16777216
 48
0.2
100
AcDbTrace
 10
1456.734291374879
 20
1029.505862445846
 30
0.0
 11
1452.310628541438
 21
1024.518312788903
 31
0.0
 12
1439.55981098733
 22
1040.2830761177
 32
0.0
 13
1439.55981098733
 23
1040.2830761177
 33
0.0
  0
POINT
  5
683
330
562
100
AcDbEntity
  8
Defpoints
 62
     0
440
 16777216
 48
0.2
100
AcDbPoint
 10
1439.55981098733
 20
1040.2830761177
 30
0.0
  0
POINT
  5
684
330
562
100
AcDbEntity
  8
Defpoints
 62
     0
440
 16777216
 48
0.2
100
AcDbPoint
 10
1372.227890618632
 20
1100.002524369138
 30
0.0
  0
ENDBLK
  5
564
330
562
100
AcDbEntity
  8
0
100
AcDbBlockEnd
  0
BLOCK
  5
56E
330
56D
100
AcDbEntity
  8
0
100
AcDbBlockBegin
  2
*D42
 70
     1
 10
0.0
 20
0.0
 30
0.0
  3
*D42
  1

  0
LINE
  5
662
330
56D
100
AcDbEntity
  8
标注
 62
     0
440
 16777216
 48
0.2
370
    -2
100
AcDbLine
 10
1196.343850802978
 20
972.7874558665053
 30
0.0
 11
1196.343850802978
 21
934.6693240515964
 31
0.0
  0
LINE
  5
663
330
56D
100
AcDbEntity
  8
标注
 62
     0
440
 16777216
 48
0.2
370
    -2
100
AcDbLine
 10
1170.943850802969
 20
973.0014901053136
 30
0.0
 11
1170.943850802969
 21
934.6693240515964
 31
0.0
  0
LINE
  5
664
330
56D
100
AcDbEntity
  8
标注
 62
     0
440
 16777216
 48
0.2
370
    -2
100
AcDbLine
 10
1216.343850802977
 20
944.6693240515966
 30
0.0
 11
1236.343850802978
 21
944.6693240515966
 31
0.0
  0
LINE
  5
665
330
56D
100
AcDbEntity
  8
标注
 62
     0
440
 16777216
 48
0.2
370
    -2
100
AcDbLine
 10
1150.943850802969
 20
944.6693240515966
 30
0.0
 11
1099.768431808555
 21
944.6693240515966
 31
0.0
  0
LINE
  5
666
330
56D
100
AcDbEntity
  8
标注
 62
     0
440
 16777216
 48
0.2
370
    -2
100
AcDbLine
 10
1196.343850802978
 20
944.6693240515966
 30
0.0
 11
1170.943850802969
 21
944.6693240515966
 31
0.0
  0
SOLID
  5
667
330
56D
100
AcDbEntity
  8
标注
 62
     0
440
 16777216
 48
0.2
100
AcDbTrace
 10
1216.343850802977
 20
948.0026573849299
 30
0.0
 11
1216.343850802977
 21
941.3359907182631
 31
0.0
 12
1196.343850802978
 22
944.6693240515966
 32
0.0
 13
1196.343850802978
 23
944.6693240515966
 33
0.0
  0
SOLID
  5
668
330
56D
100
AcDbEntity
  8
标注
 62
     0
440
 16777216
 48
0.2
100
AcDbTrace
 10
1150.943850802969
 20
948.0026573849299
 30
0.0
 11
1150.943850802969
 21
941.3359907182631
 31
0.0
 12
1170.943850802969
 22
944.6693240515966
 32
0.0
 13
1170.943850802969
 23
944.6693240515966
 33
0.0
  0
MTEXT
  5
669
330
56D
100
AcDbEntity
  8
标注
 62
     0
440
 16777216
 48
0.2
370
     9
100
AcDbMText
 10
1115.356141305762
 20
958.8693240515965
 30
0.0
 40
18.4
 41
0.0
 71
     5
 72
     1
  1
1"
 73
     1
 44
1.0
  0
POINT
  5
66A
330
56D
100
AcDbEntity
  8
Defpoints
 62
     0
440
 16777216
 48
0.2
100
AcDbPoint
 10
1196.343850802978
 20
977.7874558665052
 30
0.0
  0
POINT
  5
66B
330
56D
100
AcDbEntity
  8
Defpoints
 62
     0
440
 16777216
 48
0.2
100
AcDbPoint
 10
1170.943850802969
 20
978.0014901053137
 30
0.0
  0
POINT
  5
66C
330
56D
100
AcDbEntity
  8
Defpoints
 62
     0
440
 16777216
 48
0.2
100
AcDbPoint
 10
1170.943850802969
 20
944.6693240515966
 30
0.0
  0
ENDBLK
  5
56F
330
56D
100
AcDbEntity
  8
0
100
AcDbBlockEnd
  0
BLOCK
  5
57C
330
57B
100
AcDbEntity
  8
0
100
AcDbBlockBegin
  2
*D43
 70
     1
 10
0.0
 20
0.0
 30
0.0
  3
*D43
  1

  0
LINE
  5
650
330
57B
100
AcDbEntity
  8
标注
 62
     0
440
 16777216
 48
0.2
370
    -2
100
AcDbLine
 10
726.4438508029543
 20
969.2428002434343
 30
0.0
 11
726.4438508029543
 21
924.6732862695379
 31
0.0
  0
LINE
  5
651
330
57B
100
AcDbEntity
  8
标注
 62
     0
440
 16777216
 48
0.2
370
    -2
100
AcDbLine
 10
751.8438508029484
 20
969.2428002434343
 30
0.0
 11
751.8438508029484
 21
924.6732862695379
 31
0.0
  0
LINE
  5
652
330
57B
100
AcDbEntity
  8
标注
 62
     0
440
 16777216
 48
0.2
370
    -2
100
AcDbLine
 10
706.4438508029543
 20
934.6732862695381
 30
0.0
 11
686.4438508029543
 21
934.6732862695381
 31
0.0
  0
LINE
  5
653
330
57B
100
AcDbEntity
  8
标注
 62
     0
440
 16777216
 48
0.2
370
    -2
100
AcDbLine
 10
771.8438508029485
 20
934.6732862695381
 30
0.0
 11
823.0192697973619
 21
934.6732862695381
 31
0.0
  0
LINE
  5
654
330
57B
100
AcDbEntity
  8
标注
 62
     0
440
 16777216
 48
0.2
370
    -2
100
AcDbLine
 10
726.4438508029543
 20
934.6732862695381
 30
0.0
 11
751.8438508029484
 21
934.6732862695381
 31
0.0
  0
SOLID
  5
655
330
57B
100
AcDbEntity
  8
标注
 62
     0
440
 16777216
 48
0.2
100
AcDbTrace
 10
706.4438508029543
 20
938.0066196028714
 30
0.0
 11
706.4438508029543
 21
931.3399529362046
 31
0.0
 12
726.4438508029543
 22
934.6732862695381
 32
0.0
 13
726.4438508029543
 23
934.6732862695381
 33
0.0
  0
SOLID
  5
656
330
57B
100
AcDbEntity
  8
标注
 62
     0
440
 16777216
 48
0.2
100
AcDbTrace
 10
771.8438508029485
 20
938.0066196028714
 30
0.0
 11
771.8438508029485
 21
931.3399529362046
 31
0.0
 12
751.8438508029484
 22
934.6732862695381
 32
0.0
 13
751.8438508029484
 23
934.6732862695381
 33
0.0
  0
MTEXT
  5
657
330
57B
100
AcDbEntity
  8
标注
 62
     0
440
 16777216
 48
0.2
370
     9
100
AcDbMText
 10
807.4315603001551
 20
948.873286269538
 30
0.0
 40
18.4
 41
0.0
 71
     5
 72
     1
  1
1"
 73
     1
 44
1.0
  0
POINT
  5
658
330
57B
100
AcDbEntity
  8
Defpoints
 62
     0
440
 16777216
 48
0.2
100
AcDbPoint
 10
726.4438508029543
 20
974.2428002434344
 30
0.0
  0
POINT
  5
659
330
57B
100
AcDbEntity
  8
Defpoints
 62
     0
440
 16777216
 48
0.2
100
AcDbPoint
 10
751.8438508029484
 20
974.2428002434344
 30
0.0
  0
POINT
  5
65A
330
57B
100
AcDbEntity
  8
Defpoints
 62
     0
440
 16777216
 48
0.2
100
AcDbPoint
 10
751.8438508029484
 20
934.6732862695381
 30
0.0
  0
ENDBLK
  5
57D
330
57B
100
AcDbEntity
  8
0
100
AcDbBlockEnd
  0
BLOCK
  5
58A
330
589
100
AcDbEntity
  8
0
100
AcDbBlockBegin
  2
*D44
 70
     1
 10
0.0
 20
0.0
 30
0.0
  3
*D44
  1

  0
LINE
  5
645
330
589
100
AcDbEntity
  8
标注
 62
     0
440
 16777216
 48
0.2
370
    -2
100
AcDbLine
 10
1640.843850802963
 20
969.2428002434343
 30
0.0
 11
1640.843850802963
 21
927.2788379715667
 31
0.0
  0
LINE
  5
646
330
589
100
AcDbEntity
  8
标注
 62
     0
440
 16777216
 48
0.2
370
    -2
100
AcDbLine
 10
1615.443850802954
 20
969.2428002434343
 30
0.0
 11
1615.443850802954
 21
927.2788379715667
 31
0.0
  0
LINE
  5
647
330
589
100
AcDbEntity
  8
标注
 62
     0
440
 16777216
 48
0.2
370
    -2
100
AcDbLine
 10
1660.843850802963
 20
937.2788379715666
 30
0.0
 11
1680.843850802963
 21
937.2788379715666
 31
0.0
  0
LINE
  5
648
330
589
100
AcDbEntity
  8
标注
 62
     0
440
 16777216
 48
0.2
370
    -2
100
AcDbLine
 10
1595.443850802954
 20
937.2788379715666
 30
0.0
 11
1544.268431808541
 21
937.2788379715666
 31
0.0
  0
LINE
  5
649
330
589
100
AcDbEntity
  8
标注
 62
     0
440
 16777216
 48
0.2
370
    -2
100
AcDbLine
 10
1640.843850802963
 20
937.2788379715666
 30
0.0
 11
1615.443850802954
 21
937.2788379715666
 31
0.0
  0
SOLID
  5
64A
330
589
100
AcDbEntity
  8
标注
 62
     0
440
 16777216
 48
0.2
100
AcDbTrace
 10
1660.843850802963
 20
940.6121713049
 30
0.0
 11
1660.843850802963
 21
933.9455046382333
 31
0.0
 12
1640.843850802963
 22
937.2788379715666
 32
0.0
 13
1640.843850802963
 23
937.2788379715666
 33
0.0
  0
SOLID
  5
64B
330
589
100
AcDbEntity
  8
标注
 62
     0
440
 16777216
 48
0.2
100
AcDbTrace
 10
1595.443850802954
 20
940.6121713049
 30
0.0
 11
1595.443850802954
 21
933.9455046382333
 31
0.0
 12
1615.443850802954
 22
937.2788379715666
 32
0.0
 13
1615.443850802954
 23
937.2788379715666
 33
0.0
  0
MTEXT
  5
64C
330
589
100
AcDbEntity
  8
标注
 62
     0
440
 16777216
 48
0.2
370
     9
100
AcDbMText
 10
1559.856141305747
 20
951.4788379715666
 30
0.0
 40
18.4
 41
0.0
 71
     5
 72
     1
  1
1"
 73
     1
 44
1.0
  0
POINT
  5
64D
330
589
100
AcDbEntity
  8
Defpoints
 62
     0
440
 16777216
 48
0.2
100
AcDbPoint
 10
1640.843850802963
 20
974.2428002434344
 30
0.0
  0
POINT
  5
64E
330
589
100
AcDbEntity
  8
Defpoints
 62
     0
440
 16777216
 48
0.2
100
AcDbPoint
 10
1615.443850802954
 20
974.2428002434344
 30
0.0
  0
POINT
  5
64F
330
589
100
AcDbEntity
  8
Defpoints
 62
     0
440
 16777216
 48
0.2
100
AcDbPoint
 10
1615.443850802954
 20
937.2788379715666
 30
0.0
  0
ENDBLK
  5
58B
330
589
100
AcDbEntity
  8
0
100
AcDbBlockEnd
  0
BLOCK
  5
5A3
330
5A2
100
AcDbEntity
  8
0
100
AcDbBlockBegin
  2
*D45
 70
     1
 10
0.0
 20
0.0
 30
0.0
  3
*D45
  1

  0
LINE
  5
630
330
5A2
100
AcDbEntity
  8
标注
 62
     0
440
 16777216
 48
0.2
370
    -2
100
AcDbLine
 10
966.3938508029586
 20
783.742800243438
 30
0.0
 11
974.3754729662525
 21
783.742800243438
 31
0.0
  0
LINE
  5
631
330
5A2
100
AcDbEntity
  8
标注
 62
     0
440
 16777216
 48
0.2
370
    -2
100
AcDbLine
 10
966.3938508029586
 20
732.9428002434351
 30
0.0
 11
974.3754729662525
 21
732.9428002434351
 31
0.0
  0
LINE
  5
632
330
5A2
100
AcDbEntity
  8
标注
 62
     0
440
 16777216
 48
0.2
370
    -2
100
AcDbLine
 10
964.3754729662525
 20
752.9428002434351
 30
0.0
 11
964.3754729662525
 21
763.742800243438
 31
0.0
  0
LINE
  5
633
330
5A2
100
AcDbEntity
  8
标注
 62
     0
440
 16777216
 48
0.2
370
    -2
100
AcDbLine
 10
964.3754729662525
 20
783.742800243438
 30
0.0
 11
964.3754729662525
 21
842.9304836882307
 31
0.0
  0
SOLID
  5
634
330
5A2
100
AcDbEntity
  8
标注
 62
     0
440
 16777216
 48
0.2
100
AcDbTrace
 10
961.042139632919
 20
752.9428002434351
 30
0.0
 11
967.7088062995858
 21
752.9428002434351
 31
0.0
 12
964.3754729662525
 22
732.9428002434351
 32
0.0
 13
964.3754729662525
 23
732.9428002434351
 33
0.0
  0
SOLID
  5
635
330
5A2
100
AcDbEntity
  8
标注
 62
     0
440
 16777216
 48
0.2
100
AcDbTrace
 10
961.042139632919
 20
763.742800243438
 30
0.0
 11
967.7088062995858
 21
763.742800243438
 31
0.0
 12
964.3754729662525
 22
783.742800243438
 32
0.0
 13
964.3754729662525
 23
783.742800243438
 33
0.0
  0
MTEXT
  5
636
330
5A2
100
AcDbEntity
  8
标注
 62
     0
440
 16777216
 48
0.2
370
     9
100
AcDbMText
 10
950.1754729662522
 20
826.5204278223091
 30
0.0
 40
18.4
 41
0.0
 71
     5
 72
     1
  1
2"
 11
0.0000000000000001
 21
1.0
 31
0.0
 73
     1
 44
1.0
  0
POINT
  5
637
330
5A2
100
AcDbEntity
  8
Defpoints
 62
     0
440
 16777216
 48
0.2
100
AcDbPoint
 10
961.3938508029587
 20
783.742800243438
 30
0.0
  0
POINT
  5
638
330
5A2
100
AcDbEntity
  8
Defpoints
 62
     0
440
 16777216
 48
0.2
100
AcDbPoint
 10
961.3938508029587
 20
732.9428002434351
 30
0.0
  0
POINT
  5
639
330
5A2
100
AcDbEntity
  8
Defpoints
 62
     0
440
 16777216
 48
0.2
100
AcDbPoint
 10
964.3754729662525
 20
732.9428002434351
 30
0.0
  0
ENDBLK
  5
5A4
330
5A2
100
AcDbEntity
  8
0
100
AcDbBlockEnd
  0
BLOCK
  5
5B0
330
5AF
100
AcDbEntity
  8
0
100
AcDbBlockBegin
  2
*D46
 70
     1
 10
0.0
 20
0.0
 30
0.0
  3
*D46
  1

  0
LINE
  5
63A
330
5AF
100
AcDbEntity
  8
标注
 62
     0
440
 16777216
 48
0.2
370
    -2
100
AcDbLine
 10
893.6951437511979
 20
732.9428002434351
 30
0.0
 11
888.2734188629491
 21
732.9428002434351
 31
0.0
  0
LINE
  5
63B
330
5AF
100
AcDbEntity
  8
标注
 62
     0
440
 16777216
 48
0.2
370
    -2
100
AcDbLine
 10
893.6951437511979
 20
767.9428002434351
 30
0.0
 11
888.2734188629491
 21
767.9428002434351
 31
0.0
  0
LINE
  5
63C
330
5AF
100
AcDbEntity
  8
标注
 62
     0
440
 16777216
 48
0.2
370
    -2
100
AcDbLine
 10
898.2734188629491
 20
712.9428002434352
 30
0.0
 11
898.2734188629491
 21
692.9428002434351
 31
0.0
  0
LINE
  5
63D
330
5AF
100
AcDbEntity
  8
标注
 62
     0
440
 16777216
 48
0.2
370
    -2
100
AcDbLine
 10
898.2734188629493
 20
787.9428002434352
 30
0.0
 11
898.2734188629493
 21
865.4333030367311
 31
0.0
  0
LINE
  5
63E
330
5AF
100
AcDbEntity
  8
标注
 62
     0
440
 16777216
 48
0.2
370
    -2
100
AcDbLine
 10
898.2734188629491
 20
732.9428002434351
 30
0.0
 11
898.2734188629491
 21
767.9428002434351
 31
0.0
  0
SOLID
  5
63F
330
5AF
100
AcDbEntity
  8
标注
 62
     0
440
 16777216
 48
0.2
100
AcDbTrace
 10
894.9400855296158
 20
712.9428002434352
 30
0.0
 11
901.6067521962824
 21
712.9428002434352
 31
0.0
 12
898.2734188629491
 22
732.9428002434351
 32
0.0
 13
898.2734188629491
 23
732.9428002434351
 33
0.0
  0
SOLID
  5
640
330
5AF
100
AcDbEntity
  8
标注
 62
     0
440
 16777216
 48
0.2
100
AcDbTrace
 10
894.9400855296159
 20
787.9428002434352
 30
0.0
 11
901.6067521962826
 21
787.9428002434352
 31
0.0
 12
898.2734188629491
 22
767.9428002434351
 32
0.0
 13
898.2734188629491
 23
767.9428002434351
 33
0.0
  0
MTEXT
  5
641
330
5AF
100
AcDbEntity
  8
标注
 62
     0
440
 16777216
 48
0.2
370
     9
100
AcDbMText
 10
884.073418862949
 20
836.6880516400835
 30
0.0
 40
18.4
 41
0.0
 71
     5
 72
     1
  1
1.4"
 11
0.0000000000000001
 21
1.0
 31
0.0
 73
     1
 44
1.0
  0
POINT
  5
642
330
5AF
100
AcDbEntity
  8
Defpoints
 62
     0
440
 16777216
 48
0.2
100
AcDbPoint
 10
898.6951437511978
 20
732.9428002434351
 30
0.0
  0
POINT
  5
643
330
5AF
100
AcDbEntity
  8
Defpoints
 62
     0
440
 16777216
 48
0.2
100
AcDbPoint
 10
898.6951437511978
 20
767.9428002434351
 30
0.0
  0
POINT
  5
644
330
5AF
100
AcDbEntity
  8
Defpoints
 62
     0
440
 16777216
 48
0.2
100
AcDbPoint
 10
898.2734188629491
 20
767.9428002434351
 30
0.0
  0
ENDBLK
  5
5B1
330
5AF
100
AcDbEntity
  8
0
100
AcDbBlockEnd
  0
BLOCK
  5
5BE
330
5BD
100
AcDbEntity
  8
0
100
AcDbBlockBegin
  2
*D47
 70
     1
 10
0.0
 20
0.0
 30
0.0
  3
*D47
  1

  0
LINE
  5
5C0
330
5BD
100
AcDbEntity
  8
标注
 62
     0
440
 16777216
 48
0.2
370
    -2
100
AcDbLine
 10
1788.977928149163
 20
1220.542800243433
 30
0.0
 11
1788.977928149163
 21
1251.383502718824
 31
0.0
  0
LINE
  5
5C1
330
5BD
100
AcDbEntity
  8
标注
 62
     0
440
 16777216
 48
0.2
370
    -2
100
AcDbLine
 10
1839.777928149151
 20
1220.542800243433
 30
0.0
 11
1839.777928149151
 21
1251.383502718824
 31
0.0
  0
LINE
  5
5C2
330
5BD
100
AcDbEntity
  8
标注
 62
     0
440
 16777216
 48
0.2
370
    -2
100
AcDbLine
 10
1808.977928149163
 20
1241.383502718824
 30
0.0
 11
1819.777928149151
 21
1241.383502718824
 31
0.0
  0
SOLID
  5
5C3
330
5BD
100
AcDbEntity
  8
标注
 62
     0
440
 16777216
 48
0.2
100
AcDbTrace
 10
1808.977928149163
 20
1244.716836052157
 30
0.0
 11
1808.977928149163
 21
1238.050169385491
 31
0.0
 12
1788.977928149163
 22
1241.383502718824
 32
0.0
 13
1788.977928149163
 23
1241.383502718824
 33
0.0
  0
SOLID
  5
5C4
330
5BD
100
AcDbEntity
  8
标注
 62
     0
440
 16777216
 48
0.2
100
AcDbTrace
 10
1819.777928149151
 20
1244.716836052157
 30
0.0
 11
1819.777928149151
 21
1238.050169385491
 31
0.0
 12
1839.777928149151
 22
1241.383502718824
 32
0.0
 13
1839.777928149151
 23
1241.383502718824
 33
0.0
  0
MTEXT
  5
5C5
330
5BD
100
AcDbEntity
  8
标注
 62
     0
440
 16777216
 48
0.2
370
     9
100
AcDbMText
 10
1814.377928149157
 20
1255.583502718824
 30
0.0
 40
18.4
 41
0.0
 71
     5
 72
     1
  1
2"
 73
     1
 44
1.0
  0
POINT
  5
5C6
330
5BD
100
AcDbEntity
  8
Defpoints
 62
     0
440
 16777216
 48
0.2
100
AcDbPoint
 10
1788.977928149163
 20
1215.542800243434
 30
0.0
  0
POINT
  5
5C7
330
5BD
100
AcDbEntity
  8
Defpoints
 62
     0
440
 16777216
 48
0.2
100
AcDbPoint
 10
1839.777928149151
 20
1215.542800243434
 30
0.0
  0
POINT
  5
5C8
330
5BD
100
AcDbEntity
  8
Defpoints
 62
     0
440
 16777216
 48
0.2
100
AcDbPoint
 10
1839.777928149151
 20
1241.383502718824
 30
0.0
  0
ENDBLK
  5
5BF
330
5BD
100
AcDbEntity
  8
0
100
AcDbBlockEnd
  0
BLOCK
  5
5CA
330
5C9
100
AcDbEntity
  8
0
100
AcDbBlockBegin
  2
*D48
 70
     1
 10
0.0
 20
0.0
 30
0.0
  3
*D48
  1

  0
LINE
  5
5CC
330
5C9
100
AcDbEntity
  8
标注
 62
     0
440
 16777216
 48
0.2
370
    -2
100
AcDbLine
 10
1788.977928149163
 20
1220.542800243433
 30
0.0
 11
1788.977928149163
 21
1300.709277783221
 31
0.0
  0
LINE
  5
5CD
330
5C9
100
AcDbEntity
  8
标注
 62
     0
440
 16777216
 48
0.2
370
    -2
100
AcDbLine
 10
2042.977928149163
 20
1180.142800243432
 30
0.0
 11
2042.977928149163
 21
1300.709277783221
 31
0.0
  0
LINE
  5
5CE
330
5C9
100
AcDbEntity
  8
标注
 62
     0
440
 16777216
 48
0.2
370
    -2
100
AcDbLine
 10
1808.977928149163
 20
1290.709277783221
 30
0.0
 11
2022.977928149163
 21
1290.709277783221
 31
0.0
  0
SOLID
  5
5CF
330
5C9
100
AcDbEntity
  8
标注
 62
     0
440
 16777216
 48
0.2
100
AcDbTrace
 10
1808.977928149163
 20
1294.042611116555
 30
0.0
 11
1808.977928149163
 21
1287.375944449888
 31
0.0
 12
1788.977928149163
 22
1290.709277783221
 32
0.0
 13
1788.977928149163
 23
1290.709277783221
 33
0.0
  0
SOLID
  5
5D0
330
5C9
100
AcDbEntity
  8
标注
 62
     0
440
 16777216
 48
0.2
100
AcDbTrace
 10
2022.977928149163
 20
1294.042611116555
 30
0.0
 11
2022.977928149163
 21
1287.375944449888
 31
0.0
 12
2042.977928149163
 22
1290.709277783221
 32
0.0
 13
2042.977928149163
 23
1290.709277783221
 33
0.0
  0
MTEXT
  5
5D1
330
5C9
100
AcDbEntity
  8
标注
 62
     0
440
 16777216
 48
0.2
370
     9
100
AcDbMText
 10
1915.977928149163
 20
1304.909277783221
 30
0.0
 40
18.4
 41
0.0
 71
     5
 72
     1
  1
10"
 73
     1
 44
1.0
  0
POINT
  5
5D2
330
5C9
100
AcDbEntity
  8
Defpoints
 62
     0
440
 16777216
 48
0.2
100
AcDbPoint
 10
1788.977928149163
 20
1215.542800243434
 30
0.0
  0
POINT
  5
5D3
330
5C9
100
AcDbEntity
  8
Defpoints
 62
     0
440
 16777216
 48
0.2
100
AcDbPoint
 10
2042.977928149163
 20
1175.142800243432
 30
0.0
  0
POINT
  5
5D4
330
5C9
100
AcDbEntity
  8
Defpoints
 62
     0
440
 16777216
 48
0.2
100
AcDbPoint
 10
2042.977928149163
 20
1290.709277783221
 30
0.0
  0
ENDBLK
  5
5CB
330
5C9
100
AcDbEntity
  8
0
100
AcDbBlockEnd
  0
BLOCK
  5
5D6
330
5D5
100
AcDbEntity
  8
0
100
AcDbBlockBegin
  2
*D49
 70
     1
 10
0.0
 20
0.0
 30
0.0
  3
*D49
  1

  0
LINE
  5
5D8
330
5D5
100
AcDbEntity
  8
标注
 62
     0
440
 16777216
 48
0.2
370
    -2
100
AcDbLine
 10
1788.977928149163
 20
727.9428002434351
 30
0.0
 11
1788.977928149163
 21
677.2075486344101
 31
0.0
  0
LINE
  5
5D9
330
5D5
100
AcDbEntity
  8
标注
 62
     0
440
 16777216
 48
0.2
370
    -2
100
AcDbLine
 10
2017.577928149169
 20
727.9428002434351
 30
0.0
 11
2017.577928149169
 21
677.2075486344101
 31
0.0
  0
LINE
  5
5DA
330
5D5
100
AcDbEntity
  8
标注
 62
     0
440
 16777216
 48
0.2
370
    -2
100
AcDbLine
 10
1808.977928149163
 20
687.2075486344101
 30
0.0
 11
1997.577928149168
 21
687.2075486344101
 31
0.0
  0
SOLID
  5
5DB
330
5D5
100
AcDbEntity
  8
标注
 62
     0
440
 16777216
 48
0.2
100
AcDbTrace
 10
1808.977928149163
 20
690.5408819677435
 30
0.0
 11
1808.977928149163
 21
683.8742153010768
 31
0.0
 12
1788.977928149163
 22
687.2075486344101
 32
0.0
 13
1788.977928149163
 23
687.2075486344101
 33
0.0
  0
SOLID
  5
5DC
330
5D5
100
AcDbEntity
  8
标注
 62
     0
440
 16777216
 48
0.2
100
AcDbTrace
 10
1997.577928149168
 20
690.5408819677435
 30
0.0
 11
1997.577928149168
 21
683.8742153010768
 31
0.0
 12
2017.577928149169
 22
687.2075486344101
 32
0.0
 13
2017.577928149169
 23
687.2075486344101
 33
0.0
  0
MTEXT
  5
5DD
330
5D5
100
AcDbEntity
  8
标注
 62
     0
440
 16777216
 48
0.2
370
     9
100
AcDbMText
 10
1903.277928149165
 20
701.4075486344101
 30
0.0
 40
18.4
 41
0.0
 71
     5
 72
     1
  1
9"
 73
     1
 44
1.0
  0
POINT
  5
5DE
330
5D5
100
AcDbEntity
  8
Defpoints
 62
     0
440
 16777216
 48
0.2
100
AcDbPoint
 10
1788.977928149163
 20
732.9428002434351
 30
0.0
  0
POINT
  5
5DF
330
5D5
100
AcDbEntity
  8
Defpoints
 62
     0
440
 16777216
 48
0.2
100
AcDbPoint
 10
2017.577928149169
 20
732.9428002434351
 30
0.0
  0
POINT
  5
5E0
330
5D5
100
AcDbEntity
  8
Defpoints
 62
     0
440
 16777216
 48
0.2
100
AcDbPoint
 10
2017.577928149169
 20
687.2075486344101
 30
0.0
  0
ENDBLK
  5
5D7
330
5D5
100
AcDbEntity
  8
0
100
AcDbBlockEnd
  0
BLOCK
  5
5E2
330
5E1
100
AcDbEntity
  8
0
100
AcDbBlockBegin
  2
*D50
 70
     1
 10
0.0
 20
0.0
 30
0.0
  3
*D50
  1

  0
LINE
  5
5E4
330
5E1
100
AcDbEntity
  8
标注
 62
     0
440
 16777216
 48
0.2
370
    -2
100
AcDbLine
 10
721.4438508029543
 20
575.1629014751661
 30
0.0
 11
682.0556005295202
 21
575.1629014751661
 31
0.0
  0
LINE
  5
5E5
330
5E1
100
AcDbEntity
  8
标注
 62
     0
440
 16777216
 48
0.2
370
    -2
100
AcDbLine
 10
721.4438508029543
 20
346.5629014751676
 30
0.0
 11
682.0556005295202
 21
346.5629014751676
 31
0.0
  0
LINE
  5
5E6
330
5E1
100
AcDbEntity
  8
标注
 62
     0
440
 16777216
 48
0.2
370
    -2
100
AcDbLine
 10
692.0556005295202
 20
555.1629014751661
 30
0.0
 11
692.0556005295202
 21
366.5629014751676
 31
0.0
  0
SOLID
  5
5E7
330
5E1
100
AcDbEntity
  8
标注
 62
     0
440
 16777216
 48
0.2
100
AcDbTrace
 10
688.7222671961868
 20
555.1629014751661
 30
0.0
 11
695.3889338628536
 21
555.1629014751661
 31
0.0
 12
692.0556005295202
 22
575.1629014751661
 32
0.0
 13
692.0556005295202
 23
575.1629014751661
 33
0.0
  0
SOLID
  5
5E8
330
5E1
100
AcDbEntity
  8
标注
 62
     0
440
 16777216
 48
0.2
100
AcDbTrace
 10
688.7222671961868
 20
366.5629014751676
 30
0.0
 11
695.3889338628536
 21
366.5629014751676
 31
0.0
 12
692.0556005295202
 22
346.5629014751676
 32
0.0
 13
692.0556005295202
 23
346.5629014751676
 33
0.0
  0
MTEXT
  5
5E9
330
5E1
100
AcDbEntity
  8
标注
 62
     0
440
 16777216
 48
0.2
370
     9
100
AcDbMText
 10
677.85560052952
 20
460.8629014751668
 30
0.0
 40
18.4
 41
0.0
 71
     5
 72
     1
  1
9"
 11
0.0000000000000001
 21
1.0
 31
0.0
 73
     1
 44
1.0
  0
POINT
  5
5EA
330
5E1
100
AcDbEntity
  8
Defpoints
 62
     0
440
 16777216
 48
0.2
100
AcDbPoint
 10
726.4438508029543
 20
575.1629014751661
 30
0.0
  0
POINT
  5
5EB
330
5E1
100
AcDbEntity
  8
Defpoints
 62
     0
440
 16777216
 48
0.2
100
AcDbPoint
 10
726.4438508029543
 20
346.5629014751676
 30
0.0
  0
POINT
  5
5EC
330
5E1
100
AcDbEntity
  8
Defpoints
 62
     0
440
 16777216
 48
0.2
100
AcDbPoint
 10
692.0556005295202
 20
346.5629014751676
 30
0.0
  0
ENDBLK
  5
5E3
330
5E1
100
AcDbEntity
  8
0
100
AcDbBlockEnd
  0
BLOCK
  5
5EE
330
5ED
100
AcDbEntity
  8
0
100
AcDbBlockBegin
  2
*D51
 70
     1
 10
0.0
 20
0.0
 30
0.0
  3
*D51
  1

  0
LINE
  5
5F0
330
5ED
100
AcDbEntity
  8
标注
 62
     0
440
 16777216
 48
0.2
370
    -2
100
AcDbLine
 10
721.4438508029543
 20
575.1629014751661
 30
0.0
 11
639.7426173928379
 21
575.1629014751661
 31
0.0
  0
LINE
  5
5F1
330
5ED
100
AcDbEntity
  8
标注
 62
     0
440
 16777216
 48
0.2
370
    -2
100
AcDbLine
 10
761.8438508029485
 20
321.1629014751661
 30
0.0
 11
639.7426173928379
 21
321.1629014751661
 31
0.0
  0
LINE
  5
5F2
330
5ED
100
AcDbEntity
  8
标注
 62
     0
440
 16777216
 48
0.2
370
    -2
100
AcDbLine
 10
649.7426173928379
 20
555.1629014751661
 30
0.0
 11
649.7426173928379
 21
341.1629014751661
 31
0.0
  0
SOLID
  5
5F3
330
5ED
100
AcDbEntity
  8
标注
 62
     0
440
 16777216
 48
0.2
100
AcDbTrace
 10
646.4092840595045
 20
555.1629014751661
 30
0.0
 11
653.0759507261713
 21
555.1629014751661
 31
0.0
 12
649.7426173928379
 22
575.1629014751661
 32
0.0
 13
649.7426173928379
 23
575.1629014751661
 33
0.0
  0
SOLID
  5
5F4
330
5ED
100
AcDbEntity
  8
标注
 62
     0
440
 16777216
 48
0.2
100
AcDbTrace
 10
646.4092840595045
 20
341.1629014751661
 30
0.0
 11
653.0759507261713
 21
341.1629014751661
 31
0.0
 12
649.7426173928379
 22
321.1629014751661
 32
0.0
 13
649.7426173928379
 23
321.1629014751661
 33
0.0
  0
MTEXT
  5
5F5
330
5ED
100
AcDbEntity
  8
标注
 62
     0
440
 16777216
 48
0.2
370
     9
100
AcDbMText
 10
635.5426173928377
 20
448.1629014751661
 30
0.0
 40
18.4
 41
0.0
 71
     5
 72
     1
  1
10"
 11
0.0000000000000001
 21
1.0
 31
0.0
 73
     1
 44
1.0
  0
POINT
  5
5F6
330
5ED
100
AcDbEntity
  8
Defpoints
 62
     0
440
 16777216
 48
0.2
100
AcDbPoint
 10
726.4438508029543
 20
575.1629014751661
 30
0.0
  0
POINT
  5
5F7
330
5ED
100
AcDbEntity
  8
Defpoints
 62
     0
440
 16777216
 48
0.2
100
AcDbPoint
 10
766.8438508029485
 20
321.1629014751661
 30
0.0
  0
POINT
  5
5F8
330
5ED
100
AcDbEntity
  8
Defpoints
 62
     0
440
 16777216
 48
0.2
100
AcDbPoint
 10
649.7426173928379
 20
321.1629014751661
 30
0.0
  0
ENDBLK
  5
5EF
330
5ED
100
AcDbEntity
  8
0
100
AcDbBlockEnd
  0
BLOCK
  5
5FA
330
5F9
100
AcDbEntity
  8
0
100
AcDbBlockBegin
  2
*D52
 70
     1
 10
0.0
 20
0.0
 30
0.0
  3
*D52
  1

  0
LINE
  5
5FC
330
5F9
100
AcDbEntity
  8
标注
 62
     0
440
 16777216
 48
0.2
370
    -2
100
AcDbLine
 10
1645.843850802963
 20
732.9428002434351
 30
0.0
 11
1710.701246053182
 21
732.9428002434351
 31
0.0
  0
LINE
  5
5FD
330
5F9
100
AcDbEntity
  8
标注
 62
     0
440
 16777216
 48
0.2
370
    -2
100
AcDbLine
 10
1645.843850802963
 20
834.542800243441
 30
0.0
 11
1710.701246053182
 21
834.542800243441
 31
0.0
  0
LINE
  5
5FE
330
5F9
100
AcDbEntity
  8
标注
 62
     0
440
 16777216
 48
0.2
370
    -2
100
AcDbLine
 10
1700.701246053182
 20
752.9428002434351
 30
0.0
 11
1700.701246053182
 21
814.542800243441
 31
0.0
  0
SOLID
  5
5FF
330
5F9
100
AcDbEntity
  8
标注
 62
     0
440
 16777216
 48
0.2
100
AcDbTrace
 10
1697.367912719849
 20
752.9428002434351
 30
0.0
 11
1704.034579386515
 21
752.9428002434351
 31
0.0
 12
1700.701246053182
 22
732.9428002434351
 32
0.0
 13
1700.701246053182
 23
732.9428002434351
 33
0.0
  0
SOLID
  5
600
330
5F9
100
AcDbEntity
  8
标注
 62
     0
440
 16777216
 48
0.2
100
AcDbTrace
 10
1697.367912719849
 20
814.542800243441
 30
0.0
 11
1704.034579386515
 21
814.542800243441
 31
0.0
 12
1700.701246053182
 22
834.542800243441
 32
0.0
 13
1700.701246053182
 23
834.542800243441
 33
0.0
  0
MTEXT
  5
601
330
5F9
100
AcDbEntity
  8
标注
 62
     0
440
 16777216
 48
0.2
370
     9
100
AcDbMText
 10
1686.501246053182
 20
783.7428002434383
 30
0.0
 40
18.4
 41
0.0
 71
     5
 72
     1
  1
4"
 11
0.0000000000000001
 21
1.0
 31
0.0
 73
     1
 44
1.0
  0
POINT
  5
602
330
5F9
100
AcDbEntity
  8
Defpoints
 62
     0
440
 16777216
 48
0.2
100
AcDbPoint
 10
1640.843850802963
 20
732.9428002434351
 30
0.0
  0
POINT
  5
603
330
5F9
100
AcDbEntity
  8
Defpoints
 62
     0
440
 16777216
 48
0.2
100
AcDbPoint
 10
1640.843850802963
 20
834.542800243441
 30
0.0
  0
POINT
  5
604
330
5F9
100
AcDbEntity
  8
Defpoints
 62
     0
440
 16777216
 48
0.2
100
AcDbPoint
 10
1700.701246053182
 20
834.542800243441
 30
0.0
  0
ENDBLK
  5
5FB
330
5F9
100
AcDbEntity
  8
0
100
AcDbBlockEnd
  0
BLOCK
  5
606
330
605
100
AcDbEntity
  8
0
100
AcDbBlockBegin
  2
*D53
 70
     1
 10
0.0
 20
0.0
 30
0.0
  3
*D53
  1

  0
LINE
  5
608
330
605
100
AcDbEntity
  8
标注
 62
     0
440
 16777216
 48
0.2
370
    -2
100
AcDbLine
 10
956.3938508029659
 20
550.1629014751661
 30
0.0
 11
881.7943518216326
 21
550.1629014751661
 31
0.0
  0
LINE
  5
609
330
605
100
AcDbEntity
  8
标注
 62
     0
440
 16777216
 48
0.2
370
    -2
100
AcDbLine
 10
956.3938508029659
 20
575.1629014751661
 30
0.0
 11
881.7943518216326
 21
575.1629014751661
 31
0.0
  0
LINE
  5
60A
330
605
100
AcDbEntity
  8
标注
 62
     0
440
 16777216
 48
0.2
370
    -2
100
AcDbLine
 10
891.7943518216326
 20
595.162901475166
 30
0.0
 11
891.7943518216326
 21
615.1629014751661
 31
0.0
  0
LINE
  5
60B
330
605
100
AcDbEntity
  8
标注
 62
     0
440
 16777216
 48
0.2
370
    -2
100
AcDbLine
 10
891.7943518216326
 20
530.1629014751661
 30
0.0
 11
891.7943518216326
 21
478.1847157874888
 31
0.0
  0
LINE
  5
60C
330
605
100
AcDbEntity
  8
标注
 62
     0
440
 16777216
 48
0.2
370
    -2
100
AcDbLine
 10
891.7943518216326
 20
575.1629014751661
 30
0.0
 11
891.7943518216326
 21
550.1629014751661
 31
0.0
  0
SOLID
  5
60D
330
605
100
AcDbEntity
  8
标注
 62
     0
440
 16777216
 48
0.2
100
AcDbTrace
 10
888.4610184882992
 20
595.162901475166
 30
0.0
 11
895.1276851549661
 21
595.162901475166
 31
0.0
 12
891.7943518216326
 22
575.1629014751661
 32
0.0
 13
891.7943518216326
 23
575.1629014751661
 33
0.0
  0
SOLID
  5
60E
330
605
100
AcDbEntity
  8
标注
 62
     0
440
 16777216
 48
0.2
100
AcDbTrace
 10
888.4610184882992
 20
530.1629014751661
 30
0.0
 11
895.1276851549661
 21
530.1629014751661
 31
0.0
 12
891.7943518216326
 22
550.1629014751661
 32
0.0
 13
891.7943518216326
 23
550.1629014751661
 33
0.0
  0
MTEXT
  5
60F
330
605
100
AcDbEntity
  8
标注
 62
     0
440
 16777216
 48
0.2
370
     9
100
AcDbMText
 10
877.5943518216324
 20
493.7724252846956
 30
0.0
 40
18.4
 41
0.0
 71
     5
 72
     1
  1
1"
 11
0.0000000000000001
 21
1.0
 31
0.0
 73
     1
 44
1.0
  0
POINT
  5
610
330
605
100
AcDbEntity
  8
Defpoints
 62
     0
440
 16777216
 48
0.2
100
AcDbPoint
 10
961.393850802966
 20
550.1629014751661
 30
0.0
  0
POINT
  5
611
330
605
100
AcDbEntity
  8
Defpoints
 62
     0
440
 16777216
 48
0.2
100
AcDbPoint
 10
961.393850802966
 20
575.1629014751661
 30
0.0
  0
POINT
  5
612
330
605
100
AcDbEntity
  8
Defpoints
 62
     0
440
 16777216
 48
0.2
100
AcDbPoint
 10
891.7943518216326
 20
575.1629014751661
 30
0.0
  0
ENDBLK
  5
607
330
605
100
AcDbEntity
  8
0
100
AcDbBlockEnd
  0
BLOCK
  5
614
330
613
100
AcDbEntity
  8
0
100
AcDbBlockBegin
  2
*D54
 70
     1
 10
0.0
 20
0.0
 30
0.0
  3
*D54
  1

  0
LINE
  5
616
330
613
100
AcDbEntity
  8
标注
 62
     0
440
 16777216
 48
0.2
370
    -2
100
AcDbLine
 10
2022.577928149169
 20
834.542800243441
 30
0.0
 11
2110.183353345228
 21
834.542800243441
 31
0.0
  0
LINE
  5
617
330
613
100
AcDbEntity
  8
标注
 62
     0
440
 16777216
 48
0.2
370
    -2
100
AcDbLine
 10
2022.577928149169
 20
732.9428002434424
 30
0.0
 11
2110.183353345228
 21
732.9428002434424
 31
0.0
  0
LINE
  5
618
330
613
100
AcDbEntity
  8
标注
 62
     0
440
 16777216
 48
0.2
370
    -2
100
AcDbLine
 10
2100.183353345228
 20
814.542800243441
 30
0.0
 11
2100.183353345228
 21
752.9428002434424
 31
0.0
  0
SOLID
  5
619
330
613
100
AcDbEntity
  8
标注
 62
     0
440
 16777216
 48
0.2
100
AcDbTrace
 10
2096.850020011895
 20
814.542800243441
 30
0.0
 11
2103.516686678561
 21
814.542800243441
 31
0.0
 12
2100.183353345228
 22
834.542800243441
 32
0.0
 13
2100.183353345228
 23
834.542800243441
 33
0.0
  0
SOLID
  5
61A
330
613
100
AcDbEntity
  8
标注
 62
     0
440
 16777216
 48
0.2
100
AcDbTrace
 10
2096.850020011895
 20
752.9428002434424
 30
0.0
 11
2103.516686678561
 21
752.9428002434424
 31
0.0
 12
2100.183353345228
 22
732.9428002434424
 32
0.0
 13
2100.183353345228
 23
732.9428002434424
 33
0.0
  0
MTEXT
  5
61B
330
613
100
AcDbEntity
  8
标注
 62
     0
440
 16777216
 48
0.2
370
     9
100
AcDbMText
 10
2085.983353345229
 20
783.742800243442
 30
0.0
 40
18.4
 41
0.0
 71
     5
 72
     1
  1
4"
 11
0.0000000000000001
 21
1.0
 31
0.0
 73
     1
 44
1.0
  0
POINT
  5
61C
330
613
100
AcDbEntity
  8
Defpoints
 62
     0
440
 16777216
 48
0.2
100
AcDbPoint
 10
2017.577928149169
 20
834.542800243441
 30
0.0
  0
POINT
  5
61D
330
613
100
AcDbEntity
  8
Defpoints
 62
     0
440
 16777216
 48
0.2
100
AcDbPoint
 10
2017.577928149169
 20
732.9428002434424
 30
0.0
  0
POINT
  5
61E
330
613
100
AcDbEntity
  8
Defpoints
 62
     0
440
 16777216
 48
0.2
100
AcDbPoint
 10
2100.183353345228
 20
732.9428002434424
 30
0.0
  0
ENDBLK
  5
615
330
613
100
AcDbEntity
  8
0
100
AcDbBlockEnd
  0
BLOCK
  5
620
330
61F
100
AcDbEntity
  8
0
100
AcDbBlockBegin
  2
*D55
 70
     1
 10
0.0
 20
0.0
 30
0.0
  3
*D55
  1

  0
LINE
  5
65B
330
61F
100
AcDbEntity
  8
标注
 62
     0
440
 16777216
370
    -2
100
AcDbLine
 10
847.9715967638867
 20
827.2953791177368
 30
0.0
 11
792.3125351959229
 21
807.7063997042829
 31
0.0
  0
MTEXT
  5
65C
330
61F
100
AcDbEntity
  8
标注
 62
     0
440
 16777216
370
     9
100
AcDbMText
 10
821.0875842767118
 20
832.8874418237633
 30
0.0
 40
18.4
 41
0.0
 71
     5
 72
     1
  1
R15
 11
0.9432846071450029
 21
0.3319851652157028
 31
0.0
 73
     1
 44
1.0
  0
LINE
  5
65D
330
61F
100
AcDbEntity
  8
标注
 62
     0
440
 16777216
370
    -2
100
AcDbLine
 10
766.8438508029486
 20
798.7428002434381
 30
0.0
 11
780.9931199101829
 21
803.7225777216944
 31
0.0
  0
SOLID
  5
65E
330
61F
100
AcDbEntity
  8
标注
 62
     0
440
 16777216
100
AcDbTrace
 10
791.6485648654915
 20
809.592968918573
 30
0.0
 11
792.9765055263543
 21
805.8198304899928
 31
0.0
 12
780.9931199101829
 22
803.7225777216944
 32
0.0
 13
780.9931199101829
 23
803.7225777216944
 33
0.0
  0
ARC
  5
65F
330
61F
100
AcDbEntity
  8
标注
 62
     0
440
 16777216
370
    -2
100
AcDbCircle
 10
766.8438508029486
 20
798.7428002434381
 30
0.0
 40
15.00000000006287
100
AcDbArc
 50
289.0985931709474
 51
57.58649765007937
  0
POINT
  5
660
330
61F
100
AcDbEntity
  8
Defpoints
 62
     0
440
 16777216
100
AcDbPoint
 10
780.9931199101829
 20
803.7225777216944
 30
0.0
  0
POINT
  5
661
330
61F
100
AcDbEntity
  8
Defpoints
 62
     0
440
 16777216
100
AcDbPoint
 10
766.8438508029486
 20
798.7428002434381
 30
0.0
  0
ENDBLK
  5
621
330
61F
100
AcDbEntity
  8
0
100
AcDbBlockEnd
  0
BLOCK
  5
738
330
737
100
AcDbEntity
  8
0
100
AcDbBlockBegin
  2
*D56
 70
     1
 10
0.0
 20
0.0
 30
0.0
  3
*D56
  1

  0
LINE
  5
739
330
737
100
AcDbEntity
  8
标注
 62
     0
440
 16777216
370
    -2
100
AcDbLine
 10
110636.1852976338
 20
41856.94903310903
 30
0.0
 11
110545.6746549848
 21
41856.94903310903
 31
0.0
  0
LINE
  5
73A
330
737
100
AcDbEntity
  8
标注
 62
     0
440
 16777216
370
    -2
100
AcDbLine
 10
110636.1852976338
 20
41399.74903310902
 30
0.0
 11
110545.6746549848
 21
41399.74903310902
 31
0.0
  0
LINE
  5
73B
330
737
100
AcDbEntity
  8
标注
 62
     0
440
 16777216
370
    -2
100
AcDbLine
 10
110555.6746549848
 20
41844.94903310903
 30
0.0
 11
110555.6746549848
 21
41411.74903310902
 31
0.0
  0
SOLID
  5
73C
330
737
100
AcDbEntity
  8
标注
 62
     0
440
 16777216
100
AcDbTrace
 10
110553.6746549848
 20
41844.94903310903
 30
0.0
 11
110557.6746549848
 21
41844.94903310903
 31
0.0
 12
110555.6746549848
 22
41856.94903310903
 32
0.0
 13
110555.6746549848
 23
41856.94903310903
 33
0.0
  0
SOLID
  5
73D
330
737
100
AcDbEntity
  8
标注
 62
     0
440
 16777216
100
AcDbTrace
 10
110553.6746549848
 20
41411.74903310902
 30
0.0
 11
110557.6746549848
 21
41411.74903310902
 31
0.0
 12
110555.6746549848
 22
41399.74903310902
 32
0.0
 13
110555.6746549848
 23
41399.74903310902
 33
0.0
  0
MTEXT
  5
73E
330
737
100
AcDbEntity
  8
标注
 62
     0
440
 16777216
370
     9
100
AcDbMText
 10
110541.4746549848
 20
41628.34903310903
 30
0.0
 40
18.4
 41
0.0
 71
     5
 72
     1
  1
457.2
 11
0.0000000000000001
 21
1.0
 31
0.0
 73
     1
 44
1.0
  0
POINT
  5
73F
330
737
100
AcDbEntity
  8
Defpoints
 62
     0
440
 16777216
100
AcDbPoint
 10
110641.1852976338
 20
41856.94903310903
 30
0.0
  0
POINT
  5
740
330
737
100
AcDbEntity
  8
Defpoints
 62
     0
440
 16777216
100
AcDbPoint
 10
110641.1852976338
 20
41399.74903310902
 30
0.0
  0
POINT
  5
741
330
737
100
AcDbEntity
  8
Defpoints
 62
     0
440
 16777216
100
AcDbPoint
 10
110555.6746549848
 20
41399.74903310902
 30
0.0
  0
ENDBLK
  5
742
330
737
100
AcDbEntity
  8
0
100
AcDbBlockEnd
  0
BLOCK
  5
744
330
743
100
AcDbEntity
  8
0
100
AcDbBlockBegin
  2
*D57
 70
     1
 10
0.0
 20
0.0
 30
0.0
  3
*D57
  1

  0
LINE
  5
745
330
743
100
AcDbEntity
  8
标注
 62
     0
440
 16777216
370
    -2
100
AcDbLine
 10
110626.1852976338
 20
41394.74903310902
 30
0.0
 11
110626.1852976338
 21
41332.22519710169
 31
0.0
  0
LINE
  5
746
330
743
100
AcDbEntity
  8
标注
 62
     0
440
 16777216
370
    -2
100
AcDbLine
 10
111489.7852976338
 20
41394.74903310902
 30
0.0
 11
111489.7852976338
 21
41332.22519710169
 31
0.0
  0
LINE
  5
747
330
743
100
AcDbEntity
  8
标注
 62
     0
440
 16777216
370
    -2
100
AcDbLine
 10
110638.1852976338
 20
41342.22519710169
 30
0.0
 11
111477.7852976338
 21
41342.22519710169
 31
0.0
  0
SOLID
  5
748
330
743
100
AcDbEntity
  8
标注
 62
     0
440
 16777216
100
AcDbTrace
 10
110638.1852976338
 20
41344.22519710169
 30
0.0
 11
110638.1852976338
 21
41340.22519710169
 31
0.0
 12
110626.1852976338
 22
41342.22519710169
 32
0.0
 13
110626.1852976338
 23
41342.22519710169
 33
0.0
  0
SOLID
  5
749
330
743
100
AcDbEntity
  8
标注
 62
     0
440
 16777216
100
AcDbTrace
 10
111477.7852976338
 20
41344.22519710169
 30
0.0
 11
111477.7852976338
 21
41340.22519710169
 31
0.0
 12
111489.7852976338
 22
41342.22519710169
 32
0.0
 13
111489.7852976338
 23
41342.22519710169
 33
0.0
  0
MTEXT
  5
74A
330
743
100
AcDbEntity
  8
标注
 62
     0
440
 16777216
370
     9
100
AcDbMText
 10
111057.9852976338
 20
41356.42519710169
 30
0.0
 40
18.4
 41
0.0
 71
     5
 72
     1
  1
863.6
 73
     1
 44
1.0
  0
POINT
  5
74B
330
743
100
AcDbEntity
  8
Defpoints
 62
     0
440
 16777216
100
AcDbPoint
 10
110626.1852976338
 20
41399.74903310902
 30
0.0
  0
POINT
  5
74C
330
743
100
AcDbEntity
  8
Defpoints
 62
     0
440
 16777216
100
AcDbPoint
 10
111489.7852976338
 20
41399.74903310902
 30
0.0
  0
POINT
  5
74D
330
743
100
AcDbEntity
  8
Defpoints
 62
     0
440
 16777216
100
AcDbPoint
 10
111489.7852976338
 20
41342.22519710169
 30
0.0
  0
ENDBLK
  5
74E
330
743
100
AcDbEntity
  8
0
100
AcDbBlockEnd
  0
BLOCK
  5
750
330
74F
100
AcDbEntity
  8
0
100
AcDbBlockBegin
  2
*D58
 70
     1
 10
0.0
 20
0.0
 30
0.0
  3
*D58
  1

  0
LINE
  5
751
330
74F
100
AcDbEntity
  8
标注
 62
     0
440
 16777216
370
    -2
100
AcDbLine
 10
110709.5546022129
 20
41778.51158909937
 30
0.0
 11
110638.9861420183
 21
41843.98955132233
 31
0.0
  0
MTEXT
  5
752
330
74F
100
AcDbEntity
  8
标注
 62
     0
440
 16777216
370
     9
100
AcDbMText
 10
110698.2058828766
 20
41808.4127329932
 30
0.0
 40
18.4
 41
0.0
 71
     5
 72
     1
  1
R15
 11
0.7330518718277661
 21
-0.6801727377731398
 31
0.0
 73
     1
 44
1.0
  0
SOLID
  5
753
330
74F
100
AcDbEntity
  8
标注
 62
     0
440
 16777216
100
AcDbTrace
 10
110640.3464874938
 20
41845.45565506599
 30
0.0
 11
110637.6257965427
 21
41842.52344757867
 31
0.0
 12
110630.1895195563
 22
41852.15162417561
 32
0.0
 13
110630.1895195563
 23
41852.15162417561
 33
0.0
  0
POINT
  5
754
330
74F
100
AcDbEntity
  8
Defpoints
 62
     0
440
 16777216
100
AcDbPoint
 10
110630.1895195563
 20
41852.15162417561
 30
0.0
  0
POINT
  5
755
330
74F
100
AcDbEntity
  8
Defpoints
 62
     0
440
 16777216
100
AcDbPoint
 10
110641.1852976338
 20
41841.94903310896
 30
0.0
  0
ENDBLK
  5
756
330
74F
100
AcDbEntity
  8
0
100
AcDbBlockEnd
  0
BLOCK
  5
7D0
330
7CF
100
AcDbEntity
  8
0
100
AcDbBlockBegin
  2
*D60
 70
     1
 10
0.0
 20
0.0
 30
0.0
  3
*D60
  1

  0
LINE
  5
7D2
330
7CF
100
AcDbEntity
  8
标注
 62
     0
440
 16777216
370
    -2
100
AcDbLine
 10
627.4072826972187
 20
911.7117888902784
 30
0.0
 11
536.8966400481659
 21
911.7117888902784
 31
0.0
  0
LINE
  5
7D3
330
7CF
100
AcDbEntity
  8
标注
 62
     0
440
 16777216
370
    -2
100
AcDbLine
 10
627.4072826972187
 20
454.5117888902741
 30
0.0
 11
536.8966400481658
 21
454.5117888902741
 31
0.0
  0
LINE
  5
7D4
330
7CF
100
AcDbEntity
  8
标注
 62
     0
440
 16777216
370
    -2
100
AcDbLine
 10
546.896640048166
 20
899.7117888902785
 30
0.0
 11
546.8966400481658
 21
466.5117888902741
 31
0.0
  0
SOLID
  5
7D5
330
7CF
100
AcDbEntity
  8
标注
 62
     0
440
 16777216
100
AcDbTrace
 10
544.8966400481659
 20
899.7117888902785
 30
0.0
 11
548.8966400481659
 21
899.7117888902785
 31
0.0
 12
546.896640048166
 22
911.7117888902784
 32
0.0
 13
546.896640048166
 23
911.7117888902784
 33
0.0
  0
SOLID
  5
7D6
330
7CF
100
AcDbEntity
  8
标注
 62
     0
440
 16777216
100
AcDbTrace
 10
544.8966400481658
 20
466.5117888902741
 30
0.0
 11
548.8966400481658
 21
466.5117888902741
 31
0.0
 12
546.8966400481658
 22
454.5117888902741
 32
0.0
 13
546.8966400481658
 23
454.5117888902741
 33
0.0
  0
MTEXT
  5
7D7
330
7CF
100
AcDbEntity
  8
标注
 62
     0
440
 16777216
370
     9
100
AcDbMText
 10
532.6966400481657
 20
683.1117888902764
 30
0.0
 40
18.4
 41
0.0
 71
     5
 72
     1
  1
457.2
 11
0.0000000000000001
 21
1.0
 31
0.0
 73
     1
 44
1.0
  0
POINT
  5
7D8
330
7CF
100
AcDbEntity
  8
Defpoints
 62
     0
440
 16777216
100
AcDbPoint
 10
632.4072826972187
 20
911.7117888902784
 30
0.0
  0
POINT
  5
7D9
330
7CF
100
AcDbEntity
  8
Defpoints
 62
     0
440
 16777216
100
AcDbPoint
 10
632.4072826972187
 20
454.5117888902741
 30
0.0
  0
POINT
  5
7DA
330
7CF
100
AcDbEntity
  8
Defpoints
 62
     0
440
 16777216
100
AcDbPoint
 10
546.8966400481658
 20
454.5117888902741
 30
0.0
  0
ENDBLK
  5
7D1
330
7CF
100
AcDbEntity
  8
0
100
AcDbBlockEnd
  0
BLOCK
  5
7DC
330
7DB
100
AcDbEntity
  8
0
100
AcDbBlockBegin
  2
*D61
 70
     1
 10
0.0
 20
0.0
 30
0.0
  3
*D61
  1

  0
LINE
  5
7DE
330
7DB
100
AcDbEntity
  8
标注
 62
     0
440
 16777216
370
    -2
100
AcDbLine
 10
617.4072826972333
 20
449.5117888902741
 30
0.0
 11
617.4072826972333
 21
386.987952882947
 31
0.0
  0
LINE
  5
7DF
330
7DB
100
AcDbEntity
  8
标注
 62
     0
440
 16777216
370
    -2
100
AcDbLine
 10
1481.007282697224
 20
449.5117888902741
 30
0.0
 11
1481.007282697224
 21
386.987952882947
 31
0.0
  0
LINE
  5
7E0
330
7DB
100
AcDbEntity
  8
标注
 62
     0
440
 16777216
370
    -2
100
AcDbLine
 10
629.4072826972333
 20
396.987952882947
 30
0.0
 11
1469.007282697224
 21
396.987952882947
 31
0.0
  0
SOLID
  5
7E1
330
7DB
100
AcDbEntity
  8
标注
 62
     0
440
 16777216
100
AcDbTrace
 10
629.4072826972333
 20
398.987952882947
 30
0.0
 11
629.4072826972333
 21
394.987952882947
 31
0.0
 12
617.4072826972333
 22
396.987952882947
 32
0.0
 13
617.4072826972333
 23
396.987952882947
 33
0.0
  0
SOLID
  5
7E2
330
7DB
100
AcDbEntity
  8
标注
 62
     0
440
 16777216
100
AcDbTrace
 10
1469.007282697224
 20
398.987952882947
 30
0.0
 11
1469.007282697224
 21
394.987952882947
 31
0.0
 12
1481.007282697224
 22
396.987952882947
 32
0.0
 13
1481.007282697224
 23
396.987952882947
 33
0.0
  0
MTEXT
  5
7E3
330
7DB
100
AcDbEntity
  8
标注
 62
     0
440
 16777216
370
     9
100
AcDbMText
 10
1049.207282697229
 20
411.1879528829469
 30
0.0
 40
18.4
 41
0.0
 71
     5
 72
     1
  1
863.6
 73
     1
 44
1.0
  0
POINT
  5
7E4
330
7DB
100
AcDbEntity
  8
Defpoints
 62
     0
440
 16777216
100
AcDbPoint
 10
617.4072826972333
 20
454.5117888902741
 30
0.0
  0
POINT
  5
7E5
330
7DB
100
AcDbEntity
  8
Defpoints
 62
     0
440
 16777216
100
AcDbPoint
 10
1481.007282697224
 20
454.5117888902741
 30
0.0
  0
POINT
  5
7E6
330
7DB
100
AcDbEntity
  8
Defpoints
 62
     0
440
 16777216
100
AcDbPoint
 10
1481.007282697224
 20
396.987952882947
 30
0.0
  0
ENDBLK
  5
7DD
330
7DB
100
AcDbEntity
  8
0
100
AcDbBlockEnd
  0
BLOCK
  5
7E8
330
7E7
100
AcDbEntity
  8
0
100
AcDbBlockBegin
  2
*D62
 70
     1
 10
0.0
 20
0.0
 30
0.0
  3
*D62
  1

  0
LINE
  5
7EF
330
7E7
100
AcDbEntity
  8
标注
 62
     0
440
 16777216
370
    -2
100
AcDbLine
 10
696.9981816825867
 20
836.7801929331189
 30
0.0
 11
630.208127081674
 21
898.7523071036507
 31
0.0
  0
MTEXT
  5
7F0
330
7E7
100
AcDbEntity
  8
标注
 62
     0
440
 16777216
370
     9
100
AcDbMText
 10
689.4278679400604
 20
863.1754887745833
 30
0.0
 40
18.4
 41
0.0
 71
     5
 72
     1
  1
R15
 11
0.7330518718284223
 21
-0.6801727377724328
 31
0.0
 73
     1
 44
1.0
  0
SOLID
  5
7F1
330
7E7
100
AcDbEntity
  8
标注
 62
     0
440
 16777216
100
AcDbTrace
 10
631.5684725572189
 20
900.2184108473075
 30
0.0
 11
628.8477816061291
 21
897.2862033599939
 31
0.0
 12
621.411504619733
 22
906.9143799569198
 32
0.0
 13
621.411504619733
 23
906.9143799569198
 33
0.0
  0
POINT
  5
7F2
330
7E7
100
AcDbEntity
  8
Defpoints
 62
     0
440
 16777216
100
AcDbPoint
 10
621.411504619733
 20
906.9143799569198
 30
0.0
  0
POINT
  5
7F3
330
7E7
100
AcDbEntity
  8
Defpoints
 62
     0
440
 16777216
100
AcDbPoint
 10
632.4072826972186
 20
896.7117888902784
 30
0.0
  0
ENDBLK
  5
7E9
330
7E7
100
AcDbEntity
  8
0
100
AcDbBlockEnd
  0
ENDSEC
  0
SECTION
  2
ENTITIES
  0
LINE
  5
79B
330
1F
100
AcDbEntity
  8
外框线1
 62
     0
 48
0.2
370
     9
100
AcDbLine
 10
1021.507282697239
 20
911.7117888902784
 30
0.0
 11
632.4072826972187
 21
911.7117888902784
 31
0.0
  0
LINE
  5
79D
330
1F
100
AcDbEntity
  8
外框线1
 62
     0
 48
0.2
370
     9
100
AcDbLine
 10
617.4072826972187
 20
896.7117888902786
 30
0.0
 11
617.4072826972187
 21
520.311788890277
 31
0.0
  0
ARC
  5
79F
330
1F
100
AcDbEntity
  8
外框线1
 62
     0
 48
0.2
370
     9
100
AcDbCircle
 10
632.4072826972187
 20
896.7117888902786
 30
0.0
 40
15.0
100
AcDbArc
 50
90.0
 51
180.0
  0
LINE
  5
7A0
330
1F
100
AcDbEntity
  8
外框线1
 62
     0
 48
0.2
370
     9
100
AcDbLine
 10
1481.007282697224
 20
896.7117888902713
 30
0.0
 11
1481.007282697224
 21
520.311788890277
 31
0.0
  0
LINE
  5
7A6
330
1F
100
AcDbEntity
  8
外框线1
 62
     0
 48
0.2
370
     9
100
AcDbLine
 10
1466.007282697225
 20
911.7117888902711
 30
0.0
 11
1076.907282697248
 21
911.7117888902711
 31
0.0
  0
ARC
  5
7A7
330
1F
100
AcDbEntity
  8
外框线1
 62
     0
 48
0.2
370
     9
100
AcDbCircle
 10
1466.007282697225
 20
896.7117888902713
 30
0.0
 40
15.0
100
AcDbArc
 50
0.0
 51
90.0
  0
LINE
  5
7BD
330
1F
100
AcDbEntity
  8
外框线2
100
AcDbLine
 10
632.4072826972187
 20
911.7117888902784
 30
0.0
 11
1466.007282697225
 21
911.7117888902711
 31
0.0
  0
LINE
  5
7BE
330
1F
100
AcDbEntity
  8
外框线2
100
AcDbLine
 10
1481.007282697224
 20
896.7117888902713
 30
0.0
 11
1481.007282697224
 21
454.5117888902741
 31
0.0
  0
ARC
  5
7BF
330
1F
100
AcDbEntity
  8
外框线2
100
AcDbCircle
 10
1466.007282697225
 20
896.7117888902713
 30
0.0
 40
15.0
100
AcDbArc
 50
0.0
 51
90.0
  0
LINE
  5
7C0
102
{ACAD_REACTORS
330
7CA
102
}
330
1F
100
AcDbEntity
  8
外框线2
100
AcDbLine
 10
1481.007282697224
 20
454.5117888902741
 30
0.0
 11
617.4072826972333
 21
454.5117888902304
 31
0.0
  0
LINE
  5
7C1
330
1F
100
AcDbEntity
  8
外框线2
100
AcDbLine
 10
617.4072826972333
 20
454.5117888902304
 30
0.0
 11
617.4072826972187
 21
896.7117888902786
 31
0.0
  0
ARC
  5
7C2
102
{ACAD_REACTORS
330
7CD
330
7C7
102
}
330
1F
100
AcDbEntity
  8
外框线2
100
AcDbCircle
 10
632.4072826972187
 20
896.7117888902786
 30
0.0
 40
15.0
100
AcDbArc
 50
90.0
 51
180.0
  0
DIMENSION
  5
7C5
102
{ACAD_XDICTIONARY
360
7C6
102
}
102
{ACAD_REACTORS
330
7C7
102
}
330
1F
100
AcDbEntity
  8
标注
 62
     1
370
     9
100
AcDbDimension
  2
*D60
 10
546.8966400481658
 20
454.5117888902741
 30
0.0
 11
532.6966400481657
 21
683.1117888902764
 31
0.0
 70
    32
 71
     5
 42
457.2000000000043
  3
1-8-L
100
AcDbAlignedDimension
 13
632.4072826972187
 23
911.7117888902784
 33
0.0
 14
632.4072826972187
 24
454.5117888902741
 34
0.0
 50
90.0
100
AcDbRotatedDimension
  0
DIMENSION
  5
7C8
102
{ACAD_XDICTIONARY
360
7C9
102
}
102
{ACAD_REACTORS
330
7CA
102
}
330
1F
100
AcDbEntity
  8
标注
 62
     1
370
     9
100
AcDbDimension
  2
*D61
 10
1481.007282697224
 20
396.987952882947
 30
0.0
 11
1049.207282697229
 21
411.1879528829469
 31
0.0
 70
    32
 71
     5
 42
863.5999999999912
  3
1-8-L
100
AcDbAlignedDimension
 13
617.4072826972333
 23
454.5117888902741
 33
0.0
 14
1481.007282697224
 24
454.5117888902741
 34
0.0
100
AcDbRotatedDimension
  0
DIMENSION
  5
7CB
102
{ACAD_XDICTIONARY
360
7CC
102
}
102
{ACAD_REACTORS
330
7CD
102
}
330
1F
100
AcDbEntity
  8
标注
 62
     1
370
     9
100
AcDbDimension
  2
*D62
 10
632.4072826972186
 20
896.7117888902784
 30
0.0
 11
679.7694150636918
 21
852.7661521946196
 31
0.0
 70
   164
 71
     5
 42
15.00000000008094
  3
1-8-L
100
AcDbRadialDimension
 15
621.411504619733
 25
906.9143799569198
 35
0.0
 40
0.0
1001
ACAD_DSTYLE_DIMRADIAL_EXTENSION
1070
   387
1070
     1
1070
   388
1040
1.570796326794896
1070
   390
1040
3.141592653589793
  0
MTEXT
  5
7CE
330
1F
100
AcDbEntity
  8
注释
100
AcDbMText
 10
584.2111390904265
 20
1282.416982262945
 30
0.0
 40
80.0
 41
1515.500768140482
 71
     1
 72
     5
  1
{\fNSimSun|b1|i0|c134|p49;\C0;203625 TEMPLATE}
  7
样式 1
 73
     1
 44
1.0
1001
ACAD
1000
ACAD_MTEXT_COLUMN_INFO_BEGIN
1070
    75
1070
     2
1070
    79
1070
     0
1070
    76
1070
     1
1070
    78
1070
     0
1070
    48
1040
1515.500768140482
1070
    49
1040
15.0
1070
    50
1070
     1
1040
0.0
1000
ACAD_MTEXT_COLUMN_INFO_END
  0
ENDSEC
  0
SECTION
  2
OBJECTS
  0
DICTIONARY
  5
C
330
0
100
AcDbDictionary
281
     1
  3
ACAD_CIP_PREVIOUS_PRODUCT_INFO
350
216
  3
ACAD_COLOR
350
6B
  3
ACAD_GROUP
350
D
  3
ACAD_LAYOUT
350
1A
  3
ACAD_MATERIAL
350
6A
  3
ACAD_MLEADERSTYLE
350
12D
  3
ACAD_MLINESTYLE
350
17
  3
ACAD_PLOTSETTINGS
350
19
  3
ACAD_PLOTSTYLENAME
350
E
  3
ACAD_SCALELIST
350
10C
  3
ACAD_TABLESTYLE
350
7E
  3
ACAD_VISUALSTYLE
350
EF
  3
ACDB_RECOMPOSE_DATA
350
864
  3
AcDbVariableDictionary
350
5E
  0
DICTIONARY
  5
1FF
330
2
100
AcDbDictionary
280
     1
281
     1
  3
ACAD_LAYERSTATES
360
200
  0
DICTIONARY
  5
13C
330
10
100
AcDbDictionary
280
     1
281
     1
  0
DICTIONARY
  5
1CE
330
1F
100
AcDbDictionary
280
     1
281
     1
  0
DICTIONARY
  5
899
330
278
100
AcDbDictionary
280
     1
281
     1
  3
ACAD_MTEXT_2008_RT
360
89A
  0
DICTIONARY
  5
89B
330
283
100
AcDbDictionary
280
     1
281
     1
  3
ACAD_MTEXT_2008_RT
360
89C
  0
DICTIONARY
  5
89D
330
29A
100
AcDbDictionary
280
     1
281
     1
  3
ACAD_MTEXT_2008_RT
360
89E
  0
DICTIONARY
  5
89F
330
2A5
100
AcDbDictionary
280
     1
281
     1
  3
ACAD_MTEXT_2008_RT
360
8A0
  0
DICTIONARY
  5
8A8
330
677
100
AcDbDictionary
280
     1
281
     1
  3
ACAD_MTEXT_2008_RT
360
8A9
  0
DICTIONARY
  5
8A6
330
66F
100
AcDbDictionary
280
     1
281
     1
  3
ACAD_MTEXT_2008_RT
360
8A7
  0
DICTIONARY
  5
8AC
330
687
100
AcDbDictionary
280
     1
281
     1
  3
ACAD_MTEXT_2008_RT
360
8AD
  0
DICTIONARY
  5
8AA
330
67F
100
AcDbDictionary
280
     1
281
     1
  3
ACAD_MTEXT_2008_RT
360
8AB
  0
DICTIONARY
  5
7C6
330
7C5
100
AcDbDictionary
280
     1
281
     1
  3
ACAD_DIMASSOC
360
7C7
  0
DICTIONARY
  5
7C9
330
7C8
100
AcDbDictionary
280
     1
281
     1
  3
ACAD_DIMASSOC
360
7CA
  0
DICTIONARY
  5
7CC
330
7CB
100
AcDbDictionary
280
     1
281
     1
  3
ACAD_DIMASSOC
360
7CD
  0
XRECORD
  5
216
102
{ACAD_REACTORS
330
C
102
}
330
C
100
AcDbXrecord
280
     1
300
ACD
300
2012
300
ACD_F_S
  0
DICTIONARY
  5
6B
102
{ACAD_REACTORS
330
C
102
}
330
C
100
AcDbDictionary
281
     1
  0
DICTIONARY
  5
D
102
{ACAD_REACTORS
330
C
102
}
330
C
100
AcDbDictionary
281
     1
  0
DICTIONARY
  5
1A
102
{ACAD_REACTORS
330
C
102
}
330
C
100
AcDbDictionary
281
     1
  3
Model
350
22
  3
布局1
350
D3
  3
布局2
350
D7
  0
DICTIONARY
  5
6A
102
{ACAD_REACTORS
330
C
102
}
330
C
100
AcDbDictionary
281
     1
  3
ByBlock
350
ED
  3
ByLayer
350
EC
  3
Global
350
EE
  0
DICTIONARY
  5
12D
102
{ACAD_REACTORS
330
C
102
}
330
C
100
AcDbDictionary
281
     1
  3
Annotative
350
13B
  3
Standard
350
12E
  0
DICTIONARY
  5
17
102
{ACAD_REACTORS
330
C
102
}
330
C
100
AcDbDictionary
281
     1
  3
Standard
350
18
  0
DICTIONARY
  5
19
102
{ACAD_REACTORS
330
C
102
}
330
C
100
AcDbDictionary
281
     1
  0
ACDBDICTIONARYWDFLT
  5
E
102
{ACAD_REACTORS
330
C
102
}
330
C
100
AcDbDictionary
281
     1
  3
Normal
350
F
100
AcDbDictionaryWithDefault
340
F
  0
DICTIONARY
  5
10C
102
{ACAD_REACTORS
330
C
102
}
330
C
100
AcDbDictionary
281
     1
  3
A0
350
10D
  3
A1
350
1BE
  3
A2
350
1BF
  3
A3
350
1C0
  3
A4
350
1C1
  3
A5
350
1C2
  3
A6
350
1C3
  3
A7
350
1C4
  3
A8
350
1C5
  3
A9
350
1C6
  3
B0
350
1C7
  3
B1
350
1C8
  3
B2
350
1C9
  3
B3
350
1CA
  3
B4
350
1CB
  3
B5
350
1CC
  3
B6
350
1CD
  0
DICTIONARY
  5
7E
102
{ACAD_REACTORS
330
C
102
}
330
C
100
AcDbDictionary
281
     1
  3
Standard
350
7F
  0
DICTIONARY
  5
EF
102
{ACAD_REACTORS
330
C
102
}
330
C
100
AcDbDictionary
281
     1
  3
2dWireframe
350
F5
  3
3dWireframe
350
377
  3
Basic
350
F4
  3
Brighten
350
FB
  3
ColorChange
350
FF
  3
Conceptual
350
F8
  3
Dim
350
FA
  3
EdgeColorOff
350
1E6
  3
Facepattern
350
FE
  3
Flat
350
F0
  3
FlatWithEdges
350
F1
  3
Gouraud
350
F2
  3
GouraudWithEdges
350
F3
  3
Hidden
350
F7
  3
JitterOff
350
1E4
  3
Linepattern
350
FD
  3
OverhangOff
350
1E5
  3
Realistic
350
F9
  3
Shaded
350
1F3
  3
Shaded with edges
350
1F2
  3
Shades of Gray
350
1EF
  3
Sketchy
350
1F0
  3
Thicken
350
FC
  3
Wireframe
350
F6
  3
X-Ray
350
1F1
  0
XRECORD
  5
864
102
{ACAD_REACTORS
330
C
102
}
330
C
100
AcDbXrecord
280
     1
 90
        1
330
7F
330
7CE
  0
DICTIONARY
  5
5E
102
{ACAD_REACTORS
330
C
102
}
330
C
100
AcDbDictionary
281
     1
  3
CANNOSCALE
350
146
  3
CMLEADERSTYLE
350
145
  3
CTABLESTYLE
350
84
  3
DIMASSOC
350
5F
  3
HIDETEXT
350
63
  3
LAYEREVAL
350
1AE
  3
LAYERNOTIFY
350
1AF
  3
LIGHTINGUNITS
350
68E
  3
MSLTSCALE
350
68D
  3
PSOLHEIGHT
350
690
  3
PSOLWIDTH
350
68F
  3
XCLIPFRAME
350
691
  0
DICTIONARY
  5
200
102
{ACAD_REACTORS
330
1FF
102
}
330
1FF
100
AcDbDictionary
281
     1
  0
XRECORD
  5
89A
102
{ACAD_REACTORS
330
899
102
}
330
899
100
AcDbXrecord
280
     1
 40
3244.0
  1
\U+22054.6"
  0
XRECORD
  5
89C
102
{ACAD_REACTORS
330
89B
102
}
330
89B
100
AcDbXrecord
280
     1
 40
3226.0
  1
\U+22053.5"
  0
XRECORD
  5
89E
102
{ACAD_REACTORS
330
89D
102
}
330
89D
100
AcDbXrecord
280
     1
 40
3244.0
  1
\U+22054.6"
  0
XRECORD
  5
8A0
102
{ACAD_REACTORS
330
89F
102
}
330
89F
100
AcDbXrecord
280
     1
 40
3226.0
  1
\U+22053.5"
  0
XRECORD
  5
8A9
102
{ACAD_REACTORS
330
8A8
102
}
330
8A8
100
AcDbXrecord
280
     1
 40
3244.0
  1
\U+22054.6"
  0
XRECORD
  5
8A7
102
{ACAD_REACTORS
330
8A6
102
}
330
8A6
100
AcDbXrecord
280
     1
 40
3226.0
  1
\U+22053.5"
  0
XRECORD
  5
8AD
102
{ACAD_REACTORS
330
8AC
102
}
330
8AC
100
AcDbXrecord
280
     1
 40
3244.0
  1
\U+22054.6"
  0
XRECORD
  5
8AB
102
{ACAD_REACTORS
330
8AA
102
}
330
8AA
100
AcDbXrecord
280
     1
 40
3226.0
  1
\U+22053.5"
  0
DIMASSOC
  5
7C7
102
{ACAD_REACTORS
330
7C6
102
}
330
7C6
100
AcDbDimAssoc
330
7C5
 90
        1
 70
     0
 71
     0
  1
AcDbOsnapPointRef
 72
    13
331
7C2
 73
     2
 91
        0
 40
1.570796326794896
 10
0.0
 20
0.0
 30
2.000000000000000E+50
 75
     0
  0
DIMASSOC
  5
7CA
102
{ACAD_REACTORS
330
7C9
102
}
330
7C9
100
AcDbDimAssoc
330
7C8
 90
        2
 70
     0
 71
     0
  1
AcDbOsnapPointRef
 72
    13
331
7C0
 73
     2
 91
        0
 40
0.0
 10
0.0
 20
0.0
 30
2.000000000000000E+50
 75
     0
  0
DIMASSOC
  5
7CD
102
{ACAD_REACTORS
330
7CC
102
}
330
7CC
100
AcDbDimAssoc
330
7CB
 90
        2
 70
     0
 71
     0
  1
AcDbOsnapPointRef
 72
     3
331
7C2
 73
     2
 91
        0
 40
0.0
 10
0.0
 20
0.0
 30
0.0
 75
     0
  0
LAYOUT
  5
22
102
{ACAD_XDICTIONARY
360
205
102
}
102
{ACAD_REACTORS
330
1A
102
}
330
1A
100
AcDbPlotSettings
  1

  2
none_device
  4
ISO_A4_(210.00_x_297.00_MM)
  6

 40
7.5
 41
20.0
 42
7.5
 43
20.0
 44
210.0
 45
297.0
 46
11.54999923706054
 47
-13.65000009536743
 48
0.0
 49
0.0
140
0.0
141
0.0
142
1.0
143
8.704084754739808
 70
 11952
 72
     1
 73
     0
 74
     0
  7
monochrome.ctb
 75
     0
147
0.1148885871608098
 76
     0
 77
     2
 78
   300
148
0.0
149
0.0
100
AcDbLayout
  1
Model
 70
     1
 71
     0
 10
0.0
 20
0.0
 11
12.0
 21
9.0
 12
0.0
 22
0.0
 32
0.0
 14
0.0
 24
0.0
 34
0.0
 15
0.0
 25
0.0
 35
0.0
146
0.0
 13
0.0
 23
0.0
 33
0.0
 16
1.0
 26
0.0
 36
0.0
 17
0.0
 27
1.0
 37
0.0
 76
     0
330
1F
331
EA
1001
ACAD_PSEXT
1000
None
1000
None
1000
Not applicable
1000
The layout will not be plotted unless a new plotter configuration name is selected.
1070
     0
  0
LAYOUT
  5
D3
102
{ACAD_REACTORS
330
1A
102
}
330
1A
100
AcDbPlotSettings
  1

  2
C:\Documents and Settings\basas\Application Data\Autodesk\AutoCAD 2005\R16.1\enu\plotters\Default Windows System Printer.pc3
  4

  6

 40
0.0
 41
0.0
 42
0.0
 43
0.0
 44
0.0
 45
0.0
 46
0.0
 47
0.0
 48
0.0
 49
0.0
140
0.0
141
0.0
142
1.0
143
1.0
 70
   688
 72
     0
 73
     0
 74
     5
  7
monochrome.ctb
 75
    16
147
1.0
 76
     0
 77
     2
 78
   300
148
0.0
149
0.0
100
AcDbLayout
  1
布局1
 70
     1
 71
     1
 10
0.0
 20
0.0
 11
12.0
 21
9.0
 12
0.0
 22
0.0
 32
0.0
 14
0.0
 24
0.0
 34
0.0
 15
0.0
 25
0.0
 35
0.0
146
0.0
 13
0.0
 23
0.0
 33
0.0
 16
1.0
 26
0.0
 36
0.0
 17
0.0
 27
1.0
 37
0.0
 76
     0
330
D2
  0
LAYOUT
  5
D7
102
{ACAD_REACTORS
330
1A
102
}
330
1A
100
AcDbPlotSettings
  1

  2
C:\Documents and Settings\basas\Application Data\Autodesk\AutoCAD 2005\R16.1\enu\plotters\Default Windows System Printer.pc3
  4

  6

 40
0.0
 41
0.0
 42
0.0
 43
0.0
 44
0.0
 45
0.0
 46
0.0
 47
0.0
 48
0.0
 49
0.0
140
0.0
141
0.0
142
1.0
143
1.0
 70
   688
 72
     0
 73
     0
 74
     5
  7
monochrome.ctb
 75
    16
147
1.0
 76
     0
 77
     2
 78
   300
148
0.0
149
0.0
100
AcDbLayout
  1
布局2
 70
     1
 71
     2
 10
0.0
 20
0.0
 11
12.0
 21
9.0
 12
0.0
 22
0.0
 32
0.0
 14
0.0
 24
0.0
 34
0.0
 15
0.0
 25
0.0
 35
0.0
146
0.0
 13
0.0
 23
0.0
 33
0.0
 16
1.0
 26
0.0
 36
0.0
 17
0.0
 27
1.0
 37
0.0
 76
     0
330
D6
  0
MATERIAL
  5
ED
102
{ACAD_XDICTIONARY
360
1F9
102
}
102
{ACAD_REACTORS
330
6A
102
}
330
6A
100
AcDbMaterial
  1
ByBlock
  0
MATERIAL
  5
EC
102
{ACAD_XDICTIONARY
360
1F7
102
}
102
{ACAD_REACTORS
330
6A
102
}
330
6A
100
AcDbMaterial
  1
ByLayer
  0
MATERIAL
  5
EE
102
{ACAD_XDICTIONARY
360
173
102
}
102
{ACAD_REACTORS
330
6A
102
}
330
6A
100
AcDbMaterial
  1
Global
 43
0.0007999999797903
 43
0.0
 43
0.0
 43
0.0
 43
0.0
 43
0.0007999999797903
 43
0.0
 43
0.0
 43
0.0
 43
0.0
 43
1.0
 43
0.0
 43
0.0
 43
0.0
 43
0.0
 43
1.0
 49
0.0007999999797903
 49
0.0
 49
0.0
 49
0.0
 49
0.0
 49
0.0007999999797903
 49
0.0
 49
0.0
 49
0.0
 49
0.0
 49
1.0
 49
0.0
 49
0.0
 49
0.0
 49
0.0
 49
1.0
142
0.0007999999797903
142
0.0
142
0.0
142
0.0
142
0.0
142
0.0007999999797903
142
0.0
142
0.0
142
0.0
142
0.0
142
1.0
142
0.0
142
0.0
142
0.0
142
0.0
142
1.0
144
0.0007999999797903
144
0.0
144
0.0
144
0.0
144
0.0
144
0.0007999999797903
144
0.0
144
0.0
144
0.0
144
0.0
144
1.0
144
0.0
144
0.0
144
0.0
144
0.0
144
1.0
1001
ACAD
1070
    -1
1070
     3
1070
     0
1000

1071
        0
1070
     0
  0
MLEADERSTYLE
  5
13B
102
{ACAD_XDICTIONARY
360
862
102
}
102
{ACAD_REACTORS
330
12D
102
}
330
12D
100
AcDbMLeaderStyle
170
     2
171
     1
172
     0
 90
        2
 40
0.0
 41
0.0
173
     1
 91
-1056964608
340
14
 92
       -2
290
     1
 42
2.0
291
     1
 43
8.0
  3
Standard
 44
4.0
300

342
11
174
     1
178
     1
175
     1
176
     0
 93
-1056964608
 45
4.0
292
     0
297
     0
 46
4.0
 94
-1056964608
 47
1.0
 49
1.0
140
1.0
293
     1
141
0.0
294
     1
177
     0
142
1.0
295
     0
296
     1
143
3.75
1001
ACAD_MLEADERVER
1070
     2
  0
MLEADERSTYLE
  5
12E
102
{ACAD_XDICTIONARY
360
860
102
}
102
{ACAD_REACTORS
330
12D
102
}
330
12D
100
AcDbMLeaderStyle
170
     2
171
     1
172
     0
 90
        2
 40
0.0
 41
0.0
173
     1
 91
-1056964608
340
14
 92
       -2
290
     1
 42
2.0
291
     1
 43
8.0
  3
Standard
 44
4.0
300

342
11
174
     1
178
     1
175
     1
176
     0
 93
-1056964608
 45
4.0
292
     0
297
     0
 46
4.0
 94
-1056964608
 47
1.0
 49
1.0
140
1.0
293
     1
141
0.0
294
     1
177
     0
142
1.0
295
     0
296
     0
143
3.75
1001
ACAD_MLEADERVER
1070
     2
  0
MLINESTYLE
  5
18
102
{ACAD_REACTORS
330
17
102
}
330
17
100
AcDbMlineStyle
  2
STANDARD
 70
     0
  3

 62
   256
 51
90.0
 52
90.0
 71
     2
 49
0.5
 62
   256
  6
BYLAYER
 49
-0.5
 62
   256
  6
BYLAYER
  0
ACDBPLACEHOLDER
  5
F
102
{ACAD_REACTORS
330
E
102
}
330
E
  0
SCALE
  5
10D
102
{ACAD_REACTORS
330
10C
102
}
330
10C
100
AcDbScale
 70
     0
300
1:1
140
1.0
141
1.0
290
     1
  0
SCALE
  5
1BE
102
{ACAD_REACTORS
330
10C
102
}
330
10C
100
AcDbScale
 70
     0
300
1:2
140
1.0
141
2.0
290
     0
  0
SCALE
  5
1BF
102
{ACAD_REACTORS
330
10C
102
}
330
10C
100
AcDbScale
 70
     0
300
1:4
140
1.0
141
4.0
290
     0
  0
SCALE
  5
1C0
102
{ACAD_REACTORS
330
10C
102
}
330
10C
100
AcDbScale
 70
     0
300
1:5
140
1.0
141
5.0
290
     0
  0
SCALE
  5
1C1
102
{ACAD_REACTORS
330
10C
102
}
330
10C
100
AcDbScale
 70
     0
300
1:8
140
1.0
141
8.0
290
     0
  0
SCALE
  5
1C2
102
{ACAD_REACTORS
330
10C
102
}
330
10C
100
AcDbScale
 70
     0
300
1:10
140
1.0
141
10.0
290
     0
  0
SCALE
  5
1C3
102
{ACAD_REACTORS
330
10C
102
}
330
10C
100
AcDbScale
 70
     0
300
1:16
140
1.0
141
16.0
290
     0
  0
SCALE
  5
1C4
102
{ACAD_REACTORS
330
10C
102
}
330
10C
100
AcDbScale
 70
     0
300
1:20
140
1.0
141
20.0
290
     0
  0
SCALE
  5
1C5
102
{ACAD_REACTORS
330
10C
102
}
330
10C
100
AcDbScale
 70
     0
300
1:30
140
1.0
141
30.0
290
     0
  0
SCALE
  5
1C6
102
{ACAD_REACTORS
330
10C
102
}
330
10C
100
AcDbScale
 70
     0
300
1:40
140
1.0
141
40.0
290
     0
  0
SCALE
  5
1C7
102
{ACAD_REACTORS
330
10C
102
}
330
10C
100
AcDbScale
 70
     0
300
1:50
140
1.0
141
50.0
290
     0
  0
SCALE
  5
1C8
102
{ACAD_REACTORS
330
10C
102
}
330
10C
100
AcDbScale
 70
     0
300
1:100
140
1.0
141
100.0
290
     0
  0
SCALE
  5
1C9
102
{ACAD_REACTORS
330
10C
102
}
330
10C
100
AcDbScale
 70
     0
300
2:1
140
2.0
141
1.0
290
     0
  0
SCALE
  5
1CA
102
{ACAD_REACTORS
330
10C
102
}
330
10C
100
AcDbScale
 70
     0
300
4:1
140
4.0
141
1.0
290
     0
  0
SCALE
  5
1CB
102
{ACAD_REACTORS
330
10C
102
}
330
10C
100
AcDbScale
 70
     0
300
8:1
140
8.0
141
1.0
290
     0
  0
SCALE
  5
1CC
102
{ACAD_REACTORS
330
10C
102
}
330
10C
100
AcDbScale
 70
     0
300
10:1
140
10.0
141
1.0
290
     0
  0
SCALE
  5
1CD
102
{ACAD_REACTORS
330
10C
102
}
330
10C
100
AcDbScale
 70
     0
300
100:1
140
100.0
141
1.0
290
     0
  0
TABLESTYLE
  5
7F
102
{ACAD_XDICTIONARY
360
162
102
}
102
{ACAD_REACTORS
330
7E
102
}
330
7E
100
AcDbTableStyle
  3
Standard
 70
     0
 71
     0
 40
1.5
 41
1.5
280
     0
281
     0
  7
Standard
140
4.5
170
     2
 62
     0
 63
     7
283
     0
274
    -2
284
     1
 64
     0
275
    -2
285
     1
 65
     0
276
    -2
286
     1
 66
     0
277
    -2
287
     1
 67
     0
278
    -2
288
     1
 68
     0
279
    -2
289
     1
 69
     0
  7
Standard
140
6.0
170
     5
 62
     0
 63
     7
283
     0
274
    -2
284
     1
 64
     0
275
    -2
285
     1
 65
     0
276
    -2
286
     1
 66
     0
277
    -2
287
     1
 67
     0
278
    -2
288
     1
 68
     0
279
    -2
289
     1
 69
     0
  7
Standard
140
4.5
170
     5
 62
     0
 63
     7
283
     0
274
    -2
284
     1
 64
     0
275
    -2
285
     1
 65
     0
276
    -2
286
     1
 66
     0
277
    -2
287
     1
 67
     0
278
    -2
288
     1
 68
     0
279
    -2
289
     1
 69
     0
  0
VISUALSTYLE
  5
F5
102
{ACAD_XDICTIONARY
360
873
102
}
102
{ACAD_REACTORS
330
EF
102
}
330
EF
100
AcDbVisualStyle
  2
2dWireframe
 70
     4
 71
     0
 72
     2
 73
     1
 90
        0
 40
-0.6
 41
-30.0
 62
     5
 63
     7
421
 16777215
 74
     1
 91
        4
 64
     7
 65
   257
 75
     1
175
     1
 42
1.0
 92
        0
 66
   257
 43
1.0
 76
     1
 77
     6
 78
     2
 67
     7
 79
     5
170
     0
171
     0
290
     0
174
     0
 93
        1
 44
0.0
173
     0
291
     0
 45
0.0
1001
ACAD
1000
AcDbSavedByObjectVersion
1070
     0
  0
VISUALSTYLE
  5
377
102
{ACAD_XDICTIONARY
360
8A4
102
}
102
{ACAD_REACTORS
330
EF
102
}
330
EF
100
AcDbVisualStyle
  2
3dWireframe
 70
     5
 71
     0
 72
     2
 73
     1
 90
        0
 40
-0.6
 41
-30.0
 62
     5
 63
     7
421
 16777215
 74
     1
 91
        4
 64
     7
 65
   257
 75
     1
175
     1
 42
1.0
 92
        0
 66
   257
 43
1.0
 76
     1
 77
     6
 78
     2
 67
     7
 79
     5
170
     0
171
     0
290
     0
174
     0
 93
        1
 44
0.0
173
     0
291
     0
 45
0.0
1001
ACAD
1000
AcDbSavedByObjectVersion
1070
     0
  0
VISUALSTYLE
  5
F4
102
{ACAD_XDICTIONARY
360
871
102
}
102
{ACAD_REACTORS
330
EF
102
}
330
EF
100
AcDbVisualStyle
  2
Basic
 70
     7
 71
     1
 72
     0
 73
     1
 90
        0
 40
-0.6
 41
-30.0
 62
     5
 63
     7
421
 16777215
 74
     0
 91
        4
 64
     7
 65
   257
 75
     1
175
     1
 42
1.0
 92
        8
 66
     7
 43
1.0
 76
     1
 77
     6
 78
     2
 67
     7
 79
     5
170
     0
171
     0
290
     0
174
     0
 93
        1
 44
0.0
173
     0
291
     1
 45
0.0
1001
ACAD
1000
AcDbSavedByObjectVersion
1070
     0
  0
VISUALSTYLE
  5
FB
102
{ACAD_XDICTIONARY
360
87F
102
}
102
{ACAD_REACTORS
330
EF
102
}
330
EF
100
AcDbVisualStyle
  2
Brighten
 70
    12
 71
     2
 72
     2
 73
     1
 90
        0
 40
-0.6
 41
-30.0
 62
     5
 63
     7
421
 16777215
 74
     1
 91
        4
 64
     7
 65
   257
 75
     1
175
     1
 42
1.0
 92
        8
 66
     7
 43
1.0
 76
     1
 77
     6
 78
     2
 67
     7
 79
     5
170
     0
171
     0
290
     0
174
     0
 93
        1
 44
50.0
173
     0
291
     1
 45
0.0
1001
ACAD
1000
AcDbSavedByObjectVersion
1070
     0
  0
VISUALSTYLE
  5
FF
102
{ACAD_XDICTIONARY
360
887
102
}
102
{ACAD_REACTORS
330
EF
102
}
330
EF
100
AcDbVisualStyle
  2
ColorChange
 70
    16
 71
     2
 72
     2
 73
     3
 90
        0
 40
-0.6
 41
-30.0
 62
     5
 63
     8
421
  8421504
 74
     1
 91
        4
 64
     7
 65
   257
 75
     1
175
     1
 42
1.0
 92
        8
 66
     8
424
  8421504
 43
1.0
 76
     1
 77
     6
 78
     2
 67
     7
 79
     5
170
     0
171
     0
290
     0
174
     0
 93
        1
 44
0.0
173
     0
291
     1
 45
0.0
1001
ACAD
1000
AcDbSavedByObjectVersion
1070
     0
  0
VISUALSTYLE
  5
F8
102
{ACAD_XDICTIONARY
360
879
102
}
102
{ACAD_REACTORS
330
EF
102
}
330
EF
100
AcDbVisualStyle
  2
Conceptual
 70
     9
 71
     3
 72
     2
 73
     1
 90
        0
 40
-0.6
 41
-30.0
 62
     5
 63
     7
421
 16777215
 74
     2
 91
        2
 64
     7
 65
   257
 75
     1
175
     1
 42
40.0
 92
        8
 66
     7
 43
1.0
 76
     1
 77
     6
 78
     2
 67
     7
 79
     3
170
     0
171
     0
290
     0
174
     0
 93
        1
 44
0.0
173
     0
291
     0
 45
0.0
1001
ACAD
1000
AcDbSavedByObjectVersion
1070
     0
  0
VISUALSTYLE
  5
FA
102
{ACAD_XDICTIONARY
360
87D
102
}
102
{ACAD_REACTORS
330
EF
102
}
330
EF
100
AcDbVisualStyle
  2
Dim
 70
    11
 71
     2
 72
     2
 73
     1
 90
        0
 40
-0.6
 41
-30.0
 62
     5
 63
     7
421
 16777215
 74
     1
 91
        4
 64
     7
 65
   257
 75
     1
175
     1
 42
1.0
 92
        8
 66
     7
 43
1.0
 76
     1
 77
     6
 78
     2
 67
     7
 79
     5
170
     0
171
     0
290
     0
174
     0
 93
        1
 44
-50.0
173
     0
291
     1
 45
0.0
1001
ACAD
1000
AcDbSavedByObjectVersion
1070
     0
  0
VISUALSTYLE
  5
1E6
102
{ACAD_XDICTIONARY
360
88D
102
}
102
{ACAD_REACTORS
330
EF
102
}
330
EF
100
AcDbVisualStyle
  2
EdgeColorOff
 70
    22
 71
     2
 72
     2
 73
     0
 90
        0
 40
-0.6
 41
-30.0
 62
     5
 63
     7
421
 16777215
 74
     1
 91
        4
 64
     7
 65
   257
 75
     1
175
     1
 42
1.0
 92
        8
 66
     7
 43
1.0
 76
     1
 77
     6
 78
     2
 67
     7
 79
     5
170
     0
171
     0
290
     0
174
     0
 93
        1
 44
0.0
173
     0
291
     1
 45
0.0
1001
ACAD
1000
AcDbSavedByObjectVersion
1070
     0
  0
VISUALSTYLE
  5
FE
102
{ACAD_XDICTIONARY
360
885
102
}
102
{ACAD_REACTORS
330
EF
102
}
330
EF
100
AcDbVisualStyle
  2
Facepattern
 70
    15
 71
     2
 72
     2
 73
     1
 90
        0
 40
-0.6
 41
-30.0
 62
     5
 63
     7
421
 16777215
 74
     1
 91
        4
 64
     7
 65
   257
 75
     1
175
     1
 42
1.0
 92
        8
 66
     7
 43
1.0
 76
     1
 77
     6
 78
     2
 67
     7
 79
     5
170
     0
171
     0
290
     0
174
     0
 93
        1
 44
0.0
173
     0
291
     1
 45
0.0
1001
ACAD
1000
AcDbSavedByObjectVersion
1070
     0
  0
VISUALSTYLE
  5
F0
102
{ACAD_XDICTIONARY
360
869
102
}
102
{ACAD_REACTORS
330
EF
102
}
330
EF
100
AcDbVisualStyle
  2
Flat
 70
     0
 71
     2
 72
     1
 73
     1
 90
        2
 40
-0.6
 41
30.0
 62
     5
 63
     7
421
 16777215
 74
     0
 91
        0
 64
     7
 65
   257
 75
     1
175
     1
 42
1.0
 92
        8
 66
     7
 43
1.0
 76
     1
 77
     6
 78
     2
 67
     7
 79
     5
170
     0
171
     0
290
     0
174
     0
 93
       13
 44
0.0
173
     0
291
     1
 45
0.0
1001
ACAD
1000
AcDbSavedByObjectVersion
1070
     0
  0
VISUALSTYLE
  5
F1
102
{ACAD_XDICTIONARY
360
86B
102
}
102
{ACAD_REACTORS
330
EF
102
}
330
EF
100
AcDbVisualStyle
  2
FlatWithEdges
 70
     1
 71
     2
 72
     1
 73
     1
 90
        2
 40
-0.6
 41
30.0
 62
     5
 63
     7
421
 16777215
 74
     1
 91
        0
 64
     7
 65
   257
 75
     1
175
     1
 42
1.0
 92
        0
 66
   257
 43
1.0
 76
     1
 77
     6
 78
     2
 67
     7
 79
     5
170
     0
171
     0
290
     0
174
     0
 93
       13
 44
0.0
173
     0
291
     1
 45
0.0
1001
ACAD
1000
AcDbSavedByObjectVersion
1070
     0
  0
VISUALSTYLE
  5
F2
102
{ACAD_XDICTIONARY
360
86D
102
}
102
{ACAD_REACTORS
330
EF
102
}
330
EF
100
AcDbVisualStyle
  2
Gouraud
 70
     2
 71
     2
 72
     2
 73
     1
 90
        2
 40
-0.6
 41
30.0
 62
     5
 63
     7
421
 16777215
 74
     0
 91
        0
 64
     7
 65
   257
 75
     1
175
     1
 42
1.0
 92
        0
 66
     7
 43
1.0
 76
     1
 77
     6
 78
     2
 67
     7
 79
     5
170
     0
171
     0
290
     0
174
     0
 93
       13
 44
0.0
173
     0
291
     1
 45
0.0
1001
ACAD
1000
AcDbSavedByObjectVersion
1070
     0
  0
VISUALSTYLE
  5
F3
102
{ACAD_XDICTIONARY
360
86F
102
}
102
{ACAD_REACTORS
330
EF
102
}
330
EF
100
AcDbVisualStyle
  2
GouraudWithEdges
 70
     3
 71
     2
 72
     2
 73
     1
 90
        2
 40
-0.6
 41
30.0
 62
     5
 63
     7
421
 16777215
 74
     1
 91
        0
 64
     7
 65
   257
 75
     1
175
     1
 42
1.0
 92
        0
 66
   257
 43
1.0
 76
     1
 77
     6
 78
     2
 67
     7
 79
     5
170
     0
171
     0
290
     0
174
     0
 93
       13
 44
0.0
173
     0
291
     1
 45
0.0
1001
ACAD
1000
AcDbSavedByObjectVersion
1070
     0
  0
VISUALSTYLE
  5
F7
102
{ACAD_XDICTIONARY
360
877
102
}
102
{ACAD_REACTORS
330
EF
102
}
330
EF
100
AcDbVisualStyle
  2
Hidden
 70
     6
 71
     1
 72
     2
 73
     2
 90
        0
 40
-0.6
 41
-30.0
 62
     5
 63
     7
421
 16777215
 74
     2
 91
        2
 64
     7
 65
   257
 75
     2
175
     1
 42
40.0
 92
        0
 66
   257
 43
1.0
 76
     1
 77
     6
 78
     2
 67
     7
 79
     3
170
     0
171
     0
290
     0
174
     0
 93
        1
 44
0.0
173
     0
291
     0
 45
0.0
1001
ACAD
1000
AcDbSavedByObjectVersion
1070
     0
  0
VISUALSTYLE
  5
1E4
102
{ACAD_XDICTIONARY
360
889
102
}
102
{ACAD_REACTORS
330
EF
102
}
330
EF
100
AcDbVisualStyle
  2
JitterOff
 70
    20
 71
     2
 72
     2
 73
     0
 90
        0
 40
-0.6
 41
-30.0
 62
     5
 63
     7
421
 16777215
 74
     1
 91
        4
 64
     7
 65
   257
 75
     1
175
     1
 42
1.0
 92
       10
 66
     7
 43
1.0
 76
     1
 77
     6
 78
     2
 67
     7
 79
     5
170
     0
171
     0
290
     0
174
     0
 93
        1
 44
0.0
173
     0
291
     1
 45
0.0
1001
ACAD
1000
AcDbSavedByObjectVersion
1070
     0
  0
VISUALSTYLE
  5
FD
102
{ACAD_XDICTIONARY
360
883
102
}
102
{ACAD_REACTORS
330
EF
102
}
330
EF
100
AcDbVisualStyle
  2
Linepattern
 70
    14
 71
     2
 72
     2
 73
     1
 90
        0
 40
-0.6
 41
-30.0
 62
     5
 63
     7
421
 16777215
 74
     1
 91
        4
 64
     7
 65
   257
 75
     7
175
     7
 42
1.0
 92
        8
 66
     7
 43
1.0
 76
     1
 77
     6
 78
     2
 67
     7
 79
     5
170
     0
171
     0
290
     0
174
     0
 93
        1
 44
0.0
173
     0
291
     1
 45
0.0
1001
ACAD
1000
AcDbSavedByObjectVersion
1070
     0
  0
VISUALSTYLE
  5
1E5
102
{ACAD_XDICTIONARY
360
88B
102
}
102
{ACAD_REACTORS
330
EF
102
}
330
EF
100
AcDbVisualStyle
  2
OverhangOff
 70
    21
 71
     2
 72
     2
 73
     0
 90
        0
 40
-0.6
 41
-30.0
 62
     5
 63
     7
421
 16777215
 74
     1
 91
        4
 64
     7
 65
   257
 75
     1
175
     1
 42
1.0
 92
        9
 66
     7
 43
1.0
 76
     1
 77
     6
 78
     2
 67
     7
 79
     5
170
     0
171
     0
290
     0
174
     0
 93
        1
 44
0.0
173
     0
291
     1
 45
0.0
1001
ACAD
1000
AcDbSavedByObjectVersion
1070
     0
  0
VISUALSTYLE
  5
F9
102
{ACAD_XDICTIONARY
360
87B
102
}
102
{ACAD_REACTORS
330
EF
102
}
330
EF
100
AcDbVisualStyle
  2
Realistic
 70
     8
 71
     2
 72
     3
 73
     0
 90
        2
 40
-0.6
 41
30.0
 62
     5
 63
     7
421
 16777215
 74
     0
 91
        0
 64
     7
 65
   257
 75
     1
175
     1
 42
1.0
 92
        8
 66
   257
 43
1.0
 76
     1
 77
     6
 78
     2
 67
     7
 79
     3
170
     0
171
     0
290
     0
174
     0
 93
       13
 44
0.0
173
     0
291
     0
 45
0.0
1001
ACAD
1000
AcDbSavedByObjectVersion
1070
     0
  0
VISUALSTYLE
  5
1F3
102
{ACAD_XDICTIONARY
360
897
102
}
102
{ACAD_REACTORS
330
EF
102
}
330
EF
100
AcDbVisualStyle
  2
Shaded
 70
    27
 71
     2
 72
     2
 73
     1
 90
        2
 40
-0.6
 41
30.0
 62
     5
 63
     7
421
 16777215
 74
     0
 91
        4
 64
     7
 65
   257
 75
     1
175
     1
 42
1.0
 92
        8
 66
   257
 43
1.0
 76
     1
 77
     6
 78
     2
 67
     8
425
  7895160
 79
     3
170
     0
171
     0
290
     0
174
     0
 93
        5
 44
0.0
173
     0
291
     0
 45
0.0
1001
ACAD
1000
AcDbSavedByObjectVersion
1070
     0
  0
VISUALSTYLE
  5
1F2
102
{ACAD_XDICTIONARY
360
895
102
}
102
{ACAD_REACTORS
330
EF
102
}
330
EF
100
AcDbVisualStyle
  2
Shaded with edges
 70
    26
 71
     2
 72
     2
 73
     1
 90
        2
 40
-0.6
 41
30.0
 62
     5
 63
     7
421
 16777215
 74
     1
 91
       10
 64
     7
 65
   257
 75
     2
175
     1
 42
1.0
 92
        8
 66
   257
 43
1.0
 76
     1
 77
     6
 78
     2
 67
     7
 79
     3
170
     0
171
     0
290
     0
174
     0
 93
        5
 44
0.0
173
     0
291
     0
 45
0.0
1001
ACAD
1000
AcDbSavedByObjectVersion
1070
     0
  0
VISUALSTYLE
  5
1EF
102
{ACAD_XDICTIONARY
360
88F
102
}
102
{ACAD_REACTORS
330
EF
102
}
330
EF
100
AcDbVisualStyle
  2
Shades of Gray
 70
    23
 71
     2
 72
     2
 73
     3
 90
        0
 40
-0.6
 41
-30.0
 62
     5
 63
     7
421
 16777215
 74
     2
 91
        2
 64
     7
 65
     7
 75
     1
175
     1
 42
40.0
 92
        8
 66
     7
 43
1.0
 76
     1
 77
     6
 78
     2
 67
     7
 79
     3
170
     0
171
     0
290
     0
174
     0
 93
        1
 44
0.0
173
     0
291
     0
 45
0.0
1001
ACAD
1000
AcDbSavedByObjectVersion
1070
     0
  0
VISUALSTYLE
  5
1F0
102
{ACAD_XDICTIONARY
360
891
102
}
102
{ACAD_REACTORS
330
EF
102
}
330
EF
100
AcDbVisualStyle
  2
Sketchy
 70
    24
 71
     1
 72
     2
 73
     2
 90
        0
 40
-0.6
 41
-30.0
 62
     5
 63
     7
421
 16777215
 74
     2
 91
        2
 64
     7
 65
     7
 75
     1
175
     1
 42
40.0
 92
       11
 66
     7
 43
1.0
 76
     1
 77
     6
 78
     2
 67
     7
 79
     6
170
     0
171
     0
290
     0
174
     0
 93
        1
 44
0.0
173
     0
291
     0
 45
0.0
1001
ACAD
1000
AcDbSavedByObjectVersion
1070
     0
  0
VISUALSTYLE
  5
FC
102
{ACAD_XDICTIONARY
360
881
102
}
102
{ACAD_REACTORS
330
EF
102
}
330
EF
100
AcDbVisualStyle
  2
Thicken
 70
    13
 71
     2
 72
     2
 73
     1
 90
        0
 40
-0.6
 41
-30.0
 62
     5
 63
     7
421
 16777215
 74
     1
 91
        4
 64
     7
 65
   257
 75
     1
175
     1
 42
1.0
 92
       12
 66
     7
 43
1.0
 76
     1
 77
     6
 78
     2
 67
     7
 79
     5
170
     0
171
     0
290
     0
174
     0
 93
        1
 44
0.0
173
     0
291
     1
 45
0.0
1001
ACAD
1000
AcDbSavedByObjectVersion
1070
     0
  0
VISUALSTYLE
  5
F6
102
{ACAD_XDICTIONARY
360
875
102
}
102
{ACAD_REACTORS
330
EF
102
}
330
EF
100
AcDbVisualStyle
  2
Wireframe
 70
     5
 71
     0
 72
     2
 73
     0
 90
        0
 40
-0.6
 41
-30.0
 62
     5
 63
     7
421
 16777215
 74
     1
 91
        4
 64
     7
 65
   257
 75
     1
175
     1
 42
1.0
 92
        0
 66
   257
 43
1.0
 76
     1
 77
     6
 78
     2
 67
     7
 79
     3
170
     0
171
     0
290
     0
174
     0
 93
        1
 44
0.0
173
     0
291
     0
 45
0.0
1001
ACAD
1000
AcDbSavedByObjectVersion
1070
     0
  0
VISUALSTYLE
  5
1F1
102
{ACAD_XDICTIONARY
360
893
102
}
102
{ACAD_REACTORS
330
EF
102
}
330
EF
100
AcDbVisualStyle
  2
X-Ray
 70
    25
 71
     2
 72
     2
 73
     1
 90
        1
 40
0.5
 41
-30.0
 62
     5
 63
     7
421
 16777215
 74
     1
 91
        0
 64
     7
 65
   257
 75
     1
175
     1
 42
1.0
 92
        8
 66
     7
 43
1.0
 76
     1
 77
     6
 78
     2
 67
     7
 79
     3
170
     0
171
     0
290
     0
174
     0
 93
       13
 44
0.0
173
     0
291
     0
 45
0.0
1001
ACAD
1000
AcDbSavedByObjectVersion
1070
     0
  0
DICTIONARYVAR
  5
146
102
{ACAD_REACTORS
330
5E
102
}
330
5E
100
DictionaryVariables
280
     0
  1
1:1
  0
DICTIONARYVAR
  5
145
102
{ACAD_REACTORS
330
5E
102
}
330
5E
100
DictionaryVariables
280
     0
  1
STANDARD
  0
DICTIONARYVAR
  5
84
102
{ACAD_REACTORS
330
5E
102
}
330
5E
100
DictionaryVariables
280
     0
  1
STANDARD
  0
DICTIONARYVAR
  5
5F
102
{ACAD_REACTORS
330
5E
102
}
330
5E
100
DictionaryVariables
280
     0
  1
2
  0
DICTIONARYVAR
  5
63
102
{ACAD_REACTORS
330
5E
102
}
330
5E
100
DictionaryVariables
280
     0
  1
1
  0
DICTIONARYVAR
  5
1AE
102
{ACAD_REACTORS
330
5E
102
}
330
5E
100
DictionaryVariables
280
     0
  1
0
  0
DICTIONARYVAR
  5
1AF
102
{ACAD_REACTORS
330
5E
102
}
330
5E
100
DictionaryVariables
280
     0
  1
0
  0
DICTIONARYVAR
  5
68E
102
{ACAD_REACTORS
330
5E
102
}
330
5E
100
DictionaryVariables
280
     0
  1
2
  0
DICTIONARYVAR
  5
68D
102
{ACAD_REACTORS
330
5E
102
}
330
5E
100
DictionaryVariables
280
     0
  1
1
  0
DICTIONARYVAR
  5
690
102
{ACAD_REACTORS
330
5E
102
}
330
5E
100
DictionaryVariables
280
     0
  1
80.000000
  0
DICTIONARYVAR
  5
68F
102
{ACAD_REACTORS
330
5E
102
}
330
5E
100
DictionaryVariables
280
     0
  1
5.000000
  0
DICTIONARYVAR
  5
691
102
{ACAD_REACTORS
330
5E
102
}
330
5E
100
DictionaryVariables
280
     0
  1
2
  0
DICTIONARY
  5
205
330
22
100
AcDbDictionary
280
     1
281
     1
  3
ADSK_XREC_LAYOUTTHUMBNAIL
360
206
  0
DICTIONARY
  5
1F9
330
ED
100
AcDbDictionary
280
     1
281
     1
  3
ACAD_XREC_ROUNDTRIP
360
867
  3
FBXASSET
360
1FA
  0
DICTIONARY
  5
1F7
330
EC
100
AcDbDictionary
280
     1
281
     1
  3
ACAD_XREC_ROUNDTRIP
360
866
  3
FBXASSET
360
1F8
  0
DICTIONARY
  5
173
330
EE
100
AcDbDictionary
280
     1
281
     1
  3
ACAD_XREC_ROUNDTRIP
360
868
  3
BUMPTILE
360
175
  3
DIFFUSETILE
360
174
  3
FBXASSET
360
1FB
  3
OPACITYTILE
360
176
  3
REFLECTIONTILE
360
177
  0
DICTIONARY
  5
862
330
13B
100
AcDbDictionary
280
     1
281
     1
  3
ACAD_XREC_ROUNDTRIP
360
863
  0
DICTIONARY
  5
860
330
12E
100
AcDbDictionary
280
     1
281
     1
  3
ACAD_XREC_ROUNDTRIP
360
861
  0
DICTIONARY
  5
162
330
7F
100
AcDbDictionary
280
     1
281
     1
  3
ACAD_ROUNDTRIP_2008_TABLESTYLE_CELLSTYLEMAP
360
85F
  3
ACAD_XREC_ROUNDTRIP
360
865
  0
DICTIONARY
  5
873
330
F5
100
AcDbDictionary
280
     1
281
     1
  3
ACAD_XREC_ROUNDTRIP
360
874
  0
DICTIONARY
  5
8A4
330
377
100
AcDbDictionary
280
     1
281
     1
  3
ACAD_XREC_ROUNDTRIP
360
8A5
  0
DICTIONARY
  5
871
330
F4
100
AcDbDictionary
280
     1
281
     1
  3
ACAD_XREC_ROUNDTRIP
360
872
  0
DICTIONARY
  5
87F
330
FB
100
AcDbDictionary
280
     1
281
     1
  3
ACAD_XREC_ROUNDTRIP
360
880
  0
DICTIONARY
  5
887
330
FF
100
AcDbDictionary
280
     1
281
     1
  3
ACAD_XREC_ROUNDTRIP
360
888
  0
DICTIONARY
  5
879
330
F8
100
AcDbDictionary
280
     1
281
     1
  3
ACAD_XREC_ROUNDTRIP
360
87A
  0
DICTIONARY
  5
87D
330
FA
100
AcDbDictionary
280
     1
281
     1
  3
ACAD_XREC_ROUNDTRIP
360
87E
  0
DICTIONARY
  5
88D
330
1E6
100
AcDbDictionary
280
     1
281
     1
  3
ACAD_XREC_ROUNDTRIP
360
88E
  0
DICTIONARY
  5
885
330
FE
100
AcDbDictionary
280
     1
281
     1
  3
ACAD_XREC_ROUNDTRIP
360
886
  0
DICTIONARY
  5
869
330
F0
100
AcDbDictionary
280
     1
281
     1
  3
ACAD_XREC_ROUNDTRIP
360
86A
  0
DICTIONARY
  5
86B
330
F1
100
AcDbDictionary
280
     1
281
     1
  3
ACAD_XREC_ROUNDTRIP
360
86C
  0
DICTIONARY
  5
86D
330
F2
100
AcDbDictionary
280
     1
281
     1
  3
ACAD_XREC_ROUNDTRIP
360
86E
  0
DICTIONARY
  5
86F
330
F3
100
AcDbDictionary
280
     1
281
     1
  3
ACAD_XREC_ROUNDTRIP
360
870
  0
DICTIONARY
  5
877
330
F7
100
AcDbDictionary
280
     1
281
     1
  3
ACAD_XREC_ROUNDTRIP
360
878
  0
DICTIONARY
  5
889
330
1E4
100
AcDbDictionary
280
     1
281
     1
  3
ACAD_XREC_ROUNDTRIP
360
88A
  0
DICTIONARY
  5
883
330
FD
100
AcDbDictionary
280
     1
281
     1
  3
ACAD_XREC_ROUNDTRIP
360
884
  0
DICTIONARY
  5
88B
330
1E5
100
AcDbDictionary
280
     1
281
     1
  3
ACAD_XREC_ROUNDTRIP
360
88C
  0
DICTIONARY
  5
87B
330
F9
100
AcDbDictionary
280
     1
281
     1
  3
ACAD_XREC_ROUNDTRIP
360
87C
  0
DICTIONARY
  5
897
330
1F3
100
AcDbDictionary
280
     1
281
     1
  3
ACAD_XREC_ROUNDTRIP
360
898
  0
DICTIONARY
  5
895
330
1F2
100
AcDbDictionary
280
     1
281
     1
  3
ACAD_XREC_ROUNDTRIP
360
896
  0
DICTIONARY
  5
88F
330
1EF
100
AcDbDictionary
280
     1
281
     1
  3
ACAD_XREC_ROUNDTRIP
360
890
  0
DICTIONARY
  5
891
330
1F0
100
AcDbDictionary
280
     1
281
     1
  3
ACAD_XREC_ROUNDTRIP
360
892
  0
DICTIONARY
  5
881
330
FC
100
AcDbDictionary
280
     1
281
     1
  3
ACAD_XREC_ROUNDTRIP
360
882
  0
DICTIONARY
  5
875
330
F6
100
AcDbDictionary
280
     1
281
     1
  3
ACAD_XREC_ROUNDTRIP
360
876
  0
DICTIONARY
  5
893
330
1F1
100
AcDbDictionary
280
     1
281
     1
  3
ACAD_XREC_ROUNDTRIP
360
894
  0
XRECORD
  5
206
102
{ACAD_REACTORS
330
205
102
}
330
205
100
AcDbXrecord
280
     1
310
280000000001000077000000010008000000000000770000000000000000000000010000000000003028210000000000C8C8C8000000000000000000000000000000000000000000000000000000000000000000330000006600000099000000CC000000FF00000000330000333300006633000099330000CC330000FF3300
310
0000660000336600006666000099660000CC660000FF66000000990000339900006699000099990000CC990000FF99000000CC000033CC000066CC000099CC0000CCCC0000FFCC000000FF000033FF000066FF000099FF0000CCFF0000FFFF000000003300330033006600330099003300CC003300FF003300003333003333
310
33006633330099333300CC333300FF33330000663300336633006666330099663300CC663300FF66330000993300339933006699330099993300CC993300FF99330000CC330033CC330066CC330099CC3300CCCC3300FFCC330000FF330033FF330066FF330099FF3300CCFF3300FFFF330000006600330066006600660099
310
006600CC006600FF00660000336600333366006633660099336600CC336600FF33660000666600336666006666660099666600CC666600FF66660000996600339966006699660099996600CC996600FF99660000CC660033CC660066CC660099CC6600CCCC6600FFCC660000FF660033FF660066FF660099FF6600CCFF6600
310
FFFF660000009900330099006600990099009900CC009900FF00990000339900333399006633990099339900CC339900FF33990000669900336699006666990099669900CC669900FF66990000999900339999006699990099999900CC999900FF99990000CC990033CC990066CC990099CC9900CCCC9900FFCC990000FF99
310
0033FF990066FF990099FF9900CCFF9900FFFF99000000CC003300CC006600CC009900CC00CC00CC00FF00CC000033CC003333CC006633CC009933CC00CC33CC00FF33CC000066CC003366CC006666CC009966CC00CC66CC00FF66CC000099CC003399CC006699CC009999CC00CC99CC00FF99CC0000CCCC0033CCCC0066CC
310
CC0099CCCC00CCCCCC00FFCCCC0000FFCC0033FFCC0066FFCC0099FFCC00CCFFCC00FFFFCC000000FF003300FF006600FF009900FF00CC00FF00FF00FF000033FF003333FF006633FF009933FF00CC33FF00FF33FF000066FF003366FF006666FF009966FF00CC66FF00FF66FF000099FF003399FF006699FF009999FF00CC
310
99FF00FF99FF0000CCFF0033CCFF0066CCFF0099CCFF00CCCCFF00FFCCFF0000FFFF0033FFFF0066FFFF0099FFFF00CCFFFF00FFFFFF00000000000D0D0D001A1A1A00282828003535350043434300505050005D5D5D006B6B6B00787878008686860093939300A1A1A100AEAEAE00BBBBBB00C9C9C900D6D6D600E4E4E400
310
F1F1F100FFFFFF000000000000000000000000000000000000000000000000000000000000000000000000000000000000000000000000000000000000000000000000000000000000000000000000000000000000000000000000000000000000000000000000000000000000000000000000000000000000000000000000
310
00000000000000000000000000000000000000000000000000000000000000000000000000000000000000000000000000000000000000000000000000000000000000000000000000000000000000000000000000000000000000000000000000000000000000000000000000000000000000000000000000000000000000
310
00000000000000000000000000000000000000000000000000000000000000000000000000000000000000000000000000000000000000000000000000000000000000000000000000000000000000000000000000000000000000000000000000000000000000000000000000000000000000000000000000000000000000
310
00000000000000000000000000000000000000000000000000000000000000000000000000000000000000000000000000000000000000000000000000000000000000000000000000000000000000000000000000000000000000000000000000000000000000000000000000000000000000000000000000000000000000
310
00000000000000000000000000000000000000000000000000000000000000000000000000000000000000000000000000000000000000000000000000000000000000000000000000000000000000000000000000000000000000000000000000000000000000000000000000000000000000000000000000000000000000
310
00000000000000000000000000000000000000000000000000000000000000000000000000000000000000000000000000000000000000000000000000000000000000000000000000000000000000000000000000000000000000000000000000000000000000000000000000000000000000000000000000000000000000
310
00000000000000000000000000000000000000000000000000000000000000000000000000000000000000000000000000000000000000000000000000000000000000000000000000000000000000000000000000000000000000000000000000000000000000000000000000000000000000000000000000000000000000
310
00000000000000000000000000000000000000000000000000000000000000000000000000000000000000000000000000000000000000000000000000000000000000000000000000000000000000000000000000000000000000000000000000000000000000000000000000000000000000000000000000000000000000
310
00000000000000000000000000000000000000000000000000000000000000000000000000000000000000000000000000000000000000000000000000000000000000000000000000000000000000000000000000000000000000000000000000000000000000000000000000000000000000000000000000000000000000
310
00000000000000000000000000000000000000000000000000000000000000000000000000000000000000000000000000000000000000000000000000000000000000000000000000000000000000000000000000000000000000000000000000000000000000000000000000000000000000000000000000000000000000
310
00000000000000000000000000000000000000000000000000000000000000000000000000000000000000000000000000000000000000000000000000000000000000000000000000000000000000000000000000000000000000000000000000000000000000000000000000000000000000000000000000000000000000
310
00000000000000000000000000000000000000000000000000000000000000000000000000000000000000000000000000000000000000000000000000000000000000000000000000000000000000000000000000000000000000000000000000000000000000000000000000000000000000000000000000000000000000
310
00000000000000000000000000000000000000000000000000000000000000000000000000000000000000000000000000000000000000000000000000000000000000000000000000000000000000000000000000000000000000000000000000000000000000000000000000000000000000000000000000000000000000
310
00000000000000000000000000000000000000000000000000000000000000000000000000000000000000000000000000000000000000000000000000000000000000000000000000000000000000000000000000000000000000000000000000000000000000000000000000000000000000000000000000000000000000
310
00000000000000000000000000000000000000000000000000000000000000000000000000000000000000000000000000000000000000000000000000000000000000000000000000000000000000000000000000000000000000000000000000000000000000000000000000000000000000000000000000000000000000
310
00000000000000000000000000000000000000000000000000000000000000000000000000000000000000000000000000000000000000000000000000000000000000000000000000000000000000000000000000000000000000000000000000000000000000000000000000000000000000000000000000000000000000
310
00000000000000000000000000000000000000000000000000000000000000000000000000000000000000000000000000000000000000000000000000000000000000000000000000000000000000000000000000000000000000000000000000000000000000000000000000000000000000000000000000000000000000
310
00000000000000000000000000000000000000000000000000000000000000000000000000000000000000000000000000000000000000000000000000000000000000000000000000000000000000000000000000000000000000000000000000000000000000000000000000000000000000000000000000000000000000
310
00000000000000000000000000000000000000000000000000000000000000000000000000000000000000000000000000000000000000000000000000000000000000000000000000000000000000000000000000000000000000000000000000000000000000000000000000000000000000000000000000000000000000
310
00000000000000000000000000000000000000000000000000000000000000000000000000000000000000000000000000000000000000000000000000000000000000000000000000000000000000000000000000000000000000000000000000000000000000000000000000000000000000000000000000000000000000
310
00000000000000000000000000000000000000000000000000000000000000000000000000000000000000000000000000000000000000000000000000000000000000000000000000000000000000000000000000000000000000000000000000000000000000000000000000000000000000000000000000000000000000
310
00000000000000000000000000000000000000000000000000000000000000000000000000000000000000000000000000000000000000000000000000000000000000000000000000000000000000000000000000000000000000000000000000000000000000000000000000000000000000000000000000000000000000
310
00000000000000000000000000000000000000000000000000000000000000000000000000000000000000000000000000000000000000000000000000000000000000000000000000000000000000000000000000000000000000000000000000000000000000000000000000000000000000000000000000000000000000
310
00000000000000000000000000000000000000000000000000000000000000000000000000000000000000000000000000000000000000000000000000000000000000000000000000000000000000000000000000000000000000000000000000000000000000000000000000000000000000000000000000000000000000
310
00000000000000000000000000000000000000000000000000000000000000000000000000000000000000000000000000000000000000000000000000000000000000000000000000000000000000000000000000000000000000000000000000000000000000000000000000000000000000000000000000000000000000
310
00000000000000000000000000000000000000000000000000000000000000000000000000000000000000000000000000000000000000000000000000000000000000000000000000000000000000000000000000000000000000000000000000000000000000000000000000000000000000000000000000000000000000
310
00000000000000000000000000000000000000000000000000000000000000000000000000000000000000000000000000000000000000000000000000000000000000000000000000000000000000000000000000000000000000000000000000000000000000000000000000000000000000000000000000000000000000
310
00000000000000000000000000000000000000000000000000000000000000000000000000000000000000000000000000000000000000000000000000000000000000000000000000000000000000000000000000000000000000000000000000000000000000000000000000000000000000000000000000000000000000
310
00000000000000000000000000000000000000000000000000000000000000000000000000000000000000000000000000000000000000000000000000000000000000000000000000000000000000000000000000000000000000000000000000000000000000000000000000000000000000000000000000000000000000
310
00000000000000000000000000000000000000000000000000000000000000000000000000000000000000000000000000000000000000000000000000000000000000000000000000000000000000000000000000000000000000000000000000000000000000000000000000000000000000000000000000000000000000
310
00000000000000000000000000000000000000000000000000000000000000000000000000000000000000000000000000000000000000000000000000000000000000000000000000000000000000000000000000000000000000000000000000000000000000000000000000000000000000000000000000000000000000
310
00000000000000000000000000000000000000000000000000000000000000000000000000000000000000000000000000000000000000000000000000000000000000000000000000000000000000000000000000000000000000000000000000000000000000000000000000000000000000000000000000000000000000
310
00000000000000000000000000000000000000000000000000000000000000000000000000000000000000000000000000000000000000000000000000000000000000000000000000000000000000000000000000000000000000000000000000000000000000000000000000000000000000000000000000000000000000
310
00000000000000000000000000000000000000000000000000000000000000000000000000000000000000000000000000000000000000000000000000000000000000000000000000000000000000000000000000000000000000000000000000000000000000000000000000000000000000000000000000000000000000
310
00000000000000000000000000000000000000000000000000000000000000000000000000000000000000000000000000000000000000000000000000000000000000000000000000000000000000000000000000000000000000000000000000000000000000000000000000000000000000000000000000000000000000
310
00000000000000000000000000000000000000000000000000000000000000000000000000000000000000000000000000000000000000000000000000000000000000000000000000000000000000000000000000000000000000000000000000000000000000000000000000000000000000000000000000000000000000
310
00000000000000000000000000000000000000000000000000000000000000000000000000000000000000000000000000000000000000000000000000000000000000000000000000000000000000000000000000000000000000000000000000000000000000000000000000000000000000000000000000000000000000
310
00000000000000000000000000000000000000000000000000000000000000000000000000000000000000000000000000000000000000000000000000000000000000000000000000000000000000000000000000000000000000000000000000000000000000000000000000000000000000000000000000000000000000
310
00000000000000000000000000000000000000000000000000000000000000000000000000000000000000000000000000000000000000000000000000000000000000000000000000000000000000000000000000000000000000000000000000000000000000000000000000000000000000000000000000000000000000
310
00000000000000000000000000000000000000000000000000000000000000000000000000000000000000000000000000000000000000000000000000000000000000000000000000000000000000000000000000000000000000000000000000000000000000000000000000000000000000000000000000000000000000
310
00000000000000000000000000000000000000000000000000000000000000000000000000000000000000000000000000000000000000000000000000000000000000000000000000000000000000000000000000000000000000000000000000000000000000000000000000000000000000000000000000000000000000
310
00000000000000000000000000000000000000000000000000000000000000000000000000000000000000000000000000000000000000000000000000000000000000000000000000000000000000000000000000000000000000000000000000000000000000000000000000000000000000000000000000000000000000
310
00000000000000000000000000000000000000000000000000000000000000000000000000000000000000000000000000000000000000000000000000000000000000000000000000000000000000000000000000000000000000000000000000000000000000000000000000000000000000000000000000000000000000
310
00000000000000000000000000000000000000000000000000000000000000000000000000000000000000000000000000000000000000000000000000000000000000000000000000000000000000000000000000000000000000000000000000000000000000000000000000000000000000000000000000000000000000
310
00000000000000000000000000000000000000000000000000000000000000000000000000000000000000000000000000000000000000000000000000000000000000000000000000000000000000000000000000000000000000000000000000000000000000000000000000000000000000000000000000000000000000
310
00000000000000000000000000000000000000000000000000000000000000000000000000000000000000000000000000000000000000000000000000000000000000000000000000000000000000000000000000000000000000000000000000000000000000000000000000000000000000000000000000000000000000
310
00000000000000000000000000000000000000000000000000000000000000000000000000000000000000000000000000000000000000000000000000000000000000000000000000000000000000000000000000000000000000000000000000000000000000000000000000000000000000000000000000000000000000
310
00000000000000000000000000000000000000000000000000000000000000000000000000000000000000000000000000000000000000000000000000000000000000000000000000000000000000000000000000000000000000000000000000000000000000000000000000000000000000000000000000000000000000
310
00000000000000000000000000000000000000000000000000000000000000000000000000000000000000000000000000000000000000000000000000000000000000000000000000000000000000000000000000000000000000000000000000000000000000000000000000000000000000000000000000000000000000
310
00000000000000000000000000000000000000000000000000000000000000000000000000000000000000000000000000000000000000000000000000000000000000000000000000000000000000000000000000000000000000000000000000000000000000000000000000000000000000000000000000000000000000
310
00000000000000000000000000000000000000000000000000000000000000000000000000000000000000000000000000000000000000000000000000000000000000000000000000000000000000000000000000000000000000000000000000000000000000000000000000000000000000000000000000000000000000
310
00000000000000000000000000000000000000000000000000000000000000000000000000000000000000000000000000000000000000000000000000000000000000000000000000000000000000000000000000000000000000000000000000000000000000000000000000000000000000000000000000000000000000
310
00000000000000000000000000000000000000000000000000000000000000000000000000000000000000000000000000000000000000000000000000000000000000000000000000000000000000000000000000000000000000000000000000000000000000000000000000000000000000000000000000000000000000
310
00000000000000000000000000000000000000000000000000000000000000000000000000000000000000000000000000000000000000000000000000000000000000000000000000000000000000000000000000000000000000000000000000000000000000000000000000000000000000000000000000000000000000
310
00000000000000000000000000000000000000000000000000000000000000000000000000000000000000000000000000000000000000000000000000000000000000000000000000000000000000000000000000000000000000000000000000000000000000000000000000000000000000000000000000000000000000
310
00000000000000000000000000000000000000000000000000000000000000000000000000000000000000000000000000000000000000000000000000000000000000000000000000000000000000000000000000000000000000000000000000000000000000000000000000000000000000000000000000000000000000
310
00000000000000000000000000000000000000000000000000000000000000000000000000000000000000000000000000000000000000000000000000000000000000000000000000000000000000000000000000000000000000000000000000000000000000000000000000000000000000000000000000000000000000
310
00000000000000000000000000000000000000000000000000000000000000000000000000000000000000000000000000000000000000000000000000000000000000000000000000000000000000000000000000000000000000000000000000000000000000000000000000000000000000000000000000000000000000
310
00000000000000000000000000000000000000000000000000000000000000000000000000000000000000000000000000000000000000000000000000000000000000000000000000000000000000000000000000000000000000000000000000000000000000000000000000000000000000000000000000000000000000
310
00000000000000000000000000000000000000000000000000000000000000000000000000000000000000000000000000000000000000000000000000000000000000000000000000000000000000000000000000000000000000000000000000000000000000000000000000000000000000000000000000000000000000
310
00000000000000000000000000000000000000000000000000000000000000000000000000000000000000000000000000000000000000000000000000000000000000000000000000000000000000000000000000000000000000000000000000000000000000000000000000000000000000000000000000000000000000
310
00000000000000000000000000000000000000000000000000000000000000000000000000000000000000000000000000000000000000000000000000000000000000000000000000000000000000000000000000000000000000000000000000000000000000000000000000000000000000000000000000000000000000
310
00000000000000000000000000000000000000000000000000000000000000000000000000000000000000000000000000000000000000000000000000000000000000000000000000000000000000000000000000000000000000000000000000000000000000000000000000000000000000000000000000000000000000
310
00000000000000000000000000000000000000000000000000000000000000000000000000000000000000000000000000000000000000000000000000000000000000000000000000000000000000000000000000000000000000000000000000000000000000000000000000000000000000000000000000000000000000
310
00000000000000000000000000000000000000000000000000000000000000000000000000000000000000000000000000000000000000000000000000000000000000000000000000000000000000000000000000000000000000000000000000000000000000000000000000000000000000000000000000000000000000
310
00000000000000000000000000000000000000000000000000000000000000000000000000000000000000000000000000000000000000000000000000000000000000000000000000000000000000000000000000000000000000000000000000000000000000000000000000000000000000000000000000000000000000
310
00000000000000000000000000000000000000000000000000000000000000000000000000000000000000000000000000000000000000000000000000000000000000000000000000000000000000000000000000000000000000000000000000000000000000000000000000000000000000000000000000000000000000
310
0000000000000000000000000000000000000000000000000000000000000000000000000000000000000000000000000000000000000000000000000000BE000000000000000000000000000000000000000000000000000000000000000000000000000000000000000000000000000000000000000000000000BE000000
310
00000000000000000000000000000000000000000000000000000000000000000000000000000000000000000000000000000000000000000000000000000000000000000000000000000000000000000000000000000000000000000000000000000000000000000000000000000000000000000000000000000000000000
310
00000000000000000000000000000000000000000000000000000000000000000000000000000000000000000000000000000000000000000000000000000000BEBEBEBEBEBEBEBEBEBEBEBEBEBEBEBEBEBEBEBEBEBEBEBEBEBEBEBEBEBEBEBEBEBEBEBEBEBEBEBEBEBEBEBEBEBEBEBEBEBEBEBEBEBEBEBEBEBEBEBEBEBE00
310
00000000000000000000000000000000000000000000000000000000000000000000000000000000000000000000000000000000000000000000000000000000000000000000000000000000000000000000000000000000000000000000000000000000000000000000000000000000000000000000000000000000000000
310
000000000000000000000000000000000000000000000000000000000000000000000000000000000000000000000000000000000000000000000000000000000000BE000000000000000000000000000000000000000000000000000000BEBEBEBEBE00000000000000000000000000000000000000000000000000000000
310
BE000000000000000000000000000000000000000000000000000000000000000000000000000000000000000000000000000000000000000000000000000000000000000000000000000000000000000000000000000000000000000000000000000000000000000000000000000000000000000000000000000000000000
310
0000000000000000000000000000000000000000000000000000000000000000000000000000000000000000000000000000000000000000000000000000000000000000BE00000000000000000000000000000000000000000000000000000000000000000000000000000000000000000000000000000000000000000000
310
0000BE00000000000000000000000000000000000000000000000000000000000000000000000000000000000000000000000000000000000000000000000000000000000000000000000000000000000000000000000000000000000000000000000000000000000000000000000000000000000000000000000000000000
310
00000000000000000000000000000000000000000000000000000000000000000000000000000000000000000000000000000000000000000000000000000000000000000000BE0000000000000000000000000000000000000000000000000000000000000000000000000000000000000000000000000000000000000000
310
00000000BE0000000000000000000000000000000000000000000000000000000000000000000000000000000000000000000000000000000000000000000000000000000000000000000000000000000000000000000000000000000000000000000000000000000000000000000000000000000000000000000000000000
310
000000000000000000000000000000000000000000000000000000000000000000000000000000000000000000000000000000000000000000000000000000000000BEBEBEBEBEBEBEBEC3C3C3C3C3C3C3C3C3C3C3C3C3C3C3C3C3C3C3C3C3C3C3C3C3C3C3C3C3C3C3C3C3C3C3C3C3C3C3C3C3C3C3C3C3C3C3C3C3C3C3C3C3
310
C3C3C3C3C3C3BE000000000000000000000000000000000000000000000000000000000000000000000000000000000000000000000000000000000000000000000000000000000000000000000000000000000000000000000000000000000000000000000000000000000000000000000000000000000000000000000000
310
000000000000000000000000000000000000000000000000000000000000000000000000000000000000000000000000000000000000000000000000000000000000000000BE00000000C300000000000000000000000000000000000000000000000000000000000000000000000000000000000000000000000000000000
310
0000000000000000C300000000000000000000000000000000000000000000000000000000000000000000000000000000000000000000000000000000000000000000000000000000000000000000000000000000000000000000000000000000000000000000000000000000000000000000000000000000000000000000
310
0000000000000000000000000000000000000000000000000000000000000000000000000000000000000000000000000000000000000000000000000000000000000000000000BE00000000C30000000000000000000000000000000000000000000000000000000000000000000000000000000000000000000000000000
310
00000000000000000000C30000000000000000000000000000000000000000000000000000000000000000000000000000000000000000000000000000000000000000000000000000000000000000000000000000000000000000000000000000000000000000000000000000000000000000000000000000000000000000
310
00000000000000000000000000000000000000000000000000000000000000000000000000000000000000000000000000000000000000000000000000000000000000000000000000BE00000000C3000000000000000000000000000000000000000000000000000000000000000000000000000000000000000000000000
310
000000000000000000000000C3000000000000000000000000000000000000000000000000000000000000000000000000000000000000000000000000000000000000000000000000000000000000000000000000000000000000000000000000000000000000000000000000000000000000000000000000000000000000
310
000000000000000000000000000000000000000000000000000000000000000000000000000000000000000000000000000000000000000000000000000000000000000000000000000000BE00000000C300000000000000000000000000000000000000000000000000000000000000000000000000000000000000000000
310
0000000000000000000000000000C300000000000000000000000000000000000000000000000000000000000000000000000000000000000000000000000000000000000000000000000000000000000000000000000000000000000000000000000000000000000000000000000000000000000000000000000000000000
310
0000000000000000000000000000000000000000000000000000000000000000000000000000000000000000000000000000000000000000000000000000000000000000000000000000000000BE00000000C30000000000000000000000000000000000000000000000000000000000000000000000000000000000000000
310
00000000000000000000000000000000C30000000000000000000000000000000000000000000000000000000000000000000000000000000000000000000000000000000000000000000000000000000000000000000000000000000000000000000000000000000000000000000000000000000000000000000000000000
310
00000000000000000000000000000000000000000000000000000000000000000000000000000000000000000000000000000000000000000000000000000000000000000000000000000000000000BE00000000C3000000000000000000000000000000000000000000000000000000000000000000000000000000000000
310
000000000000000000000000000000000000C3000000000000000000000000000000000000000000000000000000000000000000000000000000000000000000000000000000000000000000000000000000000000000000000000000000000000000000000000000000000000000000000000000000000000000000000000
310
000000000000000000000000000000000000000000000000000000000000000000000000000000000000000000000000000000000000000000000000000000000000000000000000000000000000000000BE00000000C300000000000000000000000000000000000000000000000000000000000000000000000000000000
310
0000000000000000000000000000000000000000C300000000000000000000000000000000000000000000000000000000000000000000000000000000000000000000000000000000000000000000000000000000000000000000000000000000000000000000000000000000000000000000000000000000000000000000
310
0000000000000000000000000000000000000000000000000000000000000000000000000000000000000000000000000000000000000000000000000000000000000000000000000000000000000000000000BE00000000C30000000000000000000000000000000000000000000000000000000000000000000000000000
310
00000000000000000000000000000000000000000000C30000000000000000000000000000000000000000000000000000000000000000000000000000000000000000000000000000000000000000000000000000000000000000000000000000000000000000000000000000000000000000000000000000000000000000
310
00000000000000000000000000000000000000000000000000000000000000000000000000000000000000000000000000000000000000000000000000000000000000000000000000000000000000000000000000BE00000000C3000000000000000000000000000000000000000000000000000000000000000000000000
310
000000000000000000000000000000000000000000000000C3000000000000000000000000000000000000000000000000000000000000000000000000000000000000000000000000000000000000000000000000000000000000000000000000000000000000000000000000000000000000000000000000000000000000
310
000000000000000000000000000000000000000000000000000000000000000000000000000000000000000000000000000000000000000000000000000000000000000000000000000000000000000000000000000000BE00000000C300000000000000000000000000000000000000000000000000000000000000000000
310
0000000000000000000000000000000000000000000000000000C300000000000000000000000000000000000000000000000000000000000000000000000000000000000000000000000000000000000000000000000000000000000000000000000000000000000000000000000000000000000000000000000000000000
310
0000000000000000000000000000000000000000000000000000000000000000000000000000000000000000000000000000000000000000000000000000000000000000000000000000000000000000000000000000000000BE00000000C30000000000000000000000000000000000000000000000000000000000000000
310
00000000000000000000000000000000000000000000000000000000C30000000000000000000000000000000000000000000000000000000000000000000000000000000000000000000000000000000000000000000000000000000000000000000000000000000000000000000000000000000000000000000000000000
310
00000000000000000000000000000000000000000000000000000000000000000000000000000000000000000000000000000000000000000000000000000000000000000000000000000000000000000000000000000000000000BE00000000C3000000000000000000000000000000000000000000000000000000000000
310
000000000000000000000000000000000000000000000000000000000000C3000000000000000000000000000000000000000000000000000000000000000000000000000000000000000000000000000000000000000000000000000000000000000000000000000000000000000000000000000000000000000000000000
310
000000000000000000000000000000000000000000000000000000000000000000000000000000000000000000000000000000000000000000000000000000000000000000000000000000000000000000000000000000000000000000BE00000000C300000000000000000000000000000000000000000000000000000000
310
0000000000000000000000000000000000000000000000000000000000000000C300000000000000000000000000000000000000000000000000000000000000000000000000000000000000000000000000000000000000000000000000000000000000000000000000000000000000000000000000000000000000000000
310
000000000000000000000000000000000000000000000000000000000000000000000000000000000000000000000000000000000000000000000000000000000000000000000000000000000000000000000000000000000000000000BEBEBE00000000C30000000000000000000000000000000000000000000000000000
310
00000000000000000000000000000000000000000000000000000000000000000000C30000000000000000000000000000000000000000000000000000000000000000000000000000000000000000000000000000000000000000000000000000000000000000000000000000000000000000000000000000000000000000
310
0000000000000000000000000000000000000000000000000000000000000000000000000000000000000000000000000000000000000000000000000000000000000000000000000000000000000000000000000000000000000000000000BEBEBE00000000C3000000000000000000000000000000000000000000000000
310
000000000000000000000000000000000000000000000000000000000000000000000000C3000000000000000000000000000000000000000000000000000000000000000000000000000000000000000000000000000000000000000000000000000000000000000000000000000000000000000000000000000000000000
310
00000000000000000000000000000000000000000000000000000000000000000000000000000000000000000000000000000000000000000000000000000000000000000000000000000000000000000000000000000000000000000000000000BEBEBE00000000C300000000000000000000000000000000000000000000
310
0000000000000000000000000000000000000000000000000000000000000000000000000000C300000000000000000000000000000000000000000000000000000000000000000000000000000000000000000000000000000000000000000000000000000000000000000000000000000000000000000000000000000000
310
000000000000000000000000000000000000000000000000000000000000000000000000000000000000000000000000000000000000000000000000000000000000000000000000000000000000000000000000000000000000000000000000000000BEBEBE00000000C30000000000000000000000000000000000000000
310
00000000000000000000000000000000000000000000000000000000000000000000000000000000C30000000000000000000000000000000000000000000000000000000000000000000000000000000000000000000000000000000000000000000000000000000000000000000000000000000000000000000000000000
310
0000000000000000000000000000000000000000000000000000000000000000000000000000000000000000000000000000000000000000000000000000000000000000000000000000000000000000000000000000000000000000000000000000000000BEBEBE00000000C3000000000000000000000000000000000000
310
000000000000000000000000000000000000000000000000000000000000000000000000000000000000C3000000000000000000000000000000000000000000000000000000000000000000000000000000000000000000000000000000000000000000000000000000000000000000000000000000000000000000000000
310
000000000000000000000000000000000000000000000000000000000000000000000000000000000000000000000000000000000000000000000000000000000000000000000000000000000000000000000000000000000000000000000000000000000000000000BE00000000C300000000000000000000000000000000
310
0000000000000000000000000000000000000000000000000000000000000000000000000000000000000000C300000000000000000000000000000000000000000000000000000000000000000000000000000000000000000000000000000000000000000000000000000000000000000000000000000000000000000000
310
0000000000000000000000000000000000000000000000000000000000000000000000000000000000000000000000000000000000000000000000000000000000000000000000000000000000000000000000000000000000000000000000000000000000000000000000BE00000000C30000000000000000000000000000
310
00000000000000000000000000000000000000000000000000000000000000000000000000000000000000000000C30000000000000000000000000000000000000000000000000000000000000000000000000000000000000000000000000000000000000000000000000000000000000000000000000000000000000000
310
00000000000000000000000000000000000000000000000000000000000000000000000000000000000000000000000000000000000000000000000000000000000000000000000000000000000000000000000000000000000000000000000000000000000000000000000000BE00000000C3000000000000000000000000
310
000000000000000000000000000000000000000000000000000000000000000000000000000000000000000000000000C3000000000000000000000000000000000000000000000000000000000000000000000000000000000000000000000000000000000000000000000000000000000000000000000000000000000000
310
000000000000000000000000000000000000000000000000000000000000000000000000000000000000000000000000000000000000000000000000000000000000000000000000000000000000000000000000000000000000000000000000000000000000000000000000000000BE00000000C300000000000000000000
310
0000000000000000000000000000000000000000000000000000000000000000000000000000000000000000000000000000C300000000000000000000000000000000000000000000000000000000000000000000000000000000000000000000000000000000000000000000000000000000000000000000000000000000
310
0000000000000000000000000000000000000000000000000000000000000000000000000000000000000000000000000000000000000000000000000000000000000000000000000000000000000000000000000000000000000000000000000000000000000000000000000000000000BE00000000C30000000000000000
310
00000000000000000000000000000000000000000000000000000000000000000000000000000000000000000000000000000000C30000000000000000000000000000000000000000000000000000000000000000000000000000000000000000000000000000000000000000000000000000000000000000000000000000
310
00000000000000000000000000000000000000000000000000000000000000000000000000000000000000000000000000000000000000000000000000000000000000000000000000000000000000000000000000000000000000000000000000000000000000000000000000000000000000BE00000000C3000000000000
310
000000000000000000000000000000000000000000000000000000000000000000000000000000000000000000000000000000000000C3000000000000000000000000000000000000000000000000000000000000000000000000000000000000000000000000000000000000000000000000000000000000000000000000
310
000000000000000000000000000000000000000000000000000000000000000000000000000000000000000000000000000000000000000000000000000000000000000000000000000000000000000000000000000000000000000000000000000000000000000000000000000000000000000000BE00000000C300000000
310
0000000000000000000000000000000000000000000000000000000000000000000000000000000000000000000000000000000000000000C300000000000000000000000000000000000000000000000000000000000000000000000000000000000000000000000000000000000000000000000000000000000000000000
310
0000000000000000000000000000000000000000000000000000000000000000000000000000000000000000000000000000000000000000000000000000000000000000000000000000000000000000000000000000000000000000000000000000000000000000000000000000000000000000000000BE00000000C30000
310
00000000000000000000000000000000000000000000000000000000000000000000000000000000000000000000000000000000000000000000C30000000000000000000000000000000000000000000000000000000000000000000000000000000000000000000000000000000000000000000000000000000000000000
310
00000000000000000000000000000000000000000000000000000000000000000000000000000000000000000000000000000000000000000000000000000000000000000000000000000000000000000000000000000000000000000000000000000000000000000000000000000000000000000000000000BE00000000C3
310
00000000BE00000000000000000000000000000000000000000000000000000000000000000000000000000000000000000000000000000000000000C3000000000000000000000000000000000000000000000000000000000000000000000000000000000000000000000000000000000000000000000000000000000000
310
000000000000000000000000000000000000000000000000000000000000000000000000000000000000000000000000000000000000000000000000000000000000000000000000000000000000000000000000000000000000000000000000000000000000000000000000000000000000000000000000000000BE000000
310
00C3000000BEBE00000000000000000000000000000000000000000000000000000000000000000000000000000000000000000000000000000000000000C300000000000000000000000000000000000000000000000000000000000000000000000000000000000000000000000000000000000000000000000000000000
310
0000000000000000000000000000000000000000000000000000000000000000000000000000000000000000000000000000000000000000000000000000000000000000000000000000000000000000000000000000000000000000000000000000000000000000000000000000000000000000000000000000000000BE00
310
000000C30000BEBEBEBE000000000000000000000000000000000000000000000000000000000000000000000000000000000000000000000000000000000000C30000000000000000000000000000000000000000000000000000000000000000000000000000000000000000000000000000000000000000000000000000
310
00000000000000000000000000000000000000000000000000000000000000000000000000000000000000000000000000000000000000000000000000000000000000000000000000000000000000000000000000000000000000000000000000000000000000000000000000000000000000000000000000000000000000
310
BE00000000C30000BEBEBE00000000000000000000000000000000000000000000000000000000000000000000000000000000000000000000000000000000000000C3000000000000000000000000000000000000000000000000000000000000000000000000000000000000000000000000000000000000000000000000
310
00000000000000000000000000000000000000000000000000000000000000000000000000000000000000000000000000000000000000000000000000000000000000000000000000000000000000000000000000000000000000000000000000000000000000000000000000000000000000000000000000000000000000
310
0000BE00000000C3BEBE00000000000000000000000000000000000000000000000000000000000000000000000000000000000000000000000000000000000000000000C300000000000000000000000000000000000000000000000000000000000000000000000000000000000000000000000000000000000000000000
310
00000000000000000000000000000000000000000000000000000000000000000000000000000000000000000000000000000000000000000000000000000000000000000000000000000000000000000000000000000000000000000000000000000000000000000000000000000000000000000000000000000000000000
310
000000BEBEBEBEBEBEBEBEC3C3C3C3C3C3C3C3C3C3C3C3C3C3C3C3C3C3C3C3C3C3C3C3C3C3C3C3C3C3C3C3C3C3C3C3C3C3C3C3C3C3C3C3C3C3C3C3C3C3C3C3C3C3C3C3C3C3C3C30000000000000000000000000000000000000000000000000000000000000000000000000000000000000000000000000000000000000000
310
00000000000000000000000000000000000000000000000000000000000000000000000000000000000000000000000000000000000000000000000000000000000000000000000000000000000000000000000000000000000000000000000000000000000000000000000000000000000000000000000000000000000000
310
00000000000000000000000000000000000000000000000000000000000000000000000000000000000000000000000000000000000000000000000000000000000000000000000000000000000000000000000000000000000000000000000000000000000000000000000000000000000000000000000000000000000000
310
00000000000000000000000000000000000000000000000000000000000000000000000000000000000000000000000000000000000000000000000000000000000000000000000000000000000000000000000000000000000000000000000000000000000000000000000000000000000000000000000000000000000000
310
00000000000000000000000000000000000000000000000000000000000000000000000000000000000000000000000000000000000000000000000000000000000000000000000000000000000000000000000000000000000000000000000000000000000000000000000000000000000000000000000000000000000000
310
00000000000000000000000000000000000000000000000000000000000000000000000000000000000000000000000000000000000000000000000000000000000000000000000000000000000000000000000000000000000000000000000000000000000000000000000000000000000000000000000000000000000000
310
00000000000000000000000000000000000000000000000000000000000000000000000000000000000000000000000000000000000000000000000000000000000000000000000000000000000000000000000000000000000000000000000000000000000000000000000000000000000000000000000000000000000000
310
00000000000000000000000000000000000000000000000000000000000000000000000000000000000000000000000000000000000000000000000000000000000000000000000000000000000000000000000000000000000000000000000000000000000000000000000000000000000000000000000000000000000000
310
00000000000000000000000000000000000000000000000000000000000000000000000000000000000000000000000000000000000000000000000000000000000000000000000000000000000000000000000000000000000000000000000000000000000000000000000000000000000000000000000000000000000000
310
00000000000000000000000000000000000000000000000000000000000000000000000000000000000000000000000000000000000000000000000000000000000000000000000000000000000000000000000000000000000000000000000000000000000000000000000000000000000000000000000000000000000000
310
00000000000000000000000000000000000000000000000000000000000000000000000000000000000000000000000000000000000000000000000000000000000000000000000000000000000000000000000000000000000000000000000000000000000000000000000000000000000000000000000000000000000000
310
00000000000000000000000000000000000000000000000000000000000000000000000000000000000000000000000000000000000000000000000000000000000000000000000000000000000000000000000000000000000000000000000000000000000000000000000000000000000000000000000000000000000000
310
00000000000000000000000000000000000000000000000000000000000000000000000000000000000000000000000000000000000000000000000000000000000000000000000000000000000000000000000000000000000000000000000000000000000000000000000000000000000000000000000000000000000000
310
00000000000000000000000000000000000000000000000000000000000000000000000000000000000000000000000000000000000000000000000000000000000000000000000000000000000000000000000000000000000000000000000000000000000000000000000000000000000000000000000000000000000000
310
00000000000000000000000000000000000000000000000000000000000000000000000000000000000000000000000000000000000000000000000000000000000000000000000000000000000000000000000000000000000000000000000000000000000000000000000000000000000000000000000000000000000000
310
00000000000000000000000000000000000000000000000000000000000000000000000000000000000000000000000000000000000000000000000000000000000000000000000000000000000000000000000000000000000000000000000000000000000000000000000000000000000000000000000000000000000000
310
00000000000000000000000000000000000000000000000000000000000000000000000000000000000000000000000000000000000000000000000000000000000000000000000000000000000000000000000000000000000000000000000000000000000000000000000000000000000000000000000000000000000000
310
00000000000000000000000000000000000000000000000000000000000000000000000000000000000000000000000000000000000000000000000000000000000000000000000000000000000000000000000000000000000000000000000000000000000000000000000000000000000000000000000000000000000000
310
00000000000000000000000000000000000000000000000000000000000000000000000000000000000000000000000000000000000000000000000000000000000000000000000000000000000000000000000000000000000000000000000000000000000000000000000000000000000000000000000000000000000000
310
00000000000000000000000000000000000000000000000000000000000000000000000000000000000000000000000000000000000000000000000000000000000000000000000000000000000000000000000000000000000000000000000000000000000000000000000000000000000000000000000000000000000000
310
00000000000000000000000000000000000000000000000000000000000000000000000000000000000000000000000000000000000000000000000000000000000000000000000000000000000000000000000000000000000000000000000000000000000000000000000000000000000000000000000000000000000000
310
00000000000000000000000000000000000000000000000000000000000000000000000000000000000000000000000000000000000000000000000000000000000000000000000000000000000000000000000000000000000000000000000000000000000000000000000000000000000000000000000000000000000000
310
00000000000000000000000000000000000000000000000000000000000000000000000000000000000000000000000000000000000000000000000000000000000000000000000000000000000000000000000000000000000000000000000000000000000000000000000000000000000000000000000000000000000000
310
00000000000000000000000000000000000000000000000000000000000000000000000000000000000000000000000000000000000000000000000000000000000000000000000000000000000000000000000000000000000000000000000000000000000000000000000000000000000000000000000000000000000000
310
00000000000000000000000000000000000000000000000000000000000000000000000000000000000000000000000000000000000000000000000000000000000000000000000000000000000000000000000000000000000000000000000000000000000000000000000000000000000000000000000000000000000000
310
00000000000000000000000000000000000000000000000000000000000000000000000000000000000000000000000000000000000000000000000000000000000000000000000000000000000000000000000000000000000000000000000000000000000000000000000000000000000000000000000000000000000000
310
00000000000000000000000000000000000000000000000000000000000000000000000000000000000000000000000000000000000000000000000000000000000000000000000000000000000000000000000000000000000000000000000000000000000000000000000000000000000000000000000000000000000000
310
00000000000000000000000000000000000000000000000000000000000000000000000000000000000000000000000000000000000000000000000000000000000000000000000000000000000000000000000000000000000000000000000000000000000000000000000000000000000000000000000000000000000000
310
00000000000000000000000000000000000000000000000000000000000000000000000000000000000000000000000000000000000000000000000000000000000000000000000000000000000000000000000000000000000000000000000000000000000000000000000000000000000000000000000000000000000000
310
00000000000000000000000000000000000000000000000000000000000000000000000000000000000000000000000000000000000000000000000000000000000000000000000000000000000000000000000000000000000000000000000000000000000000000000000000000000000000000000000000000000000000
310
00000000000000000000000000000000000000000000000000000000000000000000000000000000000000000000000000000000000000000000000000000000000000000000000000000000000000000000000000000000000000000000000000000000000000000000000000000000000000000000000000000000000000
310
00000000000000000000000000000000000000000000000000000000000000000000000000000000000000000000000000000000000000000000000000000000000000000000000000000000000000000000000000000000000000000000000000000000000000000000000000000000000000000000000000000000000000
310
00000000000000000000000000000000000000000000000000000000000000000000000000000000000000000000000000000000000000000000000000000000000000000000000000000000000000000000000000000000000000000000000000000000000000000000000000000000000000000000000000000000000000
310
00000000000000000000000000000000000000000000000000000000000000000000000000000000000000000000000000000000000000000000000000000000000000000000000000000000000000000000000000000000000000000000000000000000000000000000000000000000000000000000000000000000000000
310
00000000000000000000000000000000000000000000000000000000000000000000000000000000000000000000000000000000000000000000000000000000000000000000000000000000000000000000000000000000000000000000000000000000000000000000000000000000000000000000000000000000000000
310
00000000000000000000000000000000000000000000000000000000000000000000000000000000000000000000000000000000000000000000000000000000000000000000000000000000000000000000000000000000000000000000000000000000000000000000000000000000000000000000000000000000000000
310
00000000000000000000000000000000000000000000000000000000000000000000000000000000000000000000000000000000000000000000000000000000000000000000000000000000000000000000000000000000000000000000000000000000000000000000000000000000000000000000000000000000000000
310
00000000000000000000000000000000000000000000000000000000000000000000000000000000000000000000000000000000000000000000000000000000000000000000000000000000000000000000000000000000000000000000000000000000000000000000000000000000000000000000000000000000000000
310
00000000000000000000000000000000000000000000000000000000000000000000000000000000000000000000000000000000000000000000000000000000000000000000000000000000000000000000000000000000000000000000000000000000000000000000000000000000000000000000000000000000000000
310
00000000000000000000000000000000000000000000000000000000000000000000000000000000000000000000000000000000000000000000000000000000000000000000000000000000000000000000000000000000000000000000000000000000000000000000000000000000000000000000000000000000000000
310
00000000000000000000000000000000000000000000000000000000000000000000000000000000000000000000000000000000000000000000000000000000000000000000000000000000000000000000000000000000000000000000000000000000000000000000000000000000000000000000000000000000000000
310
00000000000000000000000000000000000000000000000000000000000000000000000000000000000000000000000000000000000000000000000000000000000000000000000000000000000000000000000000000000000000000000000000000000000000000000000000000000000000000000000000000000000000
310
000000000000000000000000000000000000000000000000000000000000000000000000000000000000000000000000F5F5F5F500F5F500F5F5F5F5F5F5F5F5F5F5F5F5F5F5F5F50000000000F5F5F5F5F5F5F5F5F5F5F5F5F5F5F5F5F5F5F5F5F500F5F5F5F5F5F5F5F5F500000000000000000000000000000000000000
310
00000000000000000000000000000000000000000000000000000000000000000000000000000000000000000000000000000000000000000000000000000000000000000000000000000000000000000000000000000000000000000000000000000000000000000000000000000000000000000000000000000000000000
310
0000000000000000000000000000000000000000000000000000000000000000000000000000000000000000000000000000F5F50000F5F5F5F50000F5F5F5F5F5F5F5F500000000F5F5000000000000F5F500F5F5F5F5F5F5F500F5F50000F5F50000F5F5F50000F5F500F5F5F50000000000000000000000000000000000
310
00000000000000000000000000000000000000000000000000000000000000000000000000000000000000000000000000000000000000000000000000000000000000000000000000000000000000000000000000000000000000000000000000000000000000000000000000000000000000000000000000000000000000
310
0000000000000000000000000000000000000000000000000000000000000000000000000000000000000000000000000000000000F5F500F5F5F5F500F5F500F5F5F5F500F5F5000000F5F5000000000000F5F500F5F5F5F5F5F5F500F5F5F500F5F50000F5F5F50000F5F500F5F5F5000000000000000000000000000000
310
00000000000000000000000000000000000000000000000000000000000000000000000000000000000000000000000000000000000000000000000000000000000000000000000000000000000000000000000000000000000000000000000000000000000000000000000000000000000000000000000000000000000000
310
000000000000000000000000000000000000000000000000000000000000000000000000000000000000000000000000000000000000F5F5F5F5F5F5F5F50000F5F5F5F5F5F5F5F5F5F5F5F5F5F5000000000000F5F500F5F5F5F5F5F5F500F5F5F500F5F50000F5F5F50000F5F500F5F5F500000000000000000000000000
310
00000000000000000000000000000000000000000000000000000000000000000000000000000000000000000000000000000000000000000000000000000000000000000000000000000000000000000000000000000000000000000000000000000000000000000000000000000000000000000000000000000000000000
310
0000000000000000000000000000000000000000000000000000000000000000000000000000000000000000000000000000000000000000F5F5F5F500F5F500F5F5F5F500F5F5F5F5F5F5F5F5F5F5F500000000F5F5F5F5F5F5F5F5F5F5F5F500F5F5F500F5F5F500000000F5F5F5F5F5F5F5F50000000000000000000000
310
00000000000000000000000000000000000000000000000000000000000000000000000000000000000000000000000000000000000000000000000000000000000000000000000000000000000000000000000000000000000000000000000000000000000000000000000000000000000000000000000000000000000000
310
00000000000000000000000000000000000000000000000000000000000000000000000000000000000000000000000000000000000000000000000000000000000000000000000000000000000000000000000000000000000000000000000000000000000000000000000000000000000000000000000000000000000000
310
00000000000000000000000000000000000000000000000000000000000000000000000000000000000000000000000000000000000000000000000000000000000000000000000000000000000000000000000000000000000000000000000000000000000000000000000000000000000000000000000000000000000000
310
00000000000000000000000000000000000000000000000000000000000000000000000000000000000000000000000000000000000000000000000000000000000000000000000000000000000000000000000000000000000000000000000000000000000000000000000000000000000000000000000000000000000000
310
00000000000000000000000000000000000000000000000000000000000000000000000000000000000000000000000000000000000000000000000000000000000000000000000000000000000000000000000000000000000000000000000000000000000000000000000000000000000000000000000000000000000000
310
00000000000000000000000000000000000000000000000000000000000000000000000000000000000000000000000000000000000000000000000000000000000000000000000000000000000000000000000000000000000000000000000000000000000000000000000000000000000000000000000000000000000000
310
00000000000000000000000000000000000000000000000000000000000000000000000000000000000000000000000000000000000000000000000000000000000000000000000000000000000000000000000000000000000000000000000000000000000000000000000000000000000000000000000000000000000000
310
00000000000000000000000000000000000000000000000000000000000000000000000000000000000000000000000000000000000000000000000000000000000000000000000000000000000000000000000000000000000000000000000000000000000000000000000000000000000000000000000000000000000000
310
00000000000000000000000000000000000000000000000000000000000000000000000000000000000000000000000000000000000000000000000000000000000000000000000000000000000000000000000000000000000000000000000000000000000000000000000000000000000000000000000000000000000000
310
00000000000000000000000000000000000000000000000000000000000000000000000000000000000000000000000000000000000000000000000000000000000000000000000000000000000000000000000000000000000000000000000000000000000000000000000000000000000000000000000000000000000000
310
00000000000000000000000000000000000000000000000000000000000000000000000000000000000000000000000000000000000000000000000000000000000000000000000000000000000000000000000000000000000000000000000000000000000000000000000000000000000000000000000000000000000000
310
00000000000000000000000000000000000000000000000000000000000000000000000000000000000000000000000000000000000000000000000000000000000000000000000000000000000000000000000000000000000000000000000000000000000000000000000000000000000000000000000000000000000000
310
00000000000000000000000000000000000000000000000000000000000000000000000000000000000000000000000000000000000000000000000000000000000000000000000000000000000000000000000000000000000000000000000000000000000000000000000000000000000000000000000000000000000000
310
00000000000000000000000000000000000000000000000000000000000000000000000000000000000000000000000000000000000000000000000000000000000000000000000000000000000000000000000000000000000000000000000000000000000000000000000000000000000000000000000000000000000000
310
00000000000000000000000000000000000000000000000000000000000000000000000000000000000000000000000000000000000000000000000000000000000000000000000000000000000000000000000000000000000000000000000000000000000000000000000000000000000000000000000000000000000000
310
00000000000000000000000000000000000000000000000000000000000000000000000000000000000000000000000000000000000000000000000000000000000000000000000000000000000000000000000000000000000000000000000000000000000000000000000000000000000000000000000000000000000000
310
00000000000000000000000000000000000000000000000000000000000000000000000000000000000000000000000000000000000000000000000000000000000000000000000000000000000000000000000000000000000000000000000000000000000000000000000000000000000000000000000000000000000000
310
00000000000000000000000000000000000000000000000000000000000000000000000000000000000000000000000000000000000000000000000000000000000000000000000000000000000000000000000000000000000000000000000000000000000000000000000000000000000000000000000000000000000000
310
00000000000000000000000000000000000000000000000000000000000000000000000000000000000000000000000000000000000000000000000000000000000000000000000000000000000000000000000000000000000000000000000000000000000000000000000000000000000000000000000000000000000000
310
00000000000000000000000000000000000000000000000000000000000000000000000000000000000000000000000000000000000000000000000000000000000000000000000000000000000000000000000000000000000000000000000000000000000000000000000000000000000000000000000000000000000000
310
00000000000000000000000000000000000000000000000000000000000000000000000000000000000000000000000000000000000000000000000000000000000000000000000000000000000000000000000000000000000000000000000000000000000000000000000000000000000000000000000000000000000000
310
00000000000000000000000000000000000000000000000000000000000000000000000000000000000000000000000000000000000000000000000000000000000000000000000000000000000000000000000000000000000000000000000000000000000000000000000000000000000000000000000000000000000000
310
00000000000000000000000000000000000000000000000000000000000000000000000000000000000000000000000000000000000000000000000000000000000000000000000000000000000000000000000000000000000000000000000000000000000000000000000000000000000000000000000000000000000000
310
00000000000000000000000000000000000000000000000000000000000000000000000000000000000000000000000000000000000000000000000000000000000000000000000000000000000000000000000000000000000000000000000000000000000000000000000000000000000000000000000000000000000000
310
00000000000000000000000000000000000000000000000000000000000000000000000000000000000000000000000000000000000000000000000000000000000000000000000000000000000000000000000000000000000000000000000000000000000000000000000000000000000000000000000000000000000000
310
00000000000000000000000000000000000000000000000000000000000000000000000000000000000000000000000000000000000000000000000000000000000000000000000000000000000000000000000000000000000000000000000000000000000000000000000000000000000000000000000000000000000000
310
00000000000000000000000000000000000000000000000000000000000000000000000000000000000000000000000000000000000000000000000000000000000000000000000000000000000000000000000000000000000000000000000000000000000000000000000000000000000000000000000000000000000000
310
00000000000000000000000000000000000000000000000000000000000000000000000000000000000000000000000000000000000000000000000000000000000000000000000000000000000000000000000000000000000000000000000000000000000000000000000000000000000000000000000000000000000000
310
00000000000000000000000000000000000000000000000000000000000000000000000000000000000000000000000000000000000000000000000000000000000000000000000000000000000000000000000000000000000000000000000000000000000000000000000000000000000000000000000000000000000000
310
00000000000000000000000000000000000000000000000000000000000000000000000000000000000000000000000000000000000000000000000000000000000000000000000000000000000000000000000000000000000000000000000000000000000000000000000000000000000000000000000000000000000000
310
00000000000000000000000000000000000000000000000000000000000000000000000000000000000000000000000000000000000000000000000000000000000000000000000000000000000000000000000000000000000000000000000000000000000000000000000000000000000000000000000000000000000000
310
00000000000000000000000000000000000000000000000000000000000000000000000000000000000000000000000000000000000000000000000000000000000000000000000000000000000000000000000000000000000000000000000000000000000000000000000000000000000000000000000000000000000000
310
00000000000000000000000000000000000000000000000000000000000000000000000000000000000000000000000000000000000000000000000000000000000000000000000000000000000000000000000000000000000000000000000000000000000000000000000000000000000000000000000000000000000000
310
00000000000000000000000000000000000000000000000000000000000000000000000000000000000000000000000000000000000000000000000000000000000000000000000000000000000000000000000000000000000000000000000000000000000000000000000000000000000000000000000000000000000000
310
00000000000000000000000000000000000000000000000000000000000000000000000000000000000000000000000000000000000000000000000000000000000000000000000000000000000000000000000000000000000000000000000000000000000000000000000000000000000000000000000000000000000000
310
00000000000000000000000000000000000000000000000000000000000000000000000000000000000000000000000000000000000000000000000000000000000000000000000000000000000000000000000000000000000000000000000000000000000000000000000000000000000000000000000000000000000000
310
00000000000000000000000000000000000000000000000000000000000000000000000000000000000000000000000000000000000000000000000000000000000000000000000000000000000000000000000000000000000000000000000000000000000000000000000000000000000000000000000000000000000000
310
00000000000000000000000000000000000000000000000000000000000000000000000000000000000000000000000000000000000000000000000000000000000000000000000000000000000000000000000000000000000000000000000000000000000000000000000000000000000000000000000000000000000000
310
00000000000000000000000000000000000000000000000000000000000000000000000000000000000000000000000000000000000000000000000000000000000000000000000000000000000000000000000000000000000000000000000000000000000000000000000000000000000000000000000000000000000000
310
00000000000000000000000000000000000000000000000000000000000000000000000000000000000000000000000000000000000000000000000000000000000000000000000000000000000000000000000000000000000000000000000000000000000000000000000000000000000000000000000000000000000000
310
00000000000000000000000000000000000000000000000000000000000000000000000000000000000000000000000000000000000000000000000000000000000000000000000000000000000000000000000000000000000000000000000000000000000000000000000000000000000000000000000000000000000000
310
00000000000000000000000000000000000000000000000000000000000000000000000000000000000000000000000000000000000000000000000000000000000000000000000000000000000000000000000000000000000000000000000000000000000000000000000000000000000000000000000000000000000000
310
00000000000000000000000000000000000000000000000000000000000000000000000000000000000000000000000000000000000000000000000000000000000000000000000000000000000000000000000000000000000000000000000000000000000000000000000000000000000000000000000000000000000000
310
00000000000000000000000000000000000000000000000000000000000000000000000000000000000000000000000000000000000000000000000000000000000000000000000000000000000000000000000000000000000000000000000000000000000000000000000000000000000000000000000000000000000000
310
00000000000000000000000000000000000000000000000000000000000000000000000000000000000000000000000000000000000000000000000000000000000000000000000000000000000000000000000000000000000000000000000000000000000000000000000000000000000000000000000000000000000000
310
00000000000000000000000000000000000000000000000000000000000000000000000000000000000000000000000000000000000000000000000000000000000000000000000000000000000000000000000000000000000000000000000000000000000000000000000000000000000000000000000000000000000000
310
00000000000000000000000000000000000000000000000000000000000000000000000000000000000000000000000000000000000000000000000000000000000000000000000000000000000000000000000000000000000000000000000000000000000000000000000000000000000000000000000000000000000000
310
0000000000000000000000000000000000000000000000000000000000000000
  0
XRECORD
  5
867
102
{ACAD_REACTORS
330
1F9
102
}
330
1F9
100
AcDbXrecord
280
     1
102
MATERIAL
148
0.0
149
0.0
149
0.0
 93
        0
 94
       63
282
     0
 72
     1
 77
     1
171
     1
175
     1
179
     1
273
     0
  0
XRECORD
  5
1FA
102
{ACAD_REACTORS
330
1F9
102
}
330
1F9
100
AcDbXrecord
280
     1
 70
     1
 90
429727718
  1
D62C5603-E3A1-4AEA-B7FB-FE5D8D0755AF
310
504B03040A0000080000CC70623B3DEE336E79000000790000001B0000006175746F6465736B2D64657369676E2D7061636B6167652E786D6C3C3F786D6C2076657273696F6E3D22312E302220656E636F64696E673D227574662D3822203F3E3C666F726D6174733E3C666F726D61743E687474703A2F2F736368656D612E
310
6175746F6465736B2E636F6D2F64657369676E2D7061636B6167652F323030393C2F666F726D61743E3C2F666F726D6174733E504B0304140006080800CC70623BD486FD9CA0000000F4000000130000005B436F6E74656E745F54797065735D2E786D6C7D8EC10E82300C865F65E91D8A1E8C310C0EEA1BF002731658846E
310
D98AC1B77784ABF1D8FE5FBFBF75BBCE937A534CCEB38643598122B6FEE978D0B0485F9C41B54DDD7D022595594E1A469170414C76A4D9A4D207E29CF43ECE46F218070CC6BECC4078ACAA135ACF422C856C0E68EA1BF5669944DDD7BCDE7B1F8E415D77AECB980613C2E4AC91FC167A2B244592486606FC29C8FD7F045B9A
310
EF7053A7E60B504B0304140006080800CC70623B853B8169EB0000007C01000008000000636F72652E786D6C8D90416EC3201045AF62CDB6C206821CC7C244919D9CA01740401C94182C03558F5F9C3852BBEB6A467FFE9B197D7EFC9E1EC5975982F5AE035262288C535E5B377690E21535501C055FBC8FBF6C503839990E
310
5619041F179FE64D52DE45E362569DD7661365082642A11EB9E920A89B99642953CC8E702F67A9EE7234257977194EC9EAE275C4EABCCF5EAD5940D4AC6F0E35A568B8F43562CD7046CD199FD07E60174276A7BE677B5EADB0E0D14EEFFB6A31321A0D82627C4084204C3F096B71DD52F6819B16635EADF63F509AF53FA164
310
5DDCD1EDDD17164090FCC8732078B56691CB33A85CD7DCC40F504B0304140006080800CC70623B55019EA25F0000007C00000007000000636E782E786D6C4DCB3B0E80201045D1AD90E915ED2CF8AC45050C11660C8261F98AB1B07AC9C97D42D718D865D3E909258CFD00CCE24AC6E326A164D74DC0B4128928FF32603847
310
2BA13128B1252AC747C6BAB984FC68F0B87FE8960A5C09FE86CFB69FBA01504B0304140006080800CC70623BDBABAAF470010000D40300000C0000006662782F636F72652E786D6CC553D16E823014FD95A6AF4B694182CC941A83FA05FB810A9511A125A5257EFE2E82712ECEB8A7F100CD39F7F69E734AF9FADC366850B6
310
AF8DCE7018308C942E4C59EB2AC3DE1D498AD15A706B8CFB56869196ADCAF00863C12B6B7C374385D14E6907A836A59A41D9F7CA615434B0C8705F7CAA5606D23BA8E84F41278B93AC54100640439DE0BDB320004D43C63716C7C399D30917DCFBBA9CD9BA8469F5B156168B24CED3F7248AC8769F27244EB73B92EED8862C
310
B7F13E0C179B3C8F979C8ECD82BBBABDAA2BAC924E9558448CBD9330242CFA08E3154B5651FCC6D215639C8EE5774DBE2B5F6CF2B5768B68963BB5F5588420E442FC700B1139D4CB01F450C1E918227C2E09DF070D8140C84E1E9AAB8F1340832A9CB13130A5F1376A908D57309505ECF2A0DF179C4E9D30F5B239B87E3823
310
7A79C6F31DE1A8A5AEC08474B03C7837EAE4938639B44E5932B833D2C6B6B279CDC613877FA26EE21F4A2A4C63EC7F29A2F301D1F9F7A0E37D145F504B0304140006080800CC70623B9C113CC27E0000009D0000000B0000006662782F636E782E786D6C4DCCDF0A83201C86E15B91DFB94BFB330DD428C8FB886521330DA7
310
6397BF1A1DECE883878F57749FCDA1B7892F1BBC047A23808C7F84D9FA55424E0BE6803A256208E9EF06C84F9B91703228B1C690F78B66B34CD9A5439DF5CF0BFBF65E35BCA1B8D6A5C6F540381E886698B5741C695F9503EBA150A2F8958E3DC3EA0B504B0304140006080800CC70623B7DF2F77C2A010000120200003100
310
00006662782F41393633353835312D344632462D344230382D423046372D3739314545314133324237412F636F72652E786D6C8D51DB8EC22014FC15C2939B0D2DB4B45643319AE817EC0F6041255A68B86CFCFC856D4D76DF7CE190393373060EDB3DC707F856CE6B6B7A480A0C81328395DA5C7B18C3057510EC3873D686
310
3F34088C18550F330C39BB3A1BA7051AAC09CA84841A2BD5020AEF55806078A44B0FFD7053A328440C89E1EFC52486BBB8AA8214A99D789CF9E05200300FC927E4FB4D5B375D43103D5527440FB843077C5AA3F5861C8F645F5787F59E95B390B318B55CE45AA638FAA2957BD7248B390B7A7CC51F9C124149C82B8C378810
310
84AB2F42B7B8DD56F413775B8C5999E9FF4471926F8AA236A1AE96B8B3CC434E5839373893369E1FAF30EA395917409EB7F26AF8801C171837A4A6AC9C89E9F9C9B1A58BA30FD6A5EF5DDDCF894B9AD9B6A59C957943A9FCAE2FD5BC4DFE03504B0304140006080800CC70623BAD7543B64E01000033030000300000006662
310
782F41393633353835312D344632462D344230382D423046372D3739314545314133324237412F636E782E786D6CD593CD6EC32010845F0571AD6CE3D48AD20813A9873E410FBD12D82434182C7EAAE6EDBB2424CD25871E7B41D6EC30B3FA84F9E67BB2E40B4234DE8DB46F1925E094D7C6ED479AD3AE5951B2113C789FEE
310
6C943839C1488B4C05DF079FE72A69D8C96C13AAD6B8631503449F83828872B949AC57D26200B826A308D316B4064D6E46FCDA41C05550DC9E483A00797BFD207EFB092A45DE9514C1BBD22178396BD39D891265658C238DEA00936C654E5E433CB65A26D9F6EDB5EBC14EBF49A45CB856E66048291F6939A9A81BB5C89177
310
38143CA680F4AA299D66A042CEB3354A2684DC9D8D178FE0D9B8B41CAAD720F880EE7EF93C0C18769E099ECC04D5A102C8049A8A05632F4DDF376CF1DE0F6BB65C2F8627B65A33C6BB62177CEBBDAD973006829F89F22E814B54F4BC2BE347F8AA8F681390B50FA73F804400B5F542E796F19FF974E7F78DB802FE05E20750
310
4B0304140006080800CC70623BE75B7789680500003C100000340000006662782F41393633353835312D344632462D344230382D423046372D3739314545314133324237412F6F626A656374732E786D6CAD575B8F9B3818FD2B887D06C22499CB8AA1CA655245D5B455A356FB305264C061D8018C6C3393D95FBFC7600890
310
A4CD5EF210B0B1BFEBF98E3F7B1FF6596ABC522E1296DF9BAE3D320D9A872C4AF2F8DE2CE5CEBA358D0FBEC719939D65A691938CDE9B6ADAF4BD98B3B2D05311DD91329583D9D5FC0F438434A7A611A644887B5384CF34233629258BA878B12322891DEFF6B66BD70BFB62634E8AE781D082709A4B588AF91C528CDA28B73F
310
1C998EEF39EABBEFA97FBD6A7C7E9553F9D3D79FE442923C3C523610337627CB87ABE99D359D4CC6D6E4FACAB5E6ABF9D2726FC6A3C5F56271377BB88362213924694B38DD99FE47C48627A1E7D49F5A8BB5E1A74C0A599ED3B0F21F1E56366B89112D681E218F0915D0D6F17AD41FBA2A369DCF6335D62ABBD39779D5DDD1
310
11D4D8DE3CBB96B2E04FB8202E41051754A1AA8E8F76B4C6DFE810B580B1547F4B84911149794252234D024EF8BBE963A95AE27B3D310A9D5C215C7960FAEE415ED75694C6AFB17BCACA5D99A60A9AA65F217B0BFC53292ACB92BF283FAD0D3621576592CB5BED907C2FA8E9DF794E35E97BEA31BED21FEB401ABB94C44839
310
DCACBF0E1C5DA8DA5B2F4DFFD32AD86F543D9E565E7056502E157C00AD2671CD534549AB752FCA9CDA00677A313F04E51B22FF19E57B300579E3C97EB29F682D92935CEC18CF901B7B54FD8C51F362B56FC72FE0B3C1EAE335EDCCBF5AEC39ADB17DC238973F804BA5E6F6BFE7AF1FB32E523BE9F3BD571418E3631DCA4D48
310
5250CF639223210A9446CA30052EDF057BD35F8329C1ECD84552BF0DC8D18BE7BCE23BFE6BD960AB4A7DE79923A103BEBD80F911CBAA2C60DB19B01CF164A5583B772EE6D3FFA56666CBCDA74DC97724A48F9A58967497E489C4D979006FD7A05E227A1EBDD0F737C623387A9C844D3709995625106D157315F8B8392CD4E0
310
A0B9A720C4BE9829CEF37EA1E13111214D53925356365ADA634861B52519DD27A00AEB808EAF0628E6F435519D446F45CF2C9CF5214F0A15B2F6D06B79DA3EE3CBF7F56780D2F4E7EF73A0F5E5B02A38D07DC852C6B7C1FBB6664213E0C39E3EBA7FF4E1AD23EA2829407C85E586727488B751B2DB9502BC7B228A3FD68B6E
310
A65A22397E690AA8D158D7E404EC8CDA235CC3B7D1898680131CEC2CDF2638C65196279577750F15884AEE19F94199155B92B13297978469D4F8D358DF0AEF7631E28DC8F0D9F437D5D39A83B2231A1D52D543813A824EF8D44BCFF2FA6A31BD1E8DAD87F1CCB526B3879935BF59CDADD5C37479BB1CDD4CA7B3556B516589
310
EF352754B706114D9C885EC9131DE6EFEB43D99AFE2391C2F958179413D7CFEF6B1B6DB1E7600F00DE6E5C67454A339A4BA2E0FBA85ED26F045D454F463DBFCE484C2F90F2E5E3666003662ED8F755951A7D1BECD5B30B550B2785C8E7320B7292A4838DDA71BBC863ED7613CAF659337A3354231D4FF4A182A54904C2898C
310
98B28C4AD0CE056CCF332A80986E571EE9DBC305BB5FEB7E509220A58D25CF042D712A806AC0AD0C657FDEF80D2D9CEAA2EE4D1C76F60BFE74219A06527D6F82DF6412526107381E55E353090704D085B52408A8913C4ED159D79BDA71BB4BC506F4831350EB6F975CD22D69BF7AC49B91A2C0A9DDA3D5CA36AD20FC478E37
310
E61844E2352865EBCB61A275A65283CAAA9DD27703B4102F5AF51EF5F573B75CBB5AD38BC845F7A49F82A0966A49C2E3EA5EA0ECD326CD965F1DB402C6FA8B51A4658C5C5E2EC9E214602E55810345408596591009A82E7E7FFACA19EEA299B14A0081A705CB3296EBC14CDF658DCD336EA6D1136881AAEB87B81AB9EE53D5
310
F5EB8BC8362082DA24122F98680A4E7930C01A0079749CEA14382A0783E5EBA5A10F8C098456A03D6A4AEB6BB881E2513747552A5DB22C7EDAF83BD5528081A365F7FF06504B0304140006080000CC70623B000000000000000000000000350000006662782F41393633353835312D344632462D344230382D423046372D37
310
39314545314133324237412F76657274696365732E62696E504B0304140006080800CC70623BF270F1330600000004000000360000006662782F41393633353835312D344632462D344230382D423046372D3739314545314133324237412F747269616E676C65732E62696E636660600000504B0304140006080000CC7062
310
3B000000000000000000000000370000006662782F41393633353835312D344632462D344230382D423046372D3739314545314133324237412F617474726962757465732E62696E504B0304140006080800CC70623B08DA0BD19000000041010000360000006662782F41393633353835312D344632462D344230382D4230
310
46372D3739314545314133324237412F6469726563746F72792E786D6C858F410AC3201045AF22B36F53E9A60B35CBEEBAE80D244E44489C6234F4F835464A48035D0DF398FF9F8AF63D0E6CC63039F212F8F9020C7D47C6792B21C5FE7403D62A1188E2E60C98D7234A5830286103A55745067B9D86B8A3CF9C7F90C11DE6
310
07FB144396D7B6A82D282E9A152AD114D5EF2CB866EEE831B8EEA07A7BB5A8D7D61A2BAAEB7FD5F70921FF497D00504B0304140006080800CC70623BEDD1DC58FD000000A00100003B0000006662782F41393633353835312D344632462D344230382D423046372D3739314545314133324237412F7265736F75726365732F
310
636F72652E786D6C8D504B6E833010BD0A9A6D65B00922041947112427E8052C33A156828DFCA97AFC9A40A576D7CDCCE87D344F8F9FBFE667F689CE6B6B3A6039850C8DB2A336530731DC4903D95970676DF82583CCC8193B5861107C72362E3BA4AC096842428D1D7107A5F7182053CF7474E0D507CE32973124857FE48B
310
540F3961CEF244279DE03EB81420DB9EAC1384436FA353E879B1B182C7A8C75DA3C7F453DF353A1075D537A7BA6464B8F535A99AE14A9A2BBD90E350DD183B5CFABE3AF262350B1EF4FC9351399401471025A527C218A1E53BAB5A5AB765F5469B96525EACF23FA6B88CFF34456DC2A1DCE36E360F82A5202F42F062ED2BAD
310
579969AFDD8A6F504B010214000A0000080000CC70623B3DEE336E79000000790000001B00000000000000000000000000000000006175746F6465736B2D64657369676E2D7061636B6167652E786D6C504B01021400140006080800CC70623BD486FD9CA0000000F40000001300000000000000000000000000B20000005B
310
436F6E74656E745F54797065735D2E786D6C504B01021400140006080800CC70623B853B8169EB0000007C010000080000000000000000000000000083010000636F72652E786D6C504B01021400140006080800CC70623B55019EA25F0000007C000000070000000000000000000000000094020000636E782E786D6C504B
310
01021400140006080800CC70623BDBABAAF470010000D40300000C00000000000000000000000000180300006662782F636F72652E786D6C504B01021400140006080800CC70623B9C113CC27E0000009D0000000B00000000000000000000000000B20400006662782F636E782E786D6C504B01021400140006080800CC70
310
623B7DF2F77C2A010000120200003100000000000000000000000000590500006662782F41393633353835312D344632462D344230382D423046372D3739314545314133324237412F636F72652E786D6C504B01021400140006080800CC70623BAD7543B64E010000330300003000000000000000000000000000D2060000
310
6662782F41393633353835312D344632462D344230382D423046372D3739314545314133324237412F636E782E786D6C504B01021400140006080800CC70623BE75B7789680500003C10000034000000000000000000000000006E0800006662782F41393633353835312D344632462D344230382D423046372D3739314545
310
314133324237412F6F626A656374732E786D6C504B01021400140006080000CC70623B0000000000000000000000003500000000000000000000000000280E00006662782F41393633353835312D344632462D344230382D423046372D3739314545314133324237412F76657274696365732E62696E504B01021400140006
310
080800CC70623BF270F133060000000400000036000000000000000000000000007B0E00006662782F41393633353835312D344632462D344230382D423046372D3739314545314133324237412F747269616E676C65732E62696E504B01021400140006080000CC70623B0000000000000000000000003700000000000000
310
000000000000D50E00006662782F41393633353835312D344632462D344230382D423046372D3739314545314133324237412F617474726962757465732E62696E504B01021400140006080800CC70623B08DA0BD1900000004101000036000000000000000000000000002A0F00006662782F41393633353835312D344632
310
462D344230382D423046372D3739314545314133324237412F6469726563746F72792E786D6C504B01021400140006080800CC70623BEDD1DC58FD000000A00100003B000000000000000000000000000E1000006662782F41393633353835312D344632462D344230382D423046372D3739314545314133324237412F7265
310
736F75726365732F636F72652E786D6C504B0506000000000E000E0080040000641100000000
  0
XRECORD
  5
866
102
{ACAD_REACTORS
330
1F7
102
}
330
1F7
100
AcDbXrecord
280
     1
102
MATERIAL
148
0.0
149
0.0
149
0.0
 93
        0
 94
       63
282
     0
 72
     1
 77
     1
171
     1
175
     1
179
     1
273
     0
  0
XRECORD
  5
1F8
102
{ACAD_REACTORS
330
1F7
102
}
330
1F7
100
AcDbXrecord
280
     1
 70
     1
 90
429727718
  1
30362254-06B7-45E0-A893-8CFA70E3D6BC
310
504B03040A0000080000CC70623B3DEE336E79000000790000001B0000006175746F6465736B2D64657369676E2D7061636B6167652E786D6C3C3F786D6C2076657273696F6E3D22312E302220656E636F64696E673D227574662D3822203F3E3C666F726D6174733E3C666F726D61743E687474703A2F2F736368656D612E
310
6175746F6465736B2E636F6D2F64657369676E2D7061636B6167652F323030393C2F666F726D61743E3C2F666F726D6174733E504B0304140006080800CC70623BD486FD9CA0000000F4000000130000005B436F6E74656E745F54797065735D2E786D6C7D8EC10E82300C865F65E91D8A1E8C310C0EEA1BF002731658846E
310
D98AC1B77784ABF1D8FE5FBFBF75BBCE937A534CCEB38643598122B6FEE978D0B0485F9C41B54DDD7D022595594E1A469170414C76A4D9A4D207E29CF43ECE46F218070CC6BECC4078ACAA135ACF422C856C0E68EA1BF5669944DDD7BCDE7B1F8E415D77AECB980613C2E4AC91FC167A2B244592486606FC29C8FD7F045B9A
310
EF7053A7E60B504B0304140006080800CC70623B1EC5D7A3EB0000007C01000008000000636F72652E786D6C8D90416EC3201045AF82665B6103C6756C6122AB4D4ED00B204C5C94182C03558F5F9C3852BBEB6A467FFE9B197D71FC9E6FE8CBACC17AD7032D0820E3B41FAD9B7A48F1820F808E52ACDEC75F36404ECDA687
310
4D0629A6D5A76597B477D1B89855E747B38B2A041301E95B6E7A08FAD3CCAA50296647B8168BD2573599823EBB0CA76447F43862C7BCCF5EAC59410E4DDD9C7973C2755553CCCFA4C603E3040F1565ED3B1FDE4E432BCA0D9622DAF9795FAF464533826484B498524CD807E51D79ED187F21878E10516EF63F505AC67F42C9
310
BA58B1FDDD071640D2FCC87D2045B96591CB3DA85CB7DCE40F504B0304140006080800CC70623B55019EA25F0000007C00000007000000636E782E786D6C4DCB3B0E80201045D1AD90E915ED2CF8AC45050C11660C8261F98AB1B07AC9C97D42D718D865D3E909258CFD00CCE24AC6E326A164D74DC0B4128928FF32603847
310
2BA13128B1252AC747C6BAB984FC68F0B87FE8960A5C09FE86CFB69FBA01504B0304140006080800CC70623B8C9102E971010000D40300000C0000006662782F636F72652E786D6CC5535B6E833010BC8AE5DF0A6C08340F1947A84D4ED00B38C6A128602363A31CBFCB234A53A551FA553EC09AD9F5CE8C31DB9E9B1AF5CA
310
7695D1198E428A91D2D214952E33ECDD315861B4E5CC1AE3BE9561A445A3323CC098B3D21ADFCE9034DA29ED00D5A6503328BA4E398C640D8B0C77F253352214DE4145770A5B214FA2546114020D759C75CE8200340D19DE981F0F6746269C33EFAB6266AB02A655C74A59CCF365BADC27CB5D902ED22848F6340DF238A141
310
BE88E2F57B92BFEDF23523433367AE6A2EEAA455C2A902F398D2751045018D3FA264435F3771F242571B4A1919CA6F9A7C5B3CD9E42BED16F12C776AEB308F40C848FC700B1139D4891EF410CEC810227CC6846F8386402064270EF5C5C709A05E49676C024C61FC95EA45ED154CA5211D1FF4FB8291A913A68E9B83EBBB33
310
E2A7673CDE118E5AE8124C0807CB8377834E366998436B950D7A7746DAD846D4CFD978E0F04FD455FC5D49D2D4C6FE9722321F10997F0F32DC47FE05504B0304140006080800CC70623BFFEA85907E0000009D0000000B0000006662782F636E782E786D6C4DCCD10A83201886E15B91FFDC95D95A811AB6F23E625948A6C3
310
E9D8E5AF46073BFAE0E1E365ED67B3E8ADC3CB78C7815C7240DA3DFC64DCC221C519D7805AC182F7F1EF06C88D9BE6703008B6049F9E274D7A1E938DBB5AE3D6131B2589BA0D3D965551E0B2EA732C9B9A624AAEB41E3A557677029960D9AFB4EF11165F504B0304140006080800CC70623B4FEEA4082C0100001202000031
310
0000006662782F39464131463745442D413632322D343644302D413938332D3331353338454246344243312F636F72652E786D6C8D515B6EC32010BC0AE2AB55850DD871ED0813254D72825EC00192A2C460F1A872FC42ED48ED5F7E00CDCECCCEB26C731F6FE05B39AFADE921293004CA082BB5B9F43086336A21D870E6AC
310
0D7F68109861543DCC30E4ECE26C9C164858139409093556AA051CBC570102714B8F1E7AF1A5C6A11862480C7F2DA6415C878B2A4891CA89C7990F2E050073937C42DE1DB7E4F87ED8A36D4329AA9B3D46DBAEAD504556557BD81DEBDD0761E52CE42C462D17B996298E3E6BE59E35C962CE821E1FF18553435012728A7187
310
0841987E927A8D9B35ADDF70BBC6989599FE4F1427F9A4286A132ABAC49D651EF234CD5CE04CDA78BA3DC2A8FB645D00B9DF8B57E215725C60BCA2A463E54C4CE327C7A65E1C7DB02E7DEFCBF594B864C5CA6CDBD49C957943E9FA5D5FBAF336F90F504B0304140006080800CC70623BAD7543B64E01000033030000300000
310
006662782F39464131463745442D413632322D343644302D413938332D3331353338454246344243312F636E782E786D6CD593CD6EC32010845F0571AD6CE3D48AD20813A9873E410FBD12D82434182C7EAAE6EDBB2424CD25871E7B41D6EC30B3FA84F9E67BB2E40B4234DE8DB46F1925E094D7C6ED479AD3AE5951B2113C
310
789FEE6C943839C1488B4C05DF079FE72A69D8C96C13AAD6B8631503449F83828872B949AC57D26200B826A308D316B4064D6E46FCDA41C05550DC9E483A00797BFD207EFB092A45DE9514C1BBD22178396BD39D891265658C238DEA00936C654E5E433CB65A26D9F6EDB5EBC14EBF49A45CB856E66048291F6939A9A81BB5
310
C8917738143CA680F4AA299D66A042CEB3354A2684DC9D8D178FE0D9B8B41CAAD720F880EE7EF93C0C18769E099ECC04D5A102C8049A8A05632F4DDF376CF1DE0F6BB65C2F8627B65A33C6BB62177CEBBDAD973006829F89F22E814B54F4BC2BE347F8AA8F681390B50FA73F804400B5F542E796F19FF974E7F78DB802FE05
310
E207504B0304140006080800CC70623B16AB87BA640500003C100000340000006662782F39464131463745442D413632322D343644302D413938332D3331353338454246344243312F6F626A656374732E786D6CAD575B6FA33818FD2B887DE6924B3BED8A326A92B68A663B534DD4D13E548A0C38942D60649B369D5FBFC7
310
600890A493BDE42160637FD7F31D7FF63E6FB3D478A55C242CBF3247B66B1A340F5994E4F19559CA8D75611A9F7D8F33263BCB4C232719BD32D5B4E97B316765A1A722BA21652A07B3B7B33F0D11D29C9A46981221AE4C113ED38CD8A4942CA2E2C58E882476BCD9DA23BB5ED8171B73523C0F841684D35CC252CCE79062D4
310
468DFA43D7747CCF51DF7D4FFDEB5593E3AB9CCA9FBEFE241792E4E19EB28198C968BAB8199F5D5A67D3E9C49A9E8F47D6EC76B6B0469F26EEFC7C3EBFBCBEB98462213924694B38DD98FE1D62C393D073EA4FADC5DAF04326852CCF6958F90F0F2B9BB5C48816348F90C7840A68EB78EDF68723159BCEE7891A6B95DDE9D3
310
BCEAEEE8086A6C6F9E5D4B59F0175C10A7A0820BAA5055C7473B5AE3CFDD452D602CD5DF12616444529E90D448938013FE6EFA58AA96F85E4F8C42275708571E98FE6827AF6B2B4AE3D7D83D64E5A64C53054DD3AF90BD06FEA9149565C94FCA0F6B834DC85599E4F2423B24DF0B6AFA979E534DFA9E7A4CC6FA631D486393
310
921829879BF5D781A373557BCB85E97FB90DB62B558F8795179C15944B051F40AB495CF35451D26A4727654E6D8033BD98EF82F21D91FF8AF2DD9982BCF1643BDD4EB516C9492E368C67C88DED563FC36D5EACF66DFF057C3658BDBFA69DF9578B3DA735B64F18C7F20770A9D45CFCF7FCF563D6456A277DBEF78A02637CA2
310
43B90A490AEAB94F72244481D24819A6C0E59B606BFA4B3025981DBB48EAB701D97BF19C577CC77F2D1B6C55A9EF3C732474C0B727303F625995056C3B02963D9EAC146BE78EC5FCEC7FA999EBC5EACBAAE41B12D27B4D2C0BBA49F244E2ECDC81B76B502F113D8F5EE8FB1BE3111CDD4FC2AA9B844CAB1288B68AB90A7CDC
310
1C166AB0D3DC5310625FCC14E779BFD0709F8890A629C9292B1B2DED31A4B0DA928CEE135085754027E3018A397D4D5427D15BD1330B677DC8934285AC3DF45A9EB68FF8F2B8FC0A509AFEECFD0FF2DE25CC6047F7214B195F07EFEB9A094D800F7BFAE8FED187B78EA8A3A400F115961BCAD1215E47C966530AF0EE8128FE
310
58CEBB996A8964FFA529A046635D9353B0336A8F700DDF46271A024E70B0B37C9DE01847591E54DED53D54202AB947E4076556AC49C6CA5C9E1226B7F1A7B1BE15DEED62C41B91E1B3E9AFAAA735036547343A925075041DF0A9979E893B391F8FCFA6967B3EFB644DCF6E5CEBFAE272625DCC6FAF3FB93793C5F90CE1EF57
310
407342756B10D1C489E8953CD1617E5CEECAD6F4EF8914CE5D5D504E5C3F1F9736DA62CFC11E00BCDDB8CC8A9466349744C1F75EBDA4DF09BA8A9E8C7A7E9991989E20E5DBDD6A6003664ED8F7A04A8DBE0DF6EAD9B9AA858342E47399053949D2C146EDB85DE4B176BB0965FBAC19BD19AA918E27FA50C1D22402E144464C
310
59462568E704B6E71915404CB72B8FF4EDE184DDAF753F284990D2C6926782963815403548A70C657FDEF80D2D9CEAA2AE4C1C76F60BFE74219A06527D6582DF6412526107381E55E353090704D085B52408D0933C4ED159D79BDA71BB4BC506F4831350EB6F979CD22D69BF7AC49B91A2C0A9DDA3D5CA36AD20FC478E37E6
310
1844E2352865EBCB6EA275A652E3836BE04EFB400BF1A2556F515F1FBB35B2AB35BD889C744FFA1004B5544B121E57F70215746DD2F5E2C1412B602CBF19455AC6C8E5E9922C4E01E65215385004546899059180EAFCF7A707CE7017CD8CDB0410789AB32C63B91E5CEBBBACB17AC6CD347A022D5075FD106377347AAABA7E
310
7D11590744509B44E205134DC1290F06580320F78E537D3D73540E06CB970B431F185308AD40BBD794D6D77003C5A36E8EAA54BA64597CD8F83BD552A080A365F7FF06504B0304140006080000CC70623B000000000000000000000000350000006662782F39464131463745442D413632322D343644302D413938332D3331
310
353338454246344243312F76657274696365732E62696E504B0304140006080800CC70623BF270F1330600000004000000360000006662782F39464131463745442D413632322D343644302D413938332D3331353338454246344243312F747269616E676C65732E62696E636660600000504B0304140006080000CC70623B
310
000000000000000000000000370000006662782F39464131463745442D413632322D343644302D413938332D3331353338454246344243312F617474726962757465732E62696E504B0304140006080800CC70623B08DA0BD19000000041010000360000006662782F39464131463745442D413632322D343644302D413938
310
332D3331353338454246344243312F6469726563746F72792E786D6C858F410AC3201045AF22B36F53E9A60B35CBEEBAE80D244E44489C6234F4F835464A48035D0DF398FF9F8AF63D0E6CC63039F212F8F9020C7D47C6792B21C5FE7403D62A1188E2E60C98D7234A5830286103A55745067B9D86B8A3CF9C7F90C11DE607
310
FB144396D7B6A82D282E9A152AD114D5EF2CB866EEE831B8EEA07A7BB5A8D7D61A2BAAEB7FD5F70921FF497D00504B0304140006080800CC70623B0D6EF93BFE000000A00100003B0000006662782F39464131463745442D413632322D343644302D413938332D3331353338454246344243312F7265736F75726365732F63
310
6F72652E786D6C8D50596E833010BD0A9ADFCA60B334011947A8694ED00B586642AC041B79A97AFC9A40A5F6AF3F33A3B7689E1E3F7DCD8FEC139DD7D6F4C0720A191A65476DA61E62B892236427C19DB5E1970C322367EC618541F0C9D9B8EC90B226A009093576C41D94DE63804C3DD2D18357379C652E63480A7FCF17A9
310
EE72C29CE5894E3AC17D702940B63D59270887DE46A7D0F36263058F518FBB468FE9A7BE6A7420864373B8D4873369AA8691FA421B3294352543C5CAF65C0F6FEF43CB8BD52C78D0F34F46E550061C419494B6843142CB0F5677F4B52BEB177AEC28E5C52AFF638ACBF84F53D42654E51E77B379102C05791282176B5F693D
310
CB4C7BED567C03504B010214000A0000080000CC70623B3DEE336E79000000790000001B00000000000000000000000000000000006175746F6465736B2D64657369676E2D7061636B6167652E786D6C504B01021400140006080800CC70623BD486FD9CA0000000F40000001300000000000000000000000000B20000005B
310
436F6E74656E745F54797065735D2E786D6C504B01021400140006080800CC70623B1EC5D7A3EB0000007C010000080000000000000000000000000083010000636F72652E786D6C504B01021400140006080800CC70623B55019EA25F0000007C000000070000000000000000000000000094020000636E782E786D6C504B
310
01021400140006080800CC70623B8C9102E971010000D40300000C00000000000000000000000000180300006662782F636F72652E786D6C504B01021400140006080800CC70623BFFEA85907E0000009D0000000B00000000000000000000000000B30400006662782F636E782E786D6C504B01021400140006080800CC70
310
623B4FEEA4082C0100001202000031000000000000000000000000005A0500006662782F39464131463745442D413632322D343644302D413938332D3331353338454246344243312F636F72652E786D6C504B01021400140006080800CC70623BAD7543B64E010000330300003000000000000000000000000000D5060000
310
6662782F39464131463745442D413632322D343644302D413938332D3331353338454246344243312F636E782E786D6C504B01021400140006080800CC70623B16AB87BA640500003C1000003400000000000000000000000000710800006662782F39464131463745442D413632322D343644302D413938332D3331353338
310
454246344243312F6F626A656374732E786D6C504B01021400140006080000CC70623B0000000000000000000000003500000000000000000000000000270E00006662782F39464131463745442D413632322D343644302D413938332D3331353338454246344243312F76657274696365732E62696E504B01021400140006
310
080800CC70623BF270F133060000000400000036000000000000000000000000007A0E00006662782F39464131463745442D413632322D343644302D413938332D3331353338454246344243312F747269616E676C65732E62696E504B01021400140006080000CC70623B0000000000000000000000003700000000000000
310
000000000000D40E00006662782F39464131463745442D413632322D343644302D413938332D3331353338454246344243312F617474726962757465732E62696E504B01021400140006080800CC70623B08DA0BD190000000410100003600000000000000000000000000290F00006662782F39464131463745442D413632
310
322D343644302D413938332D3331353338454246344243312F6469726563746F72792E786D6C504B01021400140006080800CC70623B0D6EF93BFE000000A00100003B000000000000000000000000000D1000006662782F39464131463745442D413632322D343644302D413938332D3331353338454246344243312F7265
310
736F75726365732F636F72652E786D6C504B0506000000000E000E0080040000641100000000
  0
XRECORD
  5
868
102
{ACAD_REACTORS
330
173
102
}
330
173
100
AcDbXrecord
280
     1
102
MATERIAL
148
0.0
149
0.0
149
0.0
 93
        0
 94
       63
282
     0
 72
     1
 77
     1
171
     1
175
     1
179
     1
273
     0
  0
XRECORD
  5
175
102
{ACAD_REACTORS
330
173
102
}
330
173
100
AcDbXrecord
280
     1
270
     1
271
     1
  0
XRECORD
  5
174
102
{ACAD_REACTORS
330
173
102
}
330
173
100
AcDbXrecord
280
     1
270
     1
271
     1
  0
XRECORD
  5
1FB
102
{ACAD_REACTORS
330
173
102
}
330
173
100
AcDbXrecord
280
     1
 70
     0
 90
1673772943
  1
ECE7A1D2-D628-4531-984C-D00F80459256
310
504B03040A0000080000CC70623B3DEE336E79000000790000001B0000006175746F6465736B2D64657369676E2D7061636B6167652E786D6C3C3F786D6C2076657273696F6E3D22312E302220656E636F64696E673D227574662D3822203F3E3C666F726D6174733E3C666F726D61743E687474703A2F2F736368656D612E
310
6175746F6465736B2E636F6D2F64657369676E2D7061636B6167652F323030393C2F666F726D61743E3C2F666F726D6174733E504B0304140006080800CC70623BD486FD9CA0000000F4000000130000005B436F6E74656E745F54797065735D2E786D6C7D8EC10E82300C865F65E91D8A1E8C310C0EEA1BF002731658846E
310
D98AC1B77784ABF1D8FE5FBFBF75BBCE937A534CCEB38643598122B6FEE978D0B0485F9C41B54DDD7D022595594E1A469170414C76A4D9A4D207E29CF43ECE46F218070CC6BECC4078ACAA135ACF422C856C0E68EA1BF5669944DDD7BCDE7B1F8E415D77AECB980613C2E4AC91FC167A2B244592486606FC29C8FD7F045B9A
310
EF7053A7E60B504B0304140006080800CC70623BD9DDAED0EC0000007C01000008000000636F72652E786D6C8D90416EC3201045AF82665B61836D9CD8C2444DD39CA01740405C94182C03558F5F9C3852BBEB6A467FFE9B197D7EF89E6EE8CB2CC17A37002D0820E394D7D68D03A478C17B4007C117EFE32F1B20272733C0
310
2A83E0E3E2D3BC49CABB685CCCAAF3DA6CA20CC14440EA969B0182FA34932C648AD911AEC52CD5558EA6A0CF2EC329598D1E47ACCEFBECC59A050463A7EA5833865FEBDD0E37353BE3EE8DBDE3F6786A48D375FBF6CC78B9C282473B3DEFABC5C86834888A900E538A49F5419B9EB47DD5BC907D4F082F57FB1F28CDFA9F50
310
B22ED6D5F6EE030B20687EE43E10BC5CB3C8E51E54AE6B6EE207504B0304140006080800CC70623B55019EA25F0000007C00000007000000636E782E786D6C4DCB3B0E80201045D1AD90E915ED2CF8AC45050C11660C8261F98AB1B07AC9C97D42D718D865D3E909258CFD00CCE24AC6E326A164D74DC0B4128928FF326038
310
472BA13128B1252AC747C6BAB984FC68F0B87FE8960A5C09FE86CFB69FBA01504B0304140006080800CC70623BA24EB22D72010000D40300000C0000006662782F636F72652E786D6CC5535B6E833010BC8AE5DF0A6C5E49888CA3A6694ED00B38E05014B091B1518EDFE511A5A9D228FD2A1F60CDEC7A67C6986DCE4D8D7A
310
69BA4AAB0C073EC548AA5C17952A33ECECD15B61B4E1CC686DBF9561A44423333CC098B3D268D7CE50AE9595CA02AA74216750749DB418E5352C32DCE59FB211BE70162ABA93DF8AFC244AE9073ED050C759670D0840D390E18DF9F1706664C23973AE2A66B62A605A75ACA4C13C4976E1364A12EF355A2EBD384AF65EFA96
310
BC7B8BED2EA6719AAE16FB8491A199335B351775B991C2CA02F390D2D40B028F861F41BCA68B7518BFD0D59A524686F29B26D7164F36B94AD9289CE54E6D1DE6010819891F6E21228B3AD1831EC219194284CF98F06DD01008846CC5A1BEF83801D4CBDC6A1303536877A57A513B0953A94FC707FDBE6064EA84A9E3E6E0FA
310
EE8CF0E9198F7784A316AA0413C2C2F2E0ECA0934D1AE6D05A69BCDE9E91D2A611F573361E38FC1375157F5752AE6B6DFE4B11990F88CCBF0719EE23FF02504B0304140006080800CC70623B408A7D3B7C0000009D0000000B0000006662782F636E782E786D6C4DCCD10A83201886E15B91FFDC552A92A0064DBC8F581632
310
D3703A76F9ABD1C18E3E78F878E5F0D9027ABBFCF2292AE86E2D20171F69F6715550CB827B40839639A5F2770314A7CD293819B45C73AAFB45B35BA61ACAA1C1C7E7855C58C15BC331339661262CC762340413D68D77DA5B42298546CBE6573AF60CEB2F504B0304140006080800CC70623B449FB9BD290100001202000031
310
0000006662782F36394639363044362D344446342D343946362D394244322D3234314243333846323333332F636F72652E786D6C8D515B6EC32010BC0AE22B55850D98B871848994463E412FE002495162B07854397EA176A4F62F3F2C9A9D991D587EB84F37F0AD7D30CEF6905418026DA553C65E7A98E219ED203808EE9D
310
8B7F6810D871D23D2C3014FCE25D9A57483A1BB58D19B54EE9151C43D0110279CB971E06F9A5A7B11A53CC8C70ADE6515EC78BAE4895DB992778883E0700CB907242D17643D7E2538BD869608875438BBAE38922CAC8F1BDD90DB4691A5E2F42C153326A951B95E398B3D1FE599322163C9AE9115F7A3D46ADA0A018778810
310
84E907617BDCEE297BC5BB3DC6BC2EF47FA234AB2745C9D8D8D035EE220B50105E2F0DC1954B9FB747187D9F9D8FA0CCDB042D5FA0C015C65B42DF78BD10F3F3B363CB56C7109DCFDFBBB97E662ED92EB62D13BC2E1BCAE5777DB9966D8A1F504B0304140006080800CC70623BAD7543B64E01000033030000300000006662
310
782F36394639363044362D344446342D343946362D394244322D3234314243333846323333332F636E782E786D6CD593CD6EC32010845F0571AD6CE3D48AD20813A9873E410FBD12D82434182C7EAAE6EDBB2424CD25871E7B41D6EC30B3FA84F9E67BB2E40B4234DE8DB46F1925E094D7C6ED479AD3AE5951B2113C789FEE
310
6C943839C1488B4C05DF079FE72A69D8C96C13AAD6B8631503449F83828872B949AC57D26200B826A308D316B4064D6E46FCDA41C05550DC9E483A00797BFD207EFB092A45DE9514C1BBD22178396BD39D891265658C238DEA00936C654E5E433CB65A26D9F6EDB5EBC14EBF49A45CB856E66048291F6939A9A81BB5C89177
310
38143CA680F4AA299D66A042CEB3354A2684DC9D8D178FE0D9B8B41CAAD720F880EE7EF93C0C18769E099ECC04D5A102C8049A8A05632F4DDF376CF1DE0F6BB65C2F8627B65A33C6BB62177CEBBDAD973006829F89F22E814B54F4BC2BE347F8AA8F681390B50FA73F804400B5F542E796F19FF974E7F78DB802FE05E20750
310
4B0304140006080800CC70623B8D05915C650500003B100000340000006662782F36394639363044362D344446342D343946362D394244322D3234314243333846323333332F6F626A656374732E786D6CAD575B6FA33814FE2B887D06429276DA1565D4266D158D3A339A6846FB502932E050B66023DB74D2FDF5FB190C01
310
9276B2973C046C8ECFF53B17071F77456EBD502133CEAE6CDF9DD81665314F32965ED995DA3A17B6F5310C04E7AA47665B8C14F4CAD6DB7618A48257A5D94AE89654B91AEDDEDDFC61C998326A5B714EA4BCB265FC440BE2924AF184CA6737218AB8E976E7FA6E4338649B0A523E8D98964450A6A029F619B8588D52FE7039
310
B1BD30F0F4F730D0FF866AF6369557DB33949F31A9088B0F848DD8CCFCF9F2767A76E99CCDE733677E3EF59D9BBB9BA5E37F984D16E78BC5E5F5ED25044B25C0C96822E8D60EEFE11B91C581D77CEA34368A1F5329E68CD1B8B61F16D63A1B8E092D294B10C78C4A48EB593D192E7DED9BDEE7995E1B91FDEDD3ACEA9FE831
310
6A756F9F7D4D79F4274C90A7A04248AA51D5F8C718DAE06FB2F75AC4796EBE65D22A88A22223B995679120E2D50E41AA49C260C046A35368846B0BECD0DFF3EBEB8AD4F835768F69B9ADF25C43D30E6B646F807FAA64AD59F61715C7A54127C4AACA98BA3006A9D792DAE165E0D59B61A01FB3A9F9D838D2DAE62445C86166
310
F37564E842E7DE6A69879FEEA2DD5AE7E371E1A5E025154AC307D06A03D73EB5978C58FFA4C8E9033066E0F3BD53BEC1F39F91BE7B55103791EDE6BBB991A2046172CB4581D8B893FA674DDA17A77B3B7C413D1B511FD2743BFF8A38F03A658705E3ADF8015C3A3417FF3D7E439FF591DA0B5F18BC20C1B8981957AE6392A3
310
F43C640C01D1A0B4728E2DD4F26DB4B3C3152A252A3B4E913CEC1C72F012782FF88EFF8637AA552DBEF76408E8A8DE9E50F9E1CB3A2DA0DB1B6039A893B56063DC5B3E3FFB5F72E67AB9FEB4AEC496C4F4C1149625DD662C53E89D7BF0F6151A046260D1337DFDC94502430F83B0EE07A130A224BCAD7DAE1D9FB6CD422FF6
310
920702629C4BB9AE79C12F243C6432A6794E18E5552BA56B431AAB5D91317302B2B071E86C3A42B1A02F999E24061403B5D0EB639195DA655DD3EBEAB4FB862DDF579F014AD0E73C22F99E28DA57FB98E75C6CA2D74D53086D600F4786E0FE3144B771A8A7B900F03594DB8A633CBC49B2EDB69228BB479CF863B5E807AAAB
310
23872F6DFEB4129B949CA33823F58830E86D65621E10047D9DB34D862E8EAC3C2ABC2F7B2C40D67CDFE01F5545B92105AF983AC54D93D69E56FB8E797F88913F898A9FEC705D3F9D1B54EC8426FB500D40A03BD0119B06E1B95DDC7EB8F6975367793EBD70E66733DFB9BC982F9CE564727731999F5D4ECFCE3B8D6A4DC2A0
310
6D50FD148437D110834A64C6CDDF57FBACB5C307A2A477DFE4939736CFEF2B175371E0E10CF0DD1D5C15654E0BCA14D1E87DD02FF93782A162C0A3D95F1524A52770F972BF1EE9809D13CE7DD599467F8ECE9ADD85CE85A34CD45355448C64F9E8A031DC2D596ACC6E5DD93D9B82DE2EF5CAF81363A8E47996A0DE24564A79
310
4115AACE09C55E14540231FDA13C319787134EBF34E3A022514E5B4D9E0826E25C02D5805B15ABE1BEF51B26383D445DD9E875EE33FE4C22DA16427D65A3BCA92CA6D28DD01DF5DC53330704308475351050232CCD31583787BA75774AFB06E5070DD0C8EF484E19968C5D83BA5B90B244D31E54D55A372320FE4786B7EA58
310
44E135AA5467CB7EA333A61683CC6A8C3257034C10CF46F40EF9F5BE59BE5BD30C3C72D235E95D10345C1D45445A5F0BB47E46A5EBE5570F9380B5FA629579952296A773720405982B9DE04011506178964401AA8BDF1FBF0A8EAB6861DD6580C0E38217056766716DAEB2D6FA0917D3E4116581EADB879C4E7CFFB11EFACD
310
3D641311495D92C8676CB409A72D18610D803CE8A626049E8EC1887CB5B44CC39883690DDA8399B4B9855B481E7D71D4A9D22F96E5BB73BF5793020C02137BF837504B0304140006080000CC70623B000000000000000000000000350000006662782F36394639363044362D344446342D343946362D394244322D32343142
310
43333846323333332F76657274696365732E62696E504B0304140006080800CC70623BF270F1330600000004000000360000006662782F36394639363044362D344446342D343946362D394244322D3234314243333846323333332F747269616E676C65732E62696E636660600000504B0304140006080000CC70623B0000
310
00000000000000000000370000006662782F36394639363044362D344446342D343946362D394244322D3234314243333846323333332F617474726962757465732E62696E504B0304140006080800CC70623B08DA0BD19000000041010000360000006662782F36394639363044362D344446342D343946362D394244322D
310
3234314243333846323333332F6469726563746F72792E786D6C858F410AC3201045AF22B36F53E9A60B35CBEEBAE80D244E44489C6234F4F835464A48035D0DF398FF9F8AF63D0E6CC63039F212F8F9020C7D47C6792B21C5FE7403D62A1188E2E60C98D7234A5830286103A55745067B9D86B8A3CF9C7F90C11DE607FB14
310
4396D7B6A82D282E9A152AD114D5EF2CB866EEE831B8EEA07A7BB5A8D7D61A2BAAEB7FD5F70921FF497D00504B0304140006080800CC70623BCA768048FE000000A00100003B0000006662782F36394639363044362D344446342D343946362D394244322D3234314243333846323333332F7265736F75726365732F636F72
310
652E786D6C8D50596E833010BD0A9ADFCA60D600328E9AA639412F609909B1126CE4A5EAF16B0295DABFFECC8CDEA2797AECF8353F924FB44E193D409E5248504B332A3D0D10FC95B4901C39B3C6F85F3248B49871801506CE266BC2B243D2688FDA47549B11775038871E12F988C7004EDE7016A9083E2ADC3D5D84BC8B09
310
D33C8D74D471E6BC8D0192EDC93A815B742658898E651BCB59086ADC356A8C3FD555A1055ED7E7E254D615792D0F075295F585746FF53B694EE78A565DD736979A65AB9933AFE69F8CD2A2F038022F28ED489E135A7CE4554F9BBEA85E68DB53CAB255FEC71496F19FA6A0B42F8B3DEE6673C0F318E4497096AD7DC5F52C33
310
EEB55BFE0D504B010214000A0000080000CC70623B3DEE336E79000000790000001B00000000000000000000000000000000006175746F6465736B2D64657369676E2D7061636B6167652E786D6C504B01021400140006080800CC70623BD486FD9CA0000000F40000001300000000000000000000000000B20000005B436F
310
6E74656E745F54797065735D2E786D6C504B01021400140006080800CC70623BD9DDAED0EC0000007C010000080000000000000000000000000083010000636F72652E786D6C504B01021400140006080800CC70623B55019EA25F0000007C000000070000000000000000000000000095020000636E782E786D6C504B0102
310
1400140006080800CC70623BA24EB22D72010000D40300000C00000000000000000000000000190300006662782F636F72652E786D6C504B01021400140006080800CC70623B408A7D3B7C0000009D0000000B00000000000000000000000000B50400006662782F636E782E786D6C504B01021400140006080800CC70623B
310
449FB9BD290100001202000031000000000000000000000000005A0500006662782F36394639363044362D344446342D343946362D394244322D3234314243333846323333332F636F72652E786D6C504B01021400140006080800CC70623BAD7543B64E010000330300003000000000000000000000000000D20600006662
310
782F36394639363044362D344446342D343946362D394244322D3234314243333846323333332F636E782E786D6C504B01021400140006080800CC70623B8D05915C650500003B10000034000000000000000000000000006E0800006662782F36394639363044362D344446342D343946362D394244322D32343142433338
310
46323333332F6F626A656374732E786D6C504B01021400140006080000CC70623B0000000000000000000000003500000000000000000000000000250E00006662782F36394639363044362D344446342D343946362D394244322D3234314243333846323333332F76657274696365732E62696E504B010214001400060808
310
00CC70623BF270F13306000000040000003600000000000000000000000000780E00006662782F36394639363044362D344446342D343946362D394244322D3234314243333846323333332F747269616E676C65732E62696E504B01021400140006080000CC70623B00000000000000000000000037000000000000000000
310
00000000D20E00006662782F36394639363044362D344446342D343946362D394244322D3234314243333846323333332F617474726962757465732E62696E504B01021400140006080800CC70623B08DA0BD190000000410100003600000000000000000000000000270F00006662782F36394639363044362D344446342D
310
343946362D394244322D3234314243333846323333332F6469726563746F72792E786D6C504B01021400140006080800CC70623BCA768048FE000000A00100003B000000000000000000000000000B1000006662782F36394639363044362D344446342D343946362D394244322D3234314243333846323333332F7265736F
310
75726365732F636F72652E786D6C504B0506000000000E000E0080040000621100000000
  0
XRECORD
  5
176
102
{ACAD_REACTORS
330
173
102
}
330
173
100
AcDbXrecord
280
     1
270
     1
271
     1
  0
XRECORD
  5
177
102
{ACAD_REACTORS
330
173
102
}
330
173
100
AcDbXrecord
280
     1
270
     1
271
     1
  0
XRECORD
  5
863
102
{ACAD_REACTORS
330
862
102
}
330
862
100
AcDbXrecord
280
     1
102
ACAD_ROUNDTRIP_2012_MLEADER_STYLE
298
     1
  0
XRECORD
  5
861
102
{ACAD_REACTORS
330
860
102
}
330
860
100
AcDbXrecord
280
     1
102
ACAD_ROUNDTRIP_2012_MLEADER_STYLE
298
     1
  0
CELLSTYLEMAP
  5
85F
102
{ACAD_REACTORS
330
162
102
}
330
162
100
AcDbCellStyleMap
 90
        3
300
CELLSTYLE
  1
TABLEFORMAT_BEGIN
 90
        5
170
     1
 91
        0
 92
    32768
 62
   257
 93
        1
300
CONTENTFORMAT
  1
CONTENTFORMAT_BEGIN
 90
        0
 91
        0
 92
      512
 93
        0
300

 40
0.0
140
1.0
 94
        5
 62
     0
340
11
144
6.0
309
CONTENTFORMAT_END
171
     1
301
MARGIN
  1
CELLMARGIN_BEGIN
 40
1.5
 40
1.5
 40
1.5
 40
1.5
 40
4.5
 40
4.5
309
CELLMARGIN_END
 94
        6
 95
        1
302
GRIDFORMAT
  1
GRIDFORMAT_BEGIN
 90
        0
 91
        1
 62
     0
 92
       -2
340
14
 93
        0
 40
1.125
309
GRIDFORMAT_END
 95
        2
302
GRIDFORMAT
  1
GRIDFORMAT_BEGIN
 90
        0
 91
        1
 62
     0
 92
       -2
340
14
 93
        0
 40
1.125
309
GRIDFORMAT_END
 95
        4
302
GRIDFORMAT
  1
GRIDFORMAT_BEGIN
 90
        0
 91
        1
 62
     0
 92
       -2
340
14
 93
        0
 40
1.125
309
GRIDFORMAT_END
 95
        8
302
GRIDFORMAT
  1
GRIDFORMAT_BEGIN
 90
        0
 91
        1
 62
     0
 92
       -2
340
14
 93
        0
 40
1.125
309
GRIDFORMAT_END
 95
       16
302
GRIDFORMAT
  1
GRIDFORMAT_BEGIN
 90
        0
 91
        1
 62
     0
 92
       -2
340
14
 93
        0
 40
1.125
309
GRIDFORMAT_END
 95
       32
302
GRIDFORMAT
  1
GRIDFORMAT_BEGIN
 90
        0
 91
        1
 62
     0
 92
       -2
340
14
 93
        0
 40
1.125
309
GRIDFORMAT_END
309
TABLEFORMAT_END
  1
CELLSTYLE_BEGIN
 90
        1
 91
        1
300
_TITLE
309
CELLSTYLE_END
300
CELLSTYLE
  1
TABLEFORMAT_BEGIN
 90
        5
170
     1
 91
        0
 92
        0
 62
   257
 93
        1
300
CONTENTFORMAT
  1
CONTENTFORMAT_BEGIN
 90
        0
 91
        0
 92
      512
 93
        0
300

 40
0.0
140
1.0
 94
        5
 62
     0
340
11
144
4.5
309
CONTENTFORMAT_END
171
     1
301
MARGIN
  1
CELLMARGIN_BEGIN
 40
1.5
 40
1.5
 40
1.5
 40
1.5
 40
4.5
 40
4.5
309
CELLMARGIN_END
 94
        6
 95
        1
302
GRIDFORMAT
  1
GRIDFORMAT_BEGIN
 90
        0
 91
        1
 62
     0
 92
       -2
340
14
 93
        0
 40
1.125
309
GRIDFORMAT_END
 95
        2
302
GRIDFORMAT
  1
GRIDFORMAT_BEGIN
 90
        0
 91
        1
 62
     0
 92
       -2
340
14
 93
        0
 40
1.125
309
GRIDFORMAT_END
 95
        4
302
GRIDFORMAT
  1
GRIDFORMAT_BEGIN
 90
        0
 91
        1
 62
     0
 92
       -2
340
14
 93
        0
 40
1.125
309
GRIDFORMAT_END
 95
        8
302
GRIDFORMAT
  1
GRIDFORMAT_BEGIN
 90
        0
 91
        1
 62
     0
 92
       -2
340
14
 93
        0
 40
1.125
309
GRIDFORMAT_END
 95
       16
302
GRIDFORMAT
  1
GRIDFORMAT_BEGIN
 90
        0
 91
        1
 62
     0
 92
       -2
340
14
 93
        0
 40
1.125
309
GRIDFORMAT_END
 95
       32
302
GRIDFORMAT
  1
GRIDFORMAT_BEGIN
 90
        0
 91
        1
 62
     0
 92
       -2
340
14
 93
        0
 40
1.125
309
GRIDFORMAT_END
309
TABLEFORMAT_END
  1
CELLSTYLE_BEGIN
 90
        2
 91
        1
300
_HEADER
309
CELLSTYLE_END
300
CELLSTYLE
  1
TABLEFORMAT_BEGIN
 90
        5
170
     1
 91
        0
 92
        0
 62
   257
 93
        1
300
CONTENTFORMAT
  1
CONTENTFORMAT_BEGIN
 90
        0
 91
        0
 92
      512
 93
        0
300

 40
0.0
140
1.0
 94
        2
 62
     0
340
11
144
4.5
309
CONTENTFORMAT_END
171
     1
301
MARGIN
  1
CELLMARGIN_BEGIN
 40
1.5
 40
1.5
 40
1.5
 40
1.5
 40
4.5
 40
4.5
309
CELLMARGIN_END
 94
        6
 95
        1
302
GRIDFORMAT
  1
GRIDFORMAT_BEGIN
 90
        0
 91
        1
 62
     0
 92
       -2
340
14
 93
        0
 40
1.125
309
GRIDFORMAT_END
 95
        2
302
GRIDFORMAT
  1
GRIDFORMAT_BEGIN
 90
        0
 91
        1
 62
     0
 92
       -2
340
14
 93
        0
 40
1.125
309
GRIDFORMAT_END
 95
        4
302
GRIDFORMAT
  1
GRIDFORMAT_BEGIN
 90
        0
 91
        1
 62
     0
 92
       -2
340
14
 93
        0
 40
1.125
309
GRIDFORMAT_END
 95
        8
302
GRIDFORMAT
  1
GRIDFORMAT_BEGIN
 90
        0
 91
        1
 62
     0
 92
       -2
340
14
 93
        0
 40
1.125
309
GRIDFORMAT_END
 95
       16
302
GRIDFORMAT
  1
GRIDFORMAT_BEGIN
 90
        0
 91
        1
 62
     0
 92
       -2
340
14
 93
        0
 40
1.125
309
GRIDFORMAT_END
 95
       32
302
GRIDFORMAT
  1
GRIDFORMAT_BEGIN
 90
        0
 91
        1
 62
     0
 92
       -2
340
14
 93
        0
 40
1.125
309
GRIDFORMAT_END
309
TABLEFORMAT_END
  1
CELLSTYLE_BEGIN
 90
        3
 91
        2
300
_DATA
309
CELLSTYLE_END
  0
XRECORD
  5
865
102
{ACAD_REACTORS
330
162
102
}
330
162
100
AcDbXrecord
280
     1
102
ACAD_ROUNDTRIP_PRE2007_TABLESTYLE
 90
      512
 91
        0
  1

 92
      512
 93
        0
  2

 94
      512
 95
        0
  3

  0
XRECORD
  5
874
102
{ACAD_REACTORS
330
873
102
}
330
873
100
AcDbXrecord
280
     1
102
RTVSPropertyOp0
 70
     1
102
RTVSPropertyOp1
 70
     1
102
RTVSPropertyOp2
 70
     1
102
RTVSPropertyOp3
 70
     1
102
RTVSPropertyOp4
 70
     1
102
RTVSPropertyOp5
 70
     1
102
RTVSPropertyOp6
 70
     1
102
RTVSPropertyOp7
 70
     1
102
RTVSPropertyOp8
 70
     1
102
RTVSPropertyOp9
 70
     1
102
RTVSPropertyOp10
 70
     1
102
RTVSPropertyOp11
 70
     1
102
RTVSPropertyOp12
 70
     1
102
RTVSPropertyOp13
 70
     1
102
RTVSPropertyOp14
 70
     1
102
RTVSPropertyOp15
 70
     1
102
RTVSPropertyOp16
 70
     1
102
RTVSPropertyOp17
 70
     1
102
RTVSPropertyOp18
 70
     1
102
RTVSPropertyOp19
 70
     1
102
RTVSPropertyOp20
 70
     1
102
RTVSPropertyOp21
 70
     1
102
RTVSPropertyOp22
 70
     1
102
RTVSPropertyOp23
 70
     1
102
RTVSPropertyOp24
 70
     1
102
RTVSPropertyOp25
 70
     1
102
RTVSPropertyOp26
 70
     1
102
RTVSPropertyOp27
 70
     1
102
RTVSPropertyOp28
 70
     1
102
RTVSPropertyOp29
 70
     1
102
RTVSPropertyOp30
 70
     1
102
RTVSPropertyOp31
 70
     1
102
RTVSPropertyOp32
 70
     1
  0
XRECORD
  5
8A5
102
{ACAD_REACTORS
330
8A4
102
}
330
8A4
100
AcDbXrecord
280
     1
102
RTVSPropertyOp0
 70
     1
102
RTVSPropertyOp1
 70
     1
102
RTVSPropertyOp2
 70
     1
102
RTVSPropertyOp3
 70
     1
102
RTVSPropertyOp4
 70
     1
102
RTVSPropertyOp5
 70
     1
102
RTVSPropertyOp6
 70
     1
102
RTVSPropertyOp7
 70
     1
102
RTVSPropertyOp8
 70
     1
102
RTVSPropertyOp9
 70
     1
102
RTVSPropertyOp10
 70
     1
102
RTVSPropertyOp11
 70
     1
102
RTVSPropertyOp12
 70
     1
102
RTVSPropertyOp13
 70
     1
102
RTVSPropertyOp14
 70
     1
102
RTVSPropertyOp15
 70
     1
102
RTVSPropertyOp16
 70
     1
102
RTVSPropertyOp17
 70
     1
102
RTVSPropertyOp18
 70
     1
102
RTVSPropertyOp19
 70
     1
102
RTVSPropertyOp20
 70
     1
102
RTVSPropertyOp21
 70
     1
102
RTVSPropertyOp22
 70
     1
102
RTVSPropertyOp23
 70
     1
102
RTVSPropertyOp24
 70
     1
102
RTVSPropertyOp25
 70
     1
102
RTVSPropertyOp26
 70
     1
102
RTVSPropertyOp27
 70
     1
102
RTVSPropertyOp28
 70
     1
102
RTVSPropertyOp29
 70
     1
102
RTVSPropertyOp30
 70
     1
102
RTVSPropertyOp31
 70
     1
102
RTVSPropertyOp32
 70
     1
  0
XRECORD
  5
872
102
{ACAD_REACTORS
330
871
102
}
330
871
100
AcDbXrecord
280
     1
102
RTVSPropertyOp0
 70
     1
102
RTVSPropertyOp1
 70
     1
102
RTVSPropertyOp2
 70
     1
102
RTVSPropertyOp3
 70
     1
102
RTVSPropertyOp4
 70
     1
102
RTVSPropertyOp5
 70
     1
102
RTVSPropertyOp6
 70
     1
102
RTVSPropertyOp7
 70
     1
102
RTVSPropertyOp8
 70
     1
102
RTVSPropertyOp9
 70
     1
102
RTVSPropertyOp10
 70
     1
102
RTVSPropertyOp11
 70
     1
102
RTVSPropertyOp12
 70
     1
102
RTVSPropertyOp13
 70
     1
102
RTVSPropertyOp14
 70
     1
102
RTVSPropertyOp15
 70
     1
102
RTVSPropertyOp16
 70
     1
102
RTVSPropertyOp17
 70
     1
102
RTVSPropertyOp18
 70
     1
102
RTVSPropertyOp19
 70
     1
102
RTVSPropertyOp20
 70
     1
102
RTVSPropertyOp21
 70
     1
102
RTVSPropertyOp22
 70
     1
102
RTVSPropertyOp23
 70
     1
102
RTVSPropertyOp24
 70
     1
102
RTVSPropertyOp25
 70
     1
102
RTVSPropertyOp26
 70
     1
102
RTVSPropertyOp27
 70
     1
102
RTVSPropertyOp28
 70
     1
102
RTVSPropertyOp29
 70
     1
102
RTVSPropertyOp30
 70
     1
102
RTVSPropertyOp31
 70
     1
102
RTVSPropertyOp32
 70
     1
  0
XRECORD
  5
880
102
{ACAD_REACTORS
330
87F
102
}
330
87F
100
AcDbXrecord
280
     1
102
RTVSPropertyOp0
 70
     1
102
RTVSPropertyOp1
 70
     1
102
RTVSPropertyOp2
 70
     1
102
RTVSPropertyOp3
 70
     1
102
RTVSPropertyOp4
 70
     1
102
RTVSPropertyOp5
 70
     1
102
RTVSPropertyOp6
 70
     1
102
RTVSPropertyOp7
 70
     1
102
RTVSPropertyOp8
 70
     1
102
RTVSPropertyOp9
 70
     1
102
RTVSPropertyOp10
 70
     1
102
RTVSPropertyOp11
 70
     1
102
RTVSPropertyOp12
 70
     1
102
RTVSPropertyOp13
 70
     1
102
RTVSPropertyOp14
 70
     1
102
RTVSPropertyOp15
 70
     1
102
RTVSPropertyOp16
 70
     1
102
RTVSPropertyOp17
 70
     1
102
RTVSPropertyOp18
 70
     1
102
RTVSPropertyOp19
 70
     1
102
RTVSPropertyOp20
 70
     1
102
RTVSPropertyOp21
 70
     1
102
RTVSPropertyOp22
 70
     1
102
RTVSPropertyOp23
 70
     1
102
RTVSPropertyOp24
 70
     1
102
RTVSPropertyOp25
 70
     1
102
RTVSPropertyOp26
 70
     1
102
RTVSPropertyOp27
 70
     1
102
RTVSPropertyOp28
 70
     1
102
RTVSPropertyOp29
 70
     1
102
RTVSPropertyOp30
 70
     1
102
RTVSPropertyOp31
 70
     1
102
RTVSPropertyOp32
 70
     1
  0
XRECORD
  5
888
102
{ACAD_REACTORS
330
887
102
}
330
887
100
AcDbXrecord
280
     1
102
RTVSPropertyOp0
 70
     1
102
RTVSPropertyOp1
 70
     1
102
RTVSPropertyOp2
 70
     1
102
RTVSPropertyOp3
 70
     1
102
RTVSPropertyOp4
 70
     1
102
RTVSPropertyOp5
 70
     1
102
RTVSPropertyOp6
 70
     1
102
RTVSPropertyOp7
 70
     1
102
RTVSPropertyOp8
 70
     1
102
RTVSPropertyOp9
 70
     1
102
RTVSPropertyOp10
 70
     1
102
RTVSPropertyOp11
 70
     1
102
RTVSPropertyOp12
 70
     1
102
RTVSPropertyOp13
 70
     1
102
RTVSPropertyOp14
 70
     1
102
RTVSPropertyOp15
 70
     1
102
RTVSPropertyOp16
 70
     1
102
RTVSPropertyOp17
 70
     1
102
RTVSPropertyOp18
 70
     1
102
RTVSPropertyOp19
 70
     1
102
RTVSPropertyOp20
 70
     1
102
RTVSPropertyOp21
 70
     1
102
RTVSPropertyOp22
 70
     1
102
RTVSPropertyOp23
 70
     1
102
RTVSPropertyOp24
 70
     1
102
RTVSPropertyOp25
 70
     1
102
RTVSPropertyOp26
 70
     1
102
RTVSPropertyOp27
 70
     1
102
RTVSPropertyOp28
 70
     1
102
RTVSPropertyOp29
 70
     1
102
RTVSPropertyOp30
 70
     1
102
RTVSPropertyOp31
 70
     1
102
RTVSPropertyOp32
 70
     1
  0
XRECORD
  5
87A
102
{ACAD_REACTORS
330
879
102
}
330
879
100
AcDbXrecord
280
     1
102
RTVSPropertyOp0
 70
     1
102
RTVSPropertyOp1
 70
     1
102
RTVSPropertyOp2
 70
     1
102
RTVSPropertyOp3
 70
     1
102
RTVSPropertyOp4
 70
     1
102
RTVSPropertyOp5
 70
     1
102
RTVSPropertyOp6
 70
     1
102
RTVSPropertyOp7
 70
     1
102
RTVSPropertyOp8
 70
     1
102
RTVSPropertyOp9
 70
     1
102
RTVSPropertyOp10
 70
     1
102
RTVSPropertyOp11
 70
     1
102
RTVSPropertyOp12
 70
     1
102
RTVSPropertyOp13
 70
     1
102
RTVSPropertyOp14
 70
     1
102
RTVSPropertyOp15
 70
     1
102
RTVSPropertyOp16
 70
     1
102
RTVSPropertyOp17
 70
     1
102
RTVSPropertyOp18
 70
     1
102
RTVSPropertyOp19
 70
     1
102
RTVSPropertyOp20
 70
     1
102
RTVSPropertyOp21
 70
     1
102
RTVSPropertyOp22
 70
     1
102
RTVSPropertyOp23
 70
     1
102
RTVSPropertyOp24
 70
     1
102
RTVSPropertyOp25
 70
     1
102
RTVSPropertyOp26
 70
     1
102
RTVSPropertyOp27
 70
     1
102
RTVSPropertyOp28
 70
     1
102
RTVSPropertyOp29
 70
     1
102
RTVSPropertyOp30
 70
     1
102
RTVSPropertyOp31
 70
     1
102
RTVSPropertyOp32
 70
     1
  0
XRECORD
  5
87E
102
{ACAD_REACTORS
330
87D
102
}
330
87D
100
AcDbXrecord
280
     1
102
RTVSPropertyOp0
 70
     1
102
RTVSPropertyOp1
 70
     1
102
RTVSPropertyOp2
 70
     1
102
RTVSPropertyOp3
 70
     1
102
RTVSPropertyOp4
 70
     1
102
RTVSPropertyOp5
 70
     1
102
RTVSPropertyOp6
 70
     1
102
RTVSPropertyOp7
 70
     1
102
RTVSPropertyOp8
 70
     1
102
RTVSPropertyOp9
 70
     1
102
RTVSPropertyOp10
 70
     1
102
RTVSPropertyOp11
 70
     1
102
RTVSPropertyOp12
 70
     1
102
RTVSPropertyOp13
 70
     1
102
RTVSPropertyOp14
 70
     1
102
RTVSPropertyOp15
 70
     1
102
RTVSPropertyOp16
 70
     1
102
RTVSPropertyOp17
 70
     1
102
RTVSPropertyOp18
 70
     1
102
RTVSPropertyOp19
 70
     1
102
RTVSPropertyOp20
 70
     1
102
RTVSPropertyOp21
 70
     1
102
RTVSPropertyOp22
 70
     1
102
RTVSPropertyOp23
 70
     1
102
RTVSPropertyOp24
 70
     1
102
RTVSPropertyOp25
 70
     1
102
RTVSPropertyOp26
 70
     1
102
RTVSPropertyOp27
 70
     1
102
RTVSPropertyOp28
 70
     1
102
RTVSPropertyOp29
 70
     1
102
RTVSPropertyOp30
 70
     1
102
RTVSPropertyOp31
 70
     1
102
RTVSPropertyOp32
 70
     1
  0
XRECORD
  5
88E
102
{ACAD_REACTORS
330
88D
102
}
330
88D
100
AcDbXrecord
280
     1
102
RTVSPropertyOp0
 70
     0
102
RTVSPropertyOp1
 70
     0
102
RTVSPropertyOp2
 70
     0
102
RTVSPropertyOp3
 70
     0
102
RTVSPropertyOp4
 70
     0
102
RTVSPropertyOp5
 70
     0
102
RTVSPropertyOp6
 70
     0
102
RTVSPropertyOp7
 70
     0
102
RTVSPropertyOp8
 70
     0
102
RTVSPropertyOp9
 70
     0
102
RTVSPropertyOp10
 70
     0
102
RTVSPropertyOp11
 70
     0
102
RTVSPropertyOp12
 70
     0
102
RTVSPropertyOp13
 70
     0
102
RTVSPropertyOp14
 70
     2
102
RTVSPropertyOp15
 70
     0
102
RTVSPropertyOp16
 70
     0
102
RTVSPropertyOp17
 70
     0
102
RTVSPropertyOp18
 70
     0
102
RTVSPropertyOp19
 70
     0
102
RTVSPropertyOp20
 70
     0
102
RTVSPropertyOp21
 70
     0
102
RTVSPropertyOp22
 70
     0
102
RTVSPropertyOp23
 70
     0
102
RTVSPropertyOp24
 70
     0
102
RTVSPropertyOp25
 70
     0
102
RTVSPropertyOp26
 70
     0
102
RTVSPropertyOp27
 70
     0
102
RTVSPropertyOp28
 70
     1
102
RTVSPropertyOp29
 70
     1
102
RTVSPropertyOp30
 70
     1
102
RTVSPropertyOp31
 70
     1
102
RTVSPropertyOp32
 70
     1
  0
XRECORD
  5
886
102
{ACAD_REACTORS
330
885
102
}
330
885
100
AcDbXrecord
280
     1
102
RTVSPropertyOp0
 70
     1
102
RTVSPropertyOp1
 70
     1
102
RTVSPropertyOp2
 70
     1
102
RTVSPropertyOp3
 70
     1
102
RTVSPropertyOp4
 70
     1
102
RTVSPropertyOp5
 70
     1
102
RTVSPropertyOp6
 70
     1
102
RTVSPropertyOp7
 70
     1
102
RTVSPropertyOp8
 70
     1
102
RTVSPropertyOp9
 70
     1
102
RTVSPropertyOp10
 70
     1
102
RTVSPropertyOp11
 70
     1
102
RTVSPropertyOp12
 70
     1
102
RTVSPropertyOp13
 70
     1
102
RTVSPropertyOp14
 70
     1
102
RTVSPropertyOp15
 70
     1
102
RTVSPropertyOp16
 70
     1
102
RTVSPropertyOp17
 70
     1
102
RTVSPropertyOp18
 70
     1
102
RTVSPropertyOp19
 70
     1
102
RTVSPropertyOp20
 70
     1
102
RTVSPropertyOp21
 70
     1
102
RTVSPropertyOp22
 70
     1
102
RTVSPropertyOp23
 70
     1
102
RTVSPropertyOp24
 70
     1
102
RTVSPropertyOp25
 70
     1
102
RTVSPropertyOp26
 70
     1
102
RTVSPropertyOp27
 70
     1
102
RTVSPropertyOp28
 70
     1
102
RTVSPropertyOp29
 70
     1
102
RTVSPropertyOp30
 70
     1
102
RTVSPropertyOp31
 70
     1
102
RTVSPropertyOp32
 70
     1
  0
XRECORD
  5
86A
102
{ACAD_REACTORS
330
869
102
}
330
869
100
AcDbXrecord
280
     1
102
RTVSPropertyOp0
 70
     1
102
RTVSPropertyOp1
 70
     1
102
RTVSPropertyOp2
 70
     1
102
RTVSPropertyOp3
 70
     1
102
RTVSPropertyOp4
 70
     1
102
RTVSPropertyOp5
 70
     1
102
RTVSPropertyOp6
 70
     1
102
RTVSPropertyOp7
 70
     1
102
RTVSPropertyOp8
 70
     1
102
RTVSPropertyOp9
 70
     1
102
RTVSPropertyOp10
 70
     1
102
RTVSPropertyOp11
 70
     1
102
RTVSPropertyOp12
 70
     1
102
RTVSPropertyOp13
 70
     1
102
RTVSPropertyOp14
 70
     1
102
RTVSPropertyOp15
 70
     1
102
RTVSPropertyOp16
 70
     1
102
RTVSPropertyOp17
 70
     1
102
RTVSPropertyOp18
 70
     1
102
RTVSPropertyOp19
 70
     1
102
RTVSPropertyOp20
 70
     1
102
RTVSPropertyOp21
 70
     1
102
RTVSPropertyOp22
 70
     1
102
RTVSPropertyOp23
 70
     1
102
RTVSPropertyOp24
 70
     1
102
RTVSPropertyOp25
 70
     1
102
RTVSPropertyOp26
 70
     1
102
RTVSPropertyOp27
 70
     1
102
RTVSPropertyOp28
 70
     1
102
RTVSPropertyOp29
 70
     1
102
RTVSPropertyOp30
 70
     1
102
RTVSPropertyOp31
 70
     1
102
RTVSPropertyOp32
 70
     1
  0
XRECORD
  5
86C
102
{ACAD_REACTORS
330
86B
102
}
330
86B
100
AcDbXrecord
280
     1
102
RTVSPropertyOp0
 70
     1
102
RTVSPropertyOp1
 70
     1
102
RTVSPropertyOp2
 70
     1
102
RTVSPropertyOp3
 70
     1
102
RTVSPropertyOp4
 70
     1
102
RTVSPropertyOp5
 70
     1
102
RTVSPropertyOp6
 70
     1
102
RTVSPropertyOp7
 70
     1
102
RTVSPropertyOp8
 70
     1
102
RTVSPropertyOp9
 70
     1
102
RTVSPropertyOp10
 70
     1
102
RTVSPropertyOp11
 70
     1
102
RTVSPropertyOp12
 70
     1
102
RTVSPropertyOp13
 70
     1
102
RTVSPropertyOp14
 70
     1
102
RTVSPropertyOp15
 70
     1
102
RTVSPropertyOp16
 70
     1
102
RTVSPropertyOp17
 70
     1
102
RTVSPropertyOp18
 70
     1
102
RTVSPropertyOp19
 70
     1
102
RTVSPropertyOp20
 70
     1
102
RTVSPropertyOp21
 70
     1
102
RTVSPropertyOp22
 70
     1
102
RTVSPropertyOp23
 70
     1
102
RTVSPropertyOp24
 70
     1
102
RTVSPropertyOp25
 70
     1
102
RTVSPropertyOp26
 70
     1
102
RTVSPropertyOp27
 70
     1
102
RTVSPropertyOp28
 70
     1
102
RTVSPropertyOp29
 70
     1
102
RTVSPropertyOp30
 70
     1
102
RTVSPropertyOp31
 70
     1
102
RTVSPropertyOp32
 70
     1
  0
XRECORD
  5
86E
102
{ACAD_REACTORS
330
86D
102
}
330
86D
100
AcDbXrecord
280
     1
102
RTVSPropertyOp0
 70
     1
102
RTVSPropertyOp1
 70
     1
102
RTVSPropertyOp2
 70
     1
102
RTVSPropertyOp3
 70
     1
102
RTVSPropertyOp4
 70
     1
102
RTVSPropertyOp5
 70
     1
102
RTVSPropertyOp6
 70
     1
102
RTVSPropertyOp7
 70
     1
102
RTVSPropertyOp8
 70
     1
102
RTVSPropertyOp9
 70
     1
102
RTVSPropertyOp10
 70
     1
102
RTVSPropertyOp11
 70
     1
102
RTVSPropertyOp12
 70
     1
102
RTVSPropertyOp13
 70
     1
102
RTVSPropertyOp14
 70
     1
102
RTVSPropertyOp15
 70
     1
102
RTVSPropertyOp16
 70
     1
102
RTVSPropertyOp17
 70
     1
102
RTVSPropertyOp18
 70
     1
102
RTVSPropertyOp19
 70
     1
102
RTVSPropertyOp20
 70
     1
102
RTVSPropertyOp21
 70
     1
102
RTVSPropertyOp22
 70
     1
102
RTVSPropertyOp23
 70
     1
102
RTVSPropertyOp24
 70
     1
102
RTVSPropertyOp25
 70
     1
102
RTVSPropertyOp26
 70
     1
102
RTVSPropertyOp27
 70
     1
102
RTVSPropertyOp28
 70
     1
102
RTVSPropertyOp29
 70
     1
102
RTVSPropertyOp30
 70
     1
102
RTVSPropertyOp31
 70
     1
102
RTVSPropertyOp32
 70
     1
  0
XRECORD
  5
870
102
{ACAD_REACTORS
330
86F
102
}
330
86F
100
AcDbXrecord
280
     1
102
RTVSPropertyOp0
 70
     1
102
RTVSPropertyOp1
 70
     1
102
RTVSPropertyOp2
 70
     1
102
RTVSPropertyOp3
 70
     1
102
RTVSPropertyOp4
 70
     1
102
RTVSPropertyOp5
 70
     1
102
RTVSPropertyOp6
 70
     1
102
RTVSPropertyOp7
 70
     1
102
RTVSPropertyOp8
 70
     1
102
RTVSPropertyOp9
 70
     1
102
RTVSPropertyOp10
 70
     1
102
RTVSPropertyOp11
 70
     1
102
RTVSPropertyOp12
 70
     1
102
RTVSPropertyOp13
 70
     1
102
RTVSPropertyOp14
 70
     1
102
RTVSPropertyOp15
 70
     1
102
RTVSPropertyOp16
 70
     1
102
RTVSPropertyOp17
 70
     1
102
RTVSPropertyOp18
 70
     1
102
RTVSPropertyOp19
 70
     1
102
RTVSPropertyOp20
 70
     1
102
RTVSPropertyOp21
 70
     1
102
RTVSPropertyOp22
 70
     1
102
RTVSPropertyOp23
 70
     1
102
RTVSPropertyOp24
 70
     1
102
RTVSPropertyOp25
 70
     1
102
RTVSPropertyOp26
 70
     1
102
RTVSPropertyOp27
 70
     1
102
RTVSPropertyOp28
 70
     1
102
RTVSPropertyOp29
 70
     1
102
RTVSPropertyOp30
 70
     1
102
RTVSPropertyOp31
 70
     1
102
RTVSPropertyOp32
 70
     1
  0
XRECORD
  5
878
102
{ACAD_REACTORS
330
877
102
}
330
877
100
AcDbXrecord
280
     1
102
RTVSPropertyOp0
 70
     1
102
RTVSPropertyOp1
 70
     1
102
RTVSPropertyOp2
 70
     1
102
RTVSPropertyOp3
 70
     1
102
RTVSPropertyOp4
 70
     1
102
RTVSPropertyOp5
 70
     1
102
RTVSPropertyOp6
 70
     1
102
RTVSPropertyOp7
 70
     1
102
RTVSPropertyOp8
 70
     1
102
RTVSPropertyOp9
 70
     1
102
RTVSPropertyOp10
 70
     1
102
RTVSPropertyOp11
 70
     1
102
RTVSPropertyOp12
 70
     1
102
RTVSPropertyOp13
 70
     1
102
RTVSPropertyOp14
 70
     1
102
RTVSPropertyOp15
 70
     1
102
RTVSPropertyOp16
 70
     1
102
RTVSPropertyOp17
 70
     1
102
RTVSPropertyOp18
 70
     1
102
RTVSPropertyOp19
 70
     1
102
RTVSPropertyOp20
 70
     1
102
RTVSPropertyOp21
 70
     1
102
RTVSPropertyOp22
 70
     1
102
RTVSPropertyOp23
 70
     1
102
RTVSPropertyOp24
 70
     1
102
RTVSPropertyOp25
 70
     1
102
RTVSPropertyOp26
 70
     1
102
RTVSPropertyOp27
 70
     1
102
RTVSPropertyOp28
 70
     1
102
RTVSPropertyOp29
 70
     1
102
RTVSPropertyOp30
 70
     1
102
RTVSPropertyOp31
 70
     1
102
RTVSPropertyOp32
 70
     1
  0
XRECORD
  5
88A
102
{ACAD_REACTORS
330
889
102
}
330
889
100
AcDbXrecord
280
     1
102
RTVSPropertyOp0
 70
     0
102
RTVSPropertyOp1
 70
     0
102
RTVSPropertyOp2
 70
     0
102
RTVSPropertyOp3
 70
     0
102
RTVSPropertyOp4
 70
     0
102
RTVSPropertyOp5
 70
     0
102
RTVSPropertyOp6
 70
     0
102
RTVSPropertyOp7
 70
     0
102
RTVSPropertyOp8
 70
     0
102
RTVSPropertyOp9
 70
     0
102
RTVSPropertyOp10
 70
     0
102
RTVSPropertyOp11
 70
     0
102
RTVSPropertyOp12
 70
     0
102
RTVSPropertyOp13
 70
     0
102
RTVSPropertyOp14
 70
     2
102
RTVSPropertyOp15
 70
     0
102
RTVSPropertyOp16
 70
     0
102
RTVSPropertyOp17
 70
     0
102
RTVSPropertyOp18
 70
     0
102
RTVSPropertyOp19
 70
     0
102
RTVSPropertyOp20
 70
     0
102
RTVSPropertyOp21
 70
     0
102
RTVSPropertyOp22
 70
     0
102
RTVSPropertyOp23
 70
     0
102
RTVSPropertyOp24
 70
     0
102
RTVSPropertyOp25
 70
     0
102
RTVSPropertyOp26
 70
     0
102
RTVSPropertyOp27
 70
     0
102
RTVSPropertyOp28
 70
     1
102
RTVSPropertyOp29
 70
     1
102
RTVSPropertyOp30
 70
     1
102
RTVSPropertyOp31
 70
     1
102
RTVSPropertyOp32
 70
     1
  0
XRECORD
  5
884
102
{ACAD_REACTORS
330
883
102
}
330
883
100
AcDbXrecord
280
     1
102
RTVSPropertyOp0
 70
     1
102
RTVSPropertyOp1
 70
     1
102
RTVSPropertyOp2
 70
     1
102
RTVSPropertyOp3
 70
     1
102
RTVSPropertyOp4
 70
     1
102
RTVSPropertyOp5
 70
     1
102
RTVSPropertyOp6
 70
     1
102
RTVSPropertyOp7
 70
     1
102
RTVSPropertyOp8
 70
     1
102
RTVSPropertyOp9
 70
     1
102
RTVSPropertyOp10
 70
     1
102
RTVSPropertyOp11
 70
     1
102
RTVSPropertyOp12
 70
     1
102
RTVSPropertyOp13
 70
     1
102
RTVSPropertyOp14
 70
     1
102
RTVSPropertyOp15
 70
     1
102
RTVSPropertyOp16
 70
     1
102
RTVSPropertyOp17
 70
     1
102
RTVSPropertyOp18
 70
     1
102
RTVSPropertyOp19
 70
     1
102
RTVSPropertyOp20
 70
     1
102
RTVSPropertyOp21
 70
     1
102
RTVSPropertyOp22
 70
     1
102
RTVSPropertyOp23
 70
     1
102
RTVSPropertyOp24
 70
     1
102
RTVSPropertyOp25
 70
     1
102
RTVSPropertyOp26
 70
     1
102
RTVSPropertyOp27
 70
     1
102
RTVSPropertyOp28
 70
     1
102
RTVSPropertyOp29
 70
     1
102
RTVSPropertyOp30
 70
     1
102
RTVSPropertyOp31
 70
     1
102
RTVSPropertyOp32
 70
     1
  0
XRECORD
  5
88C
102
{ACAD_REACTORS
330
88B
102
}
330
88B
100
AcDbXrecord
280
     1
102
RTVSPropertyOp0
 70
     0
102
RTVSPropertyOp1
 70
     0
102
RTVSPropertyOp2
 70
     0
102
RTVSPropertyOp3
 70
     0
102
RTVSPropertyOp4
 70
     0
102
RTVSPropertyOp5
 70
     0
102
RTVSPropertyOp6
 70
     0
102
RTVSPropertyOp7
 70
     0
102
RTVSPropertyOp8
 70
     0
102
RTVSPropertyOp9
 70
     0
102
RTVSPropertyOp10
 70
     0
102
RTVSPropertyOp11
 70
     0
102
RTVSPropertyOp12
 70
     0
102
RTVSPropertyOp13
 70
     0
102
RTVSPropertyOp14
 70
     2
102
RTVSPropertyOp15
 70
     0
102
RTVSPropertyOp16
 70
     0
102
RTVSPropertyOp17
 70
     0
102
RTVSPropertyOp18
 70
     0
102
RTVSPropertyOp19
 70
     0
102
RTVSPropertyOp20
 70
     0
102
RTVSPropertyOp21
 70
     0
102
RTVSPropertyOp22
 70
     0
102
RTVSPropertyOp23
 70
     0
102
RTVSPropertyOp24
 70
     0
102
RTVSPropertyOp25
 70
     0
102
RTVSPropertyOp26
 70
     0
102
RTVSPropertyOp27
 70
     0
102
RTVSPropertyOp28
 70
     1
102
RTVSPropertyOp29
 70
     1
102
RTVSPropertyOp30
 70
     1
102
RTVSPropertyOp31
 70
     1
102
RTVSPropertyOp32
 70
     1
  0
XRECORD
  5
87C
102
{ACAD_REACTORS
330
87B
102
}
330
87B
100
AcDbXrecord
280
     1
102
RTVSPropertyOp0
 70
     1
102
RTVSPropertyOp1
 70
     1
102
RTVSPropertyOp2
 70
     1
102
RTVSPropertyOp3
 70
     1
102
RTVSPropertyOp4
 70
     1
102
RTVSPropertyOp5
 70
     1
102
RTVSPropertyOp6
 70
     1
102
RTVSPropertyOp7
 70
     1
102
RTVSPropertyOp8
 70
     1
102
RTVSPropertyOp9
 70
     1
102
RTVSPropertyOp10
 70
     1
102
RTVSPropertyOp11
 70
     1
102
RTVSPropertyOp12
 70
     1
102
RTVSPropertyOp13
 70
     1
102
RTVSPropertyOp14
 70
     1
102
RTVSPropertyOp15
 70
     1
102
RTVSPropertyOp16
 70
     1
102
RTVSPropertyOp17
 70
     1
102
RTVSPropertyOp18
 70
     1
102
RTVSPropertyOp19
 70
     1
102
RTVSPropertyOp20
 70
     1
102
RTVSPropertyOp21
 70
     1
102
RTVSPropertyOp22
 70
     1
102
RTVSPropertyOp23
 70
     1
102
RTVSPropertyOp24
 70
     1
102
RTVSPropertyOp25
 70
     1
102
RTVSPropertyOp26
 70
     1
102
RTVSPropertyOp27
 70
     1
102
RTVSPropertyOp28
 70
     1
102
RTVSPropertyOp29
 70
     1
102
RTVSPropertyOp30
 70
     1
102
RTVSPropertyOp31
 70
     1
102
RTVSPropertyOp32
 70
     1
  0
XRECORD
  5
898
102
{ACAD_REACTORS
330
897
102
}
330
897
100
AcDbXrecord
280
     1
102
RTVSPropertyOp0
 70
     1
102
RTVSPropertyOp1
 70
     1
102
RTVSPropertyOp2
 70
     1
102
RTVSPropertyOp3
 70
     1
102
RTVSPropertyOp4
 70
     1
102
RTVSPropertyOp5
 70
     1
102
RTVSPropertyOp6
 70
     1
102
RTVSPropertyOp7
 70
     1
102
RTVSPropertyOp8
 70
     1
102
RTVSPropertyOp9
 70
     1
102
RTVSPropertyOp10
 70
     1
102
RTVSPropertyOp11
 70
     1
102
RTVSPropertyOp12
 70
     1
102
RTVSPropertyOp13
 70
     1
102
RTVSPropertyOp14
 70
     1
102
RTVSPropertyOp15
 70
     1
102
RTVSPropertyOp16
 70
     1
102
RTVSPropertyOp17
 70
     1
102
RTVSPropertyOp18
 70
     1
102
RTVSPropertyOp19
 70
     1
102
RTVSPropertyOp20
 70
     1
102
RTVSPropertyOp21
 70
     1
102
RTVSPropertyOp22
 70
     1
102
RTVSPropertyOp23
 70
     1
102
RTVSPropertyOp24
 70
     1
102
RTVSPropertyOp25
 70
     1
102
RTVSPropertyOp26
 70
     1
102
RTVSPropertyOp27
 70
     1
102
RTVSPropertyOp28
 70
     1
102
RTVSPropertyOp29
 70
     1
102
RTVSPropertyOp30
 70
     1
102
RTVSPropertyOp31
 70
     1
102
RTVSPropertyOp32
 70
     1
  0
XRECORD
  5
896
102
{ACAD_REACTORS
330
895
102
}
330
895
100
AcDbXrecord
280
     1
102
RTVSPropertyOp0
 70
     1
102
RTVSPropertyOp1
 70
     1
102
RTVSPropertyOp2
 70
     1
102
RTVSPropertyOp3
 70
     1
102
RTVSPropertyOp4
 70
     1
102
RTVSPropertyOp5
 70
     1
102
RTVSPropertyOp6
 70
     1
102
RTVSPropertyOp7
 70
     1
102
RTVSPropertyOp8
 70
     1
102
RTVSPropertyOp9
 70
     1
102
RTVSPropertyOp10
 70
     1
102
RTVSPropertyOp11
 70
     1
102
RTVSPropertyOp12
 70
     1
102
RTVSPropertyOp13
 70
     1
102
RTVSPropertyOp14
 70
     1
102
RTVSPropertyOp15
 70
     1
102
RTVSPropertyOp16
 70
     1
102
RTVSPropertyOp17
 70
     1
102
RTVSPropertyOp18
 70
     1
102
RTVSPropertyOp19
 70
     1
102
RTVSPropertyOp20
 70
     1
102
RTVSPropertyOp21
 70
     1
102
RTVSPropertyOp22
 70
     1
102
RTVSPropertyOp23
 70
     1
102
RTVSPropertyOp24
 70
     1
102
RTVSPropertyOp25
 70
     1
102
RTVSPropertyOp26
 70
     1
102
RTVSPropertyOp27
 70
     1
102
RTVSPropertyOp28
 70
     1
102
RTVSPropertyOp29
 70
     1
102
RTVSPropertyOp30
 70
     1
102
RTVSPropertyOp31
 70
     1
102
RTVSPropertyOp32
 70
     1
  0
XRECORD
  5
890
102
{ACAD_REACTORS
330
88F
102
}
330
88F
100
AcDbXrecord
280
     1
102
RTVSPropertyOp0
 70
     1
102
RTVSPropertyOp1
 70
     1
102
RTVSPropertyOp2
 70
     1
102
RTVSPropertyOp3
 70
     1
102
RTVSPropertyOp4
 70
     1
102
RTVSPropertyOp5
 70
     1
102
RTVSPropertyOp6
 70
     1
102
RTVSPropertyOp7
 70
     1
102
RTVSPropertyOp8
 70
     1
102
RTVSPropertyOp9
 70
     1
102
RTVSPropertyOp10
 70
     1
102
RTVSPropertyOp11
 70
     1
102
RTVSPropertyOp12
 70
     1
102
RTVSPropertyOp13
 70
     1
102
RTVSPropertyOp14
 70
     1
102
RTVSPropertyOp15
 70
     1
102
RTVSPropertyOp16
 70
     1
102
RTVSPropertyOp17
 70
     1
102
RTVSPropertyOp18
 70
     1
102
RTVSPropertyOp19
 70
     1
102
RTVSPropertyOp20
 70
     1
102
RTVSPropertyOp21
 70
     1
102
RTVSPropertyOp22
 70
     1
102
RTVSPropertyOp23
 70
     1
102
RTVSPropertyOp24
 70
     1
102
RTVSPropertyOp25
 70
     1
102
RTVSPropertyOp26
 70
     1
102
RTVSPropertyOp27
 70
     1
102
RTVSPropertyOp28
 70
     1
102
RTVSPropertyOp29
 70
     1
102
RTVSPropertyOp30
 70
     1
102
RTVSPropertyOp31
 70
     1
102
RTVSPropertyOp32
 70
     1
  0
XRECORD
  5
892
102
{ACAD_REACTORS
330
891
102
}
330
891
100
AcDbXrecord
280
     1
102
RTVSPropertyOp0
 70
     1
102
RTVSPropertyOp1
 70
     1
102
RTVSPropertyOp2
 70
     1
102
RTVSPropertyOp3
 70
     1
102
RTVSPropertyOp4
 70
     1
102
RTVSPropertyOp5
 70
     1
102
RTVSPropertyOp6
 70
     1
102
RTVSPropertyOp7
 70
     1
102
RTVSPropertyOp8
 70
     1
102
RTVSPropertyOp9
 70
     1
102
RTVSPropertyOp10
 70
     1
102
RTVSPropertyOp11
 70
     1
102
RTVSPropertyOp12
 70
     1
102
RTVSPropertyOp13
 70
     1
102
RTVSPropertyOp14
 70
     1
102
RTVSPropertyOp15
 70
     1
102
RTVSPropertyOp16
 70
     1
102
RTVSPropertyOp17
 70
     1
102
RTVSPropertyOp18
 70
     1
102
RTVSPropertyOp19
 70
     1
102
RTVSPropertyOp20
 70
     1
102
RTVSPropertyOp21
 70
     1
102
RTVSPropertyOp22
 70
     1
102
RTVSPropertyOp23
 70
     1
102
RTVSPropertyOp24
 70
     1
102
RTVSPropertyOp25
 70
     1
102
RTVSPropertyOp26
 70
     1
102
RTVSPropertyOp27
 70
     1
102
RTVSPropertyOp28
 70
     1
102
RTVSPropertyOp29
 70
     1
102
RTVSPropertyOp30
 70
     1
102
RTVSPropertyOp31
 70
     1
102
RTVSPropertyOp32
 70
     1
  0
XRECORD
  5
882
102
{ACAD_REACTORS
330
881
102
}
330
881
100
AcDbXrecord
280
     1
102
RTVSPropertyOp0
 70
     1
102
RTVSPropertyOp1
 70
     1
102
RTVSPropertyOp2
 70
     1
102
RTVSPropertyOp3
 70
     1
102
RTVSPropertyOp4
 70
     1
102
RTVSPropertyOp5
 70
     1
102
RTVSPropertyOp6
 70
     1
102
RTVSPropertyOp7
 70
     1
102
RTVSPropertyOp8
 70
     1
102
RTVSPropertyOp9
 70
     1
102
RTVSPropertyOp10
 70
     1
102
RTVSPropertyOp11
 70
     1
102
RTVSPropertyOp12
 70
     1
102
RTVSPropertyOp13
 70
     1
102
RTVSPropertyOp14
 70
     1
102
RTVSPropertyOp15
 70
     1
102
RTVSPropertyOp16
 70
     1
102
RTVSPropertyOp17
 70
     1
102
RTVSPropertyOp18
 70
     1
102
RTVSPropertyOp19
 70
     1
102
RTVSPropertyOp20
 70
     1
102
RTVSPropertyOp21
 70
     1
102
RTVSPropertyOp22
 70
     1
102
RTVSPropertyOp23
 70
     1
102
RTVSPropertyOp24
 70
     1
102
RTVSPropertyOp25
 70
     1
102
RTVSPropertyOp26
 70
     1
102
RTVSPropertyOp27
 70
     1
102
RTVSPropertyOp28
 70
     1
102
RTVSPropertyOp29
 70
     1
102
RTVSPropertyOp30
 70
     1
102
RTVSPropertyOp31
 70
     1
102
RTVSPropertyOp32
 70
     1
  0
XRECORD
  5
876
102
{ACAD_REACTORS
330
875
102
}
330
875
100
AcDbXrecord
280
     1
102
RTVSPropertyOp0
 70
     1
102
RTVSPropertyOp1
 70
     1
102
RTVSPropertyOp2
 70
     1
102
RTVSPropertyOp3
 70
     1
102
RTVSPropertyOp4
 70
     1
102
RTVSPropertyOp5
 70
     1
102
RTVSPropertyOp6
 70
     1
102
RTVSPropertyOp7
 70
     1
102
RTVSPropertyOp8
 70
     1
102
RTVSPropertyOp9
 70
     1
102
RTVSPropertyOp10
 70
     1
102
RTVSPropertyOp11
 70
     1
102
RTVSPropertyOp12
 70
     1
102
RTVSPropertyOp13
 70
     1
102
RTVSPropertyOp14
 70
     1
102
RTVSPropertyOp15
 70
     1
102
RTVSPropertyOp16
 70
     1
102
RTVSPropertyOp17
 70
     1
102
RTVSPropertyOp18
 70
     1
102
RTVSPropertyOp19
 70
     1
102
RTVSPropertyOp20
 70
     1
102
RTVSPropertyOp21
 70
     1
102
RTVSPropertyOp22
 70
     1
102
RTVSPropertyOp23
 70
     1
102
RTVSPropertyOp24
 70
     1
102
RTVSPropertyOp25
 70
     1
102
RTVSPropertyOp26
 70
     1
102
RTVSPropertyOp27
 70
     1
102
RTVSPropertyOp28
 70
     1
102
RTVSPropertyOp29
 70
     1
102
RTVSPropertyOp30
 70
     1
102
RTVSPropertyOp31
 70
     1
102
RTVSPropertyOp32
 70
     1
  0
XRECORD
  5
894
102
{ACAD_REACTORS
330
893
102
}
330
893
100
AcDbXrecord
280
     1
102
RTVSPropertyOp0
 70
     1
102
RTVSPropertyOp1
 70
     1
102
RTVSPropertyOp2
 70
     1
102
RTVSPropertyOp3
 70
     1
102
RTVSPropertyOp4
 70
     1
102
RTVSPropertyOp5
 70
     1
102
RTVSPropertyOp6
 70
     1
102
RTVSPropertyOp7
 70
     1
102
RTVSPropertyOp8
 70
     1
102
RTVSPropertyOp9
 70
     1
102
RTVSPropertyOp10
 70
     1
102
RTVSPropertyOp11
 70
     1
102
RTVSPropertyOp12
 70
     1
102
RTVSPropertyOp13
 70
     1
102
RTVSPropertyOp14
 70
     1
102
RTVSPropertyOp15
 70
     1
102
RTVSPropertyOp16
 70
     1
102
RTVSPropertyOp17
 70
     1
102
RTVSPropertyOp18
 70
     1
102
RTVSPropertyOp19
 70
     1
102
RTVSPropertyOp20
 70
     1
102
RTVSPropertyOp21
 70
     1
102
RTVSPropertyOp22
 70
     1
102
RTVSPropertyOp23
 70
     1
102
RTVSPropertyOp24
 70
     1
102
RTVSPropertyOp25
 70
     1
102
RTVSPropertyOp26
 70
     1
102
RTVSPropertyOp27
 70
     1
102
RTVSPropertyOp28
 70
     1
102
RTVSPropertyOp29
 70
     1
102
RTVSPropertyOp30
 70
     1
102
RTVSPropertyOp31
 70
     1
102
RTVSPropertyOp32
 70
     1
  0
ENDSEC
  0
EOF
