  0
SECTION
  2
HEADER
  9
$ACADVER
  1
AC1018
  9
$ACADMAINTVER
 70
   104
  9
$DWGCODEPAGE
  3
ANSI_936
  9
$LASTSAVEDBY
  1
MY
  9
$INSBASE
 10
0.0
 20
0.0
 30
0.0
  9
$EXTMIN
 10
1926.630488737039
 20
751.881128437863
 30
0.0
  9
$EXTMAX
 10
3040.751364199481
 20
1701.401410231348
 30
0.0
  9
$LIMMIN
 10
0.0
 20
0.0
  9
$LIMMAX
 10
420.0
 20
297.0
  9
$ORTHOMODE
 70
     0
  9
$REGENMODE
 70
     1
  9
$FILLMODE
 70
     1
  9
$QTEXTMODE
 70
     0
  9
$MIRRTEXT
 70
     0
  9
$LTSCALE
 40
1.0
  9
$ATTMODE
 70
     1
  9
$TEXTSIZE
 40
2.5
  9
$TRACEWID
 40
1.0
  9
$TEXTSTYLE
  7
Standard
  9
$CLAYER
  8
0
  9
$CELTYPE
  6
ByLayer
  9
$CECOLOR
 62
   256
  9
$CELTSCALE
 40
1.0
  9
$DISPSILH
 70
     0
  9
$DIMSCALE
 40
1.0
  9
$DIMASZ
 40
2.5
  9
$DIMEXO
 40
0.625
  9
$DIMDLI
 40
3.75
  9
$DIMRND
 40
0.0
  9
$DIMDLE
 40
0.0
  9
$DIMEXE
 40
1.25
  9
$DIMTP
 40
0.0
  9
$DIMTM
 40
0.0
  9
$DIMTXT
 40
2.5
  9
$DIMCEN
 40
2.5
  9
$DIMTSZ
 40
0.0
  9
$DIMTOL
 70
     0
  9
$DIMLIM
 70
     0
  9
$DIMTIH
 70
     0
  9
$DIMTOH
 70
     0
  9
$DIMSE1
 70
     0
  9
$DIMSE2
 70
     0
  9
$DIMTAD
 70
     1
  9
$DIMZIN
 70
     8
  9
$DIMBLK
  1

  9
$DIMASO
 70
     1
  9
$DIMSHO
 70
     1
  9
$DIMPOST
  1

  9
$DIMAPOST
  1

  9
$DIMALT
 70
     0
  9
$DIMALTD
 70
     3
  9
$DIMALTF
 40
0.03937007874016
  9
$DIMLFAC
 40
1.0
  9
$DIMTOFL
 70
     1
  9
$DIMTVP
 40
0.0
  9
$DIMTIX
 70
     0
  9
$DIMSOXD
 70
     0
  9
$DIMSAH
 70
     0
  9
$DIMBLK1
  1

  9
$DIMBLK2
  1

  9
$DIMSTYLE
  2
ISO-25
  9
$DIMCLRD
 70
     0
  9
$DIMCLRE
 70
     0
  9
$DIMCLRT
 70
     0
  9
$DIMTFAC
 40
1.0
  9
$DIMGAP
 40
0.625
  9
$DIMJUST
 70
     0
  9
$DIMSD1
 70
     0
  9
$DIMSD2
 70
     0
  9
$DIMTOLJ
 70
     0
  9
$DIMTZIN
 70
     8
  9
$DIMALTZ
 70
     0
  9
$DIMALTTZ
 70
     0
  9
$DIMUPT
 70
     0
  9
$DIMDEC
 70
     2
  9
$DIMTDEC
 70
     2
  9
$DIMALTU
 70
     2
  9
$DIMALTTD
 70
     3
  9
$DIMTXSTY
  7
Standard
  9
$DIMAUNIT
 70
     0
  9
$DIMADEC
 70
     0
  9
$DIMALTRND
 40
0.0
  9
$DIMAZIN
 70
     0
  9
$DIMDSEP
 70
    44
  9
$DIMATFIT
 70
     3
  9
$DIMFRAC
 70
     0
  9
$DIMLDRBLK
  1

  9
$DIMLUNIT
 70
     2
  9
$DIMLWD
 70
    -2
  9
$DIMLWE
 70
    -2
  9
$DIMTMOVE
 70
     0
  9
$LUNITS
 70
     2
  9
$LUPREC
 70
     4
  9
$SKETCHINC
 40
1.0
  9
$FILLETRAD
 40
0.0
  9
$AUNITS
 70
     0
  9
$AUPREC
 70
     0
  9
$MENU
  1
.
  9
$ELEVATION
 40
0.0
  9
$PELEVATION
 40
0.0
  9
$THICKNESS
 40
0.0
  9
$LIMCHECK
 70
     0
  9
$CHAMFERA
 40
0.0
  9
$CHAMFERB
 40
0.0
  9
$CHAMFERC
 40
0.0
  9
$CHAMFERD
 40
0.0
  9
$SKPOLY
 70
     0
  9
$TDCREATE
 40
2456709.595223311
  9
$TDUCREATE
 40
2456709.261889977
  9
$TDUPDATE
 40
2456709.596360313
  9
$TDUUPDATE
 40
2456709.263026979
  9
$TDINDWG
 40
0.0011383333
  9
$TDUSRTIMER
 40
0.0011382755
  9
$USRTIMER
 70
     1
  9
$ANGBASE
 50
0.0
  9
$ANGDIR
 70
     0
  9
$PDMODE
 70
     0
  9
$PDSIZE
 40
0.0
  9
$PLINEWID
 40
0.0
  9
$SPLFRAME
 70
     0
  9
$SPLINETYPE
 70
     6
  9
$SPLINESEGS
 70
     8
  9
$HANDSEED
  5
44A
  9
$SURFTAB1
 70
     6
  9
$SURFTAB2
 70
     6
  9
$SURFTYPE
 70
     6
  9
$SURFU
 70
     6
  9
$SURFV
 70
     6
  9
$UCSBASE
  2

  9
$UCSNAME
  2

  9
$UCSORG
 10
0.0
 20
0.0
 30
0.0
  9
$UCSXDIR
 10
1.0
 20
0.0
 30
0.0
  9
$UCSYDIR
 10
0.0
 20
1.0
 30
0.0
  9
$UCSORTHOREF
  2

  9
$UCSORTHOVIEW
 70
     0
  9
$UCSORGTOP
 10
0.0
 20
0.0
 30
0.0
  9
$UCSORGBOTTOM
 10
0.0
 20
0.0
 30
0.0
  9
$UCSORGLEFT
 10
0.0
 20
0.0
 30
0.0
  9
$UCSORGRIGHT
 10
0.0
 20
0.0
 30
0.0
  9
$UCSORGFRONT
 10
0.0
 20
0.0
 30
0.0
  9
$UCSORGBACK
 10
0.0
 20
0.0
 30
0.0
  9
$PUCSBASE
  2

  9
$PUCSNAME
  2

  9
$PUCSORG
 10
0.0
 20
0.0
 30
0.0
  9
$PUCSXDIR
 10
1.0
 20
0.0
 30
0.0
  9
$PUCSYDIR
 10
0.0
 20
1.0
 30
0.0
  9
$PUCSORTHOREF
  2

  9
$PUCSORTHOVIEW
 70
     0
  9
$PUCSORGTOP
 10
0.0
 20
0.0
 30
0.0
  9
$PUCSORGBOTTOM
 10
0.0
 20
0.0
 30
0.0
  9
$PUCSORGLEFT
 10
0.0
 20
0.0
 30
0.0
  9
$PUCSORGRIGHT
 10
0.0
 20
0.0
 30
0.0
  9
$PUCSORGFRONT
 10
0.0
 20
0.0
 30
0.0
  9
$PUCSORGBACK
 10
0.0
 20
0.0
 30
0.0
  9
$USERI1
 70
     0
  9
$USERI2
 70
     0
  9
$USERI3
 70
     0
  9
$USERI4
 70
     0
  9
$USERI5
 70
     0
  9
$USERR1
 40
0.0
  9
$USERR2
 40
0.0
  9
$USERR3
 40
0.0
  9
$USERR4
 40
0.0
  9
$USERR5
 40
0.0
  9
$WORLDVIEW
 70
     1
  9
$SHADEDGE
 70
     3
  9
$SHADEDIF
 70
    70
  9
$TILEMODE
 70
     1
  9
$MAXACTVP
 70
    64
  9
$PINSBASE
 10
0.0
 20
0.0
 30
0.0
  9
$PLIMCHECK
 70
     0
  9
$PEXTMIN
 10
0.0
 20
0.0
 30
0.0
  9
$PEXTMAX
 10
0.0
 20
0.0
 30
0.0
  9
$PLIMMIN
 10
0.0
 20
0.0
  9
$PLIMMAX
 10
12.0
 20
9.0
  9
$UNITMODE
 70
     0
  9
$VISRETAIN
 70
     1
  9
$PLINEGEN
 70
     0
  9
$PSLTSCALE
 70
     1
  9
$TREEDEPTH
 70
  3020
  9
$CMLSTYLE
  2
Standard
  9
$CMLJUST
 70
     0
  9
$CMLSCALE
 40
20.0
  9
$PROXYGRAPHICS
 70
     1
  9
$MEASUREMENT
 70
     1
  9
$CELWEIGHT
370
    -1
  9
$ENDCAPS
280
     0
  9
$JOINSTYLE
280
     0
  9
$LWDISPLAY
290
     0
  9
$INSUNITS
 70
     4
  9
$HYPERLINKBASE
  1

  9
$STYLESHEET
  1
acad.ctb
  9
$XEDIT
290
     1
  9
$CEPSNTYPE
380
     0
  9
$PSTYLEMODE
290
     1
  9
$FINGERPRINTGUID
  2
{0A5748B7-240F-4FDC-B8A1-03E7EDBD0B03}
  9
$VERSIONGUID
  2
{826F79B8-767B-49E0-94D8-0345C0AE0D72}
  9
$EXTNAMES
290
     1
  9
$PSVPSCALE
 40
0.0
  9
$OLESTARTUP
290
     0
  9
$SORTENTS
280
   127
  9
$INDEXCTL
280
     0
  9
$HIDETEXT
280
     1
  9
$XCLIPFRAME
290
     0
  9
$HALOGAP
280
     0
  9
$OBSCOLOR
 70
   257
  9
$OBSLTYPE
280
     0
  9
$INTERSECTIONDISPLAY
280
     0
  9
$INTERSECTIONCOLOR
 70
   257
  9
$DIMASSOC
280
     2
  9
$PROJECTNAME
  1

  0
ENDSEC
  0
SECTION
  2
CLASSES
  0
CLASS
  1
ACDBDICTIONARYWDFLT
  2
AcDbDictionaryWithDefault
  3
ObjectDBX Classes
 90
        0
 91
        1
280
     0
281
     0
  0
CLASS
  1
DICTIONARYVAR
  2
AcDbDictionaryVar
  3
ObjectDBX Classes
 90
        0
 91
       12
280
     0
281
     0
  0
CLASS
  1
TABLESTYLE
  2
AcDbTableStyle
  3
ObjectDBX Classes
 90
     4095
 91
        1
280
     0
281
     0
  0
CLASS
  1
MATERIAL
  2
AcDbMaterial
  3
ObjectDBX Classes
 90
     1153
 91
        3
280
     0
281
     0
  0
CLASS
  1
VISUALSTYLE
  2
AcDbVisualStyle
  3
ObjectDBX Classes
 90
     4095
 91
       19
280
     0
281
     0
  0
CLASS
  1
SCALE
  2
AcDbScale
  3
ObjectDBX Classes
 90
     1153
 91
       17
280
     0
281
     0
  0
CLASS
  1
MLEADERSTYLE
  2
AcDbMLeaderStyle
  3
ACDB_MLEADERSTYLE_CLASS
 90
     4095
 91
        2
280
     0
281
     0
  0
CLASS
  1
CELLSTYLEMAP
  2
AcDbCellStyleMap
  3
ObjectDBX Classes
 90
     1152
 91
        2
280
     0
281
     0
  0
CLASS
  1
EXACXREFPANELOBJECT
  2
ExAcXREFPanelObject
  3
EXAC_ESW
 90
     1025
 91
        0
280
     0
281
     0
  0
CLASS
  1
NPOCOLLECTION
  2
AcDbImpNonPersistentObjectsCollection
  3
ObjectDBX Classes
 90
     1153
 91
        0
280
     0
281
     0
  0
CLASS
  1
LAYER_INDEX
  2
AcDbLayerIndex
  3
ObjectDBX Classes
 90
        0
 91
        0
280
     0
281
     0
  0
CLASS
  1
SPATIAL_INDEX
  2
AcDbSpatialIndex
  3
ObjectDBX Classes
 90
        0
 91
        0
280
     0
281
     0
  0
CLASS
  1
IDBUFFER
  2
AcDbIdBuffer
  3
ObjectDBX Classes
 90
        0
 91
        0
280
     0
281
     0
  0
CLASS
  1
DIMASSOC
  2
AcDbDimAssoc
  3
"AcDbDimAssoc|Product Desc:     AcDim ARX App For Dimension|Company:          Autodesk, Inc.|WEB Address:      www.autodesk.com"
 90
        0
 91
       16
280
     0
281
     0
  0
CLASS
  1
SORTENTSTABLE
  2
AcDbSortentsTable
  3
ObjectDBX Classes
 90
        0
 91
        1
280
     0
281
     0
  0
ENDSEC
  0
SECTION
  2
TABLES
  0
TABLE
  2
VPORT
  5
8
330
0
100
AcDbSymbolTable
 70
     1
  0
VPORT
  5
EA
330
8
100
AcDbSymbolTableRecord
100
AcDbViewportTableRecord
  2
*Active
 70
     0
 10
0.0
 20
0.0
 11
1.0
 21
1.0
 12
2419.833414810015
 22
1364.227875753934
 13
0.0
 23
0.0
 14
10.0
 24
10.0
 15
10.0
 25
10.0
 16
0.0
 26
0.0
 36
1.0
 17
0.0
 27
0.0
 37
0.0
 40
634.7818353940255
 41
2.376893939393939
 42
50.0
 43
0.0
 44
0.0
 50
0.0
 51
0.0
 71
     0
 72
  1000
 73
     1
 74
     3
 75
     0
 76
     0
 77
     0
 78
     0
281
     0
 65
     1
110
0.0
120
0.0
130
0.0
111
1.0
121
0.0
131
0.0
112
0.0
122
1.0
132
0.0
 79
     0
146
0.0
  0
ENDTAB
  0
TABLE
  2
LTYPE
  5
5
330
0
100
AcDbSymbolTable
 70
     1
  0
LTYPE
  5
14
330
5
100
AcDbSymbolTableRecord
100
AcDbLinetypeTableRecord
  2
ByBlock
 70
     0
  3

 72
    65
 73
     0
 40
0.0
  0
LTYPE
  5
15
330
5
100
AcDbSymbolTableRecord
100
AcDbLinetypeTableRecord
  2
ByLayer
 70
     0
  3

 72
    65
 73
     0
 40
0.0
  0
LTYPE
  5
16
330
5
100
AcDbSymbolTableRecord
100
AcDbLinetypeTableRecord
  2
Continuous
 70
     0
  3
Solid line
 72
    65
 73
     0
 40
0.0
  0
ENDTAB
  0
TABLE
  2
LAYER
  5
2
102
{ACAD_XDICTIONARY
360
28A
102
}
330
0
100
AcDbSymbolTable
 70
     6
  0
LAYER
  5
10
102
{ACAD_XDICTIONARY
360
13C
102
}
330
2
100
AcDbSymbolTableRecord
100
AcDbLayerTableRecord
  2
0
 70
     0
 62
     7
  6
Continuous
370
    -3
390
F
  0
LAYER
  5
27C
330
2
100
AcDbSymbolTableRecord
100
AcDbLayerTableRecord
  2
Defpoints
 70
     0
 62
     7
  6
Continuous
290
     0
370
    -3
390
F
  0
LAYER
  5
27D
330
2
100
AcDbSymbolTableRecord
100
AcDbLayerTableRecord
  2
外框线1
 70
     0
 62
     3
  6
Continuous
370
    -3
390
F
1001
AcAecLayerStandard
1000

1000

  0
LAYER
  5
27E
330
2
100
AcDbSymbolTableRecord
100
AcDbLayerTableRecord
  2
外框线2
 70
     0
 62
     6
  6
Continuous
370
    -3
390
F
1001
AcAecLayerStandard
1000

1000

  0
LAYER
  5
27F
330
2
100
AcDbSymbolTableRecord
100
AcDbLayerTableRecord
  2
标注
 70
     0
 62
     1
  6
Continuous
370
     9
390
F
1001
AcAecLayerStandard
1000

1000

  0
LAYER
  5
280
330
2
100
AcDbSymbolTableRecord
100
AcDbLayerTableRecord
  2
注释
 70
     0
 62
     7
  6
Continuous
370
    15
390
F
1001
AcAecLayerStandard
1000

1000

  0
ENDTAB
  0
TABLE
  2
STYLE
  5
3
330
0
100
AcDbSymbolTable
 70
     4
  0
STYLE
  5
11
330
3
100
AcDbSymbolTableRecord
100
AcDbTextStyleTableRecord
  2
Standard
 70
     0
 40
0.0
 41
1.0
 50
0.0
 71
     0
 42
2.5
  3

  4

1001
ACAD
1000
SimSun
1071
       34
  0
STYLE
  5
132
330
3
100
AcDbSymbolTableRecord
100
AcDbTextStyleTableRecord
  2
Annotative
 70
     0
 40
0.0
 41
1.0
 50
0.0
 71
     0
 42
2.5
  3

  4

1001
AcadAnnotative
1000
AnnotativeData
1002
{
1070
     1
1070
     1
1002
}
1001
ACAD
1000
SimSun
1071
       34
  0
STYLE
  5
281
330
3
100
AcDbSymbolTableRecord
100
AcDbTextStyleTableRecord
  2
样式 1
 70
     0
 40
0.0
 41
1.0
 50
0.0
 71
     0
 42
3.0
  3

  4

1001
ACAD
1000
NSimSun
1071
    34353
  0
ENDTAB
  0
TABLE
  2
VIEW
  5
6
330
0
100
AcDbSymbolTable
 70
     0
  0
ENDTAB
  0
TABLE
  2
UCS
  5
7
330
0
100
AcDbSymbolTable
 70
     0
  0
ENDTAB
  0
TABLE
  2
APPID
  5
9
330
0
100
AcDbSymbolTable
 70
    10
  0
APPID
  5
12
330
9
100
AcDbSymbolTableRecord
100
AcDbRegAppTableRecord
  2
ACAD
 70
     0
  0
APPID
  5
9E
330
9
100
AcDbSymbolTableRecord
100
AcDbRegAppTableRecord
  2
ACAD_PSEXT
 70
     0
  0
APPID
  5
133
330
9
100
AcDbSymbolTableRecord
100
AcDbRegAppTableRecord
  2
AcadAnnoPO
 70
     0
  0
APPID
  5
134
330
9
100
AcDbSymbolTableRecord
100
AcDbRegAppTableRecord
  2
AcadAnnotative
 70
     0
  0
APPID
  5
135
330
9
100
AcDbSymbolTableRecord
100
AcDbRegAppTableRecord
  2
ACAD_DSTYLE_DIMJAG
 70
     0
  0
APPID
  5
136
330
9
100
AcDbSymbolTableRecord
100
AcDbRegAppTableRecord
  2
ACAD_DSTYLE_DIMTALN
 70
     0
  0
APPID
  5
165
330
9
100
AcDbSymbolTableRecord
100
AcDbRegAppTableRecord
  2
ACAD_MLEADERVER
 70
     0
  0
APPID
  5
287
330
9
100
AcDbSymbolTableRecord
100
AcDbRegAppTableRecord
  2
ACAD_DSTYLE_DIMBREAK
 70
     0
  0
APPID
  5
288
330
9
100
AcDbSymbolTableRecord
100
AcDbRegAppTableRecord
  2
AcAecLayerStandard
 70
     0
  0
APPID
  5
289
330
9
100
AcDbSymbolTableRecord
100
AcDbRegAppTableRecord
  2
ACAD_DSTYLE_DIMRADIAL_EXTENSION
 70
     0
  0
ENDTAB
  0
TABLE
  2
DIMSTYLE
  5
A
330
0
100
AcDbSymbolTable
 70
     9
100
AcDbDimStyleTable
 71
     2
340
27
340
137
  0
DIMSTYLE
105
1B0
330
A
100
AcDbSymbolTableRecord
100
AcDbDimStyleTableRecord
  2
Standard
 70
     0
340
11
  0
DIMSTYLE
105
137
330
A
100
AcDbSymbolTableRecord
100
AcDbDimStyleTableRecord
  2
Annotative
 70
     0
 40
0.0
 41
2.5
 42
0.625
 43
3.75
 44
1.25
 73
     0
 74
     0
 77
     1
 78
     8
140
2.5
141
2.5
143
0.03937007874016
147
0.625
171
     3
172
     1
271
     2
272
     2
274
     3
278
    44
283
     0
284
     8
340
11
1001
AcadAnnotative
1000
AnnotativeData
1002
{
1070
     1
1070
     1
1002
}
1001
ACAD_DSTYLE_DIMJAG
1070
   388
1040
1.5
1001
ACAD_DSTYLE_DIMTALN
1070
   392
1070
     0
  0
DIMSTYLE
105
27
330
A
100
AcDbSymbolTableRecord
100
AcDbDimStyleTableRecord
  2
ISO-25
 70
     0
 41
2.5
 42
0.625
 43
3.75
 44
1.25
 73
     0
 74
     0
 77
     1
 78
     8
140
2.5
141
2.5
143
0.03937007874016
147
0.625
171
     3
172
     1
271
     2
272
     2
274
     3
278
    44
283
     0
284
     8
340
11
  0
DIMSTYLE
105
282
102
{ACAD_REACTORS
330
28E
330
2A7
330
2AA
330
2AD
330
2B0
330
2B1
102
}
330
A
100
AcDbSymbolTableRecord
100
AcDbDimStyleTableRecord
  2
1-8
 70
     0
  3
"
 40
8.0
 41
2.5
 42
0.625
 43
3.75
 44
1.25
 47
0.5
 48
0.5
 73
     0
 74
     0
 77
     1
 78
     8
140
2.299999999999999
141
2.5
143
0.03937007874016
144
0.03937007874016
147
0.625
171
     3
172
     1
271
     1
272
     1
273
     7
274
     3
283
     0
340
11
1001
ACAD_DSTYLE_DIMBREAK
1070
   391
1040
3.75
1001
ACAD_DSTYLE_DIMJAG
1070
   388
1040
1.5
1001
ACAD_DSTYLE_DIMTALN
1070
   392
1070
     0
  0
DIMSTYLE
105
283
330
A
100
AcDbSymbolTableRecord
100
AcDbDimStyleTableRecord
  2
1-8-L
 70
     0
 40
8.0
 41
1.5
 42
0.625
 43
3.75
 44
1.25
 73
     0
 74
     0
 77
     1
 78
     8
140
2.299999999999999
141
2.5
143
0.03937007874016
147
0.625
171
     8
172
     1
271
     2
272
     2
273
     7
274
     8
283
     0
284
     8
340
11
1001
ACAD_DSTYLE_DIMBREAK
1070
   391
1040
3.75
1001
ACAD_DSTYLE_DIMJAG
1070
   388
1040
1.5
1001
ACAD_DSTYLE_DIMTALN
1070
   392
1070
     0
  0
DIMSTYLE
105
284
102
{ACAD_REACTORS
330
29F
330
2A2
330
2A3
330
2A6
330
2B4
330
2E3
330
2E7
102
}
330
A
100
AcDbSymbolTableRecord
100
AcDbDimStyleTableRecord
  2
1-12
 70
     0
 40
12.0
 41
1.5
 42
0.625
 43
3.75
 44
1.25
 73
     0
 74
     0
 77
     1
 78
     8
140
2.299999999999999
141
2.5
143
0.03937007874016
147
0.625
170
     1
171
     8
172
     1
271
     2
272
     2
273
     7
274
     8
283
     0
284
     8
340
11
1001
ACAD_DSTYLE_DIMBREAK
1070
   391
1040
3.75
1001
ACAD_DSTYLE_DIMJAG
1070
   388
1040
1.5
1001
ACAD_DSTYLE_DIMTALN
1070
   392
1070
     0
  0
DIMSTYLE
105
285
330
A
100
AcDbSymbolTableRecord
100
AcDbDimStyleTableRecord
  2
1-10-L
 70
     0
 40
10.0
 41
1.5
 42
0.625
 43
3.75
 44
1.25
 73
     0
 74
     0
 77
     1
 78
     8
140
2.299999999999999
141
2.5
143
0.03937007874016
147
0.625
171
     8
172
     1
271
     2
272
     2
273
     7
274
     8
283
     0
284
     8
340
11
1001
ACAD_DSTYLE_DIMBREAK
1070
   391
1040
3.75
1001
ACAD_DSTYLE_DIMJAG
1070
   388
1040
1.5
1001
ACAD_DSTYLE_DIMTALN
1070
   392
1070
     0
  0
DIMSTYLE
105
286
330
A
100
AcDbSymbolTableRecord
100
AcDbDimStyleTableRecord
  2
1-10
 70
     0
 40
10.0
 41
1.5
 42
0.625
 43
3.75
 44
1.25
 73
     0
 74
     0
 77
     1
 78
     8
140
20.0
141
2.5
143
0.03937007874016
147
0.625
171
     8
172
     1
271
     2
272
     2
273
     7
274
     8
283
     0
284
     8
340
11
1001
ACAD_DSTYLE_DIMBREAK
1070
   391
1040
3.75
1001
ACAD_DSTYLE_DIMJAG
1070
   388
1040
1.5
1001
ACAD_DSTYLE_DIMTALN
1070
   392
1070
     0
  0
ENDTAB
  0
TABLE
  2
BLOCK_RECORD
  5
1
330
0
100
AcDbSymbolTable
 70
    25
  0
BLOCK_RECORD
  5
1F
102
{ACAD_XDICTIONARY
360
1CE
102
}
330
1
100
AcDbSymbolTableRecord
100
AcDbBlockTableRecord
  2
*Model_Space
340
22
  0
BLOCK_RECORD
  5
D2
330
1
100
AcDbSymbolTableRecord
100
AcDbBlockTableRecord
  2
*Paper_Space
340
D3
  0
BLOCK_RECORD
  5
D6
330
1
100
AcDbSymbolTableRecord
100
AcDbBlockTableRecord
  2
*Paper_Space0
340
D7
  0
BLOCK_RECORD
  5
1F4
330
1
100
AcDbSymbolTableRecord
100
AcDbBlockTableRecord
  2
*D1
340
0
  0
BLOCK_RECORD
  5
200
330
1
100
AcDbSymbolTableRecord
100
AcDbBlockTableRecord
  2
*D2
340
0
  0
BLOCK_RECORD
  5
20C
330
1
100
AcDbSymbolTableRecord
100
AcDbBlockTableRecord
  2
*D3
340
0
  0
BLOCK_RECORD
  5
21A
330
1
100
AcDbSymbolTableRecord
100
AcDbBlockTableRecord
  2
*D4
340
0
  0
BLOCK_RECORD
  5
228
330
1
100
AcDbSymbolTableRecord
100
AcDbBlockTableRecord
  2
*D5
340
0
  0
BLOCK_RECORD
  5
234
330
1
100
AcDbSymbolTableRecord
100
AcDbBlockTableRecord
  2
*D6
340
0
  0
BLOCK_RECORD
  5
240
330
1
100
AcDbSymbolTableRecord
100
AcDbBlockTableRecord
  2
*D7
340
0
  0
BLOCK_RECORD
  5
24C
330
1
100
AcDbSymbolTableRecord
100
AcDbBlockTableRecord
  2
*D8
340
0
  0
BLOCK_RECORD
  5
257
330
1
100
AcDbSymbolTableRecord
100
AcDbBlockTableRecord
  2
*D9
340
0
  0
BLOCK_RECORD
  5
262
330
1
100
AcDbSymbolTableRecord
100
AcDbBlockTableRecord
  2
*D10
340
0
  0
BLOCK_RECORD
  5
270
330
1
100
AcDbSymbolTableRecord
100
AcDbBlockTableRecord
  2
*D11
340
0
  0
BLOCK_RECORD
  5
307
330
1
100
AcDbSymbolTableRecord
100
AcDbBlockTableRecord
  2
*D13
340
0
  0
BLOCK_RECORD
  5
313
330
1
100
AcDbSymbolTableRecord
100
AcDbBlockTableRecord
  2
*D14
340
0
  0
BLOCK_RECORD
  5
31F
330
1
100
AcDbSymbolTableRecord
100
AcDbBlockTableRecord
  2
*D15
340
0
  0
BLOCK_RECORD
  5
32D
330
1
100
AcDbSymbolTableRecord
100
AcDbBlockTableRecord
  2
*D16
340
0
  0
BLOCK_RECORD
  5
33B
330
1
100
AcDbSymbolTableRecord
100
AcDbBlockTableRecord
  2
*D17
340
0
  0
BLOCK_RECORD
  5
350
330
1
100
AcDbSymbolTableRecord
100
AcDbBlockTableRecord
  2
*D18
340
0
  0
BLOCK_RECORD
  5
365
330
1
100
AcDbSymbolTableRecord
100
AcDbBlockTableRecord
  2
*D19
340
0
  0
BLOCK_RECORD
  5
371
330
1
100
AcDbSymbolTableRecord
100
AcDbBlockTableRecord
  2
*D20
340
0
  0
BLOCK_RECORD
  5
37C
330
1
100
AcDbSymbolTableRecord
100
AcDbBlockTableRecord
  2
*D21
340
0
  0
BLOCK_RECORD
  5
392
330
1
100
AcDbSymbolTableRecord
100
AcDbBlockTableRecord
  2
*D22
340
0
  0
BLOCK_RECORD
  5
3A0
330
1
100
AcDbSymbolTableRecord
100
AcDbBlockTableRecord
  2
*D23
340
0
  0
ENDTAB
  0
ENDSEC
  0
SECTION
  2
BLOCKS
  0
BLOCK
  5
20
330
1F
100
AcDbEntity
  8
0
100
AcDbBlockBegin
  2
*Model_Space
 70
     0
 10
0.0
 20
0.0
 30
0.0
  3
*Model_Space
  1

  0
ENDBLK
  5
21
330
1F
100
AcDbEntity
  8
0
100
AcDbBlockEnd
  0
BLOCK
  5
D4
330
D2
100
AcDbEntity
 67
     1
  8
0
100
AcDbBlockBegin
  2
*Paper_Space
 70
     0
 10
0.0
 20
0.0
 30
0.0
  3
*Paper_Space
  1

  0
ENDBLK
  5
D5
330
D2
100
AcDbEntity
 67
     1
  8
0
100
AcDbBlockEnd
  0
BLOCK
  5
D8
330
D6
100
AcDbEntity
 67
     1
  8
0
100
AcDbBlockBegin
  2
*Paper_Space0
 70
     0
 10
0.0
 20
0.0
 30
0.0
  3
*Paper_Space0
  1

  0
ENDBLK
  5
D9
330
D6
100
AcDbEntity
 67
     1
  8
0
100
AcDbBlockEnd
  0
BLOCK
  5
1F5
330
1F4
100
AcDbEntity
  8
0
100
AcDbBlockBegin
  2
*D1
 70
     1
 10
0.0
 20
0.0
 30
0.0
  3
*D1
  1

  0
LINE
  5
1F6
330
1F4
100
AcDbEntity
  8
标注
 62
     0
370
    -2
100
AcDbLine
 10
91401.58179369937
 20
27572.05096114665
 30
0.0
 11
91401.58179369937
 21
27604.14208771851
 31
0.0
  0
LINE
  5
1F7
330
1F4
100
AcDbEntity
  8
标注
 62
     0
370
    -2
100
AcDbLine
 10
91985.78179369938
 20
27571.64652443258
 30
0.0
 11
91985.78179369938
 21
27604.14208771851
 31
0.0
  0
LINE
  5
1F8
330
1F4
100
AcDbEntity
  8
标注
 62
     0
370
    -2
100
AcDbLine
 10
91419.58179369938
 20
27589.14208771851
 30
0.0
 11
91967.78179369939
 21
27589.14208771851
 31
0.0
  0
SOLID
  5
1F9
330
1F4
100
AcDbEntity
  8
标注
 62
     0
100
AcDbTrace
 10
91419.58179369938
 20
27592.14208771851
 30
0.0
 11
91419.58179369938
 21
27586.14208771851
 31
0.0
 12
91401.58179369937
 22
27589.14208771851
 32
0.0
 13
91401.58179369937
 23
27589.14208771851
 33
0.0
  0
SOLID
  5
1FA
330
1F4
100
AcDbEntity
  8
标注
 62
     0
100
AcDbTrace
 10
91967.78179369939
 20
27592.14208771851
 30
0.0
 11
91967.78179369939
 21
27586.14208771851
 31
0.0
 12
91985.78179369938
 22
27589.14208771851
 32
0.0
 13
91985.78179369938
 23
27589.14208771851
 33
0.0
  0
MTEXT
  5
1FB
330
1F4
100
AcDbEntity
  8
标注
 62
     0
370
     9
100
AcDbMText
 10
91693.68179369937
 20
27617.67065914708
 30
0.0
 40
27.6
 41
0.0
 71
     5
 72
     1
  1
584.2 [23]
 73
     1
 44
1.0
  0
POINT
  5
1FC
330
1F4
100
AcDbEntity
  8
Defpoints
 62
     0
100
AcDbPoint
 10
91401.58179369937
 20
27564.55096114665
 30
0.0
  0
POINT
  5
1FD
330
1F4
100
AcDbEntity
  8
Defpoints
 62
     0
100
AcDbPoint
 10
91985.78179369938
 20
27564.14652443258
 30
0.0
  0
POINT
  5
1FE
330
1F4
100
AcDbEntity
  8
Defpoints
 62
     0
100
AcDbPoint
 10
91985.78179369938
 20
27589.14208771851
 30
0.0
  0
ENDBLK
  5
1FF
330
1F4
100
AcDbEntity
  8
0
100
AcDbBlockEnd
  0
BLOCK
  5
201
330
200
100
AcDbEntity
  8
0
100
AcDbBlockBegin
  2
*D2
 70
     1
 10
0.0
 20
0.0
 30
0.0
  3
*D2
  1

  0
LINE
  5
202
330
200
100
AcDbEntity
  8
标注
 62
     0
370
    -2
100
AcDbLine
 10
91368.68179369937
 20
27539.15096114666
 30
0.0
 11
91335.08339138916
 21
27539.15096114666
 31
0.0
  0
LINE
  5
203
330
200
100
AcDbEntity
  8
标注
 62
     0
370
    -2
100
AcDbLine
 10
91368.68179369937
 20
27132.75096114665
 30
0.0
 11
91335.08339138916
 21
27132.75096114665
 31
0.0
  0
LINE
  5
204
330
200
100
AcDbEntity
  8
标注
 62
     0
370
    -2
100
AcDbLine
 10
91350.08339138916
 20
27521.15096114665
 30
0.0
 11
91350.08339138916
 21
27150.75096114665
 31
0.0
  0
SOLID
  5
205
330
200
100
AcDbEntity
  8
标注
 62
     0
100
AcDbTrace
 10
91347.08339138917
 20
27521.15096114665
 30
0.0
 11
91353.08339138918
 21
27521.15096114665
 31
0.0
 12
91350.08339138916
 22
27539.15096114666
 32
0.0
 13
91350.08339138916
 23
27539.15096114666
 33
0.0
  0
SOLID
  5
206
330
200
100
AcDbEntity
  8
标注
 62
     0
100
AcDbTrace
 10
91347.08339138917
 20
27150.75096114665
 30
0.0
 11
91353.08339138918
 21
27150.75096114665
 31
0.0
 12
91350.08339138916
 22
27132.75096114665
 32
0.0
 13
91350.08339138916
 23
27132.75096114665
 33
0.0
  0
MTEXT
  5
207
330
200
100
AcDbEntity
  8
标注
 62
     0
370
     9
100
AcDbMText
 10
91321.55481996059
 20
27335.95096114667
 30
0.0
 40
27.6
 41
0.0
 71
     5
 72
     1
  1
406.4 [16]
 11
0.0000000000000001
 21
1.0
 31
0.0
 73
     1
 44
1.0
  0
POINT
  5
208
330
200
100
AcDbEntity
  8
Defpoints
 62
     0
100
AcDbPoint
 10
91376.18179369937
 20
27539.15096114666
 30
0.0
  0
POINT
  5
209
330
200
100
AcDbEntity
  8
Defpoints
 62
     0
100
AcDbPoint
 10
91376.18179369937
 20
27132.75096114665
 30
0.0
  0
POINT
  5
20A
330
200
100
AcDbEntity
  8
Defpoints
 62
     0
100
AcDbPoint
 10
91350.08339138916
 20
27132.75096114665
 30
0.0
  0
ENDBLK
  5
20B
330
200
100
AcDbEntity
  8
0
100
AcDbBlockEnd
  0
BLOCK
  5
20D
330
20C
100
AcDbEntity
  8
0
100
AcDbBlockBegin
  2
*D3
 70
     1
 10
0.0
 20
0.0
 30
0.0
  3
*D3
  1

  0
LINE
  5
20E
330
20C
100
AcDbEntity
  8
标注
 62
     0
370
    -2
100
AcDbLine
 10
91376.18179369937
 20
27318.50140596606
 30
0.0
 11
91376.18179369937
 21
27274.07123100612
 31
0.0
  0
LINE
  5
20F
330
20C
100
AcDbEntity
  8
标注
 62
     0
370
    -2
100
AcDbLine
 10
91401.58179369937
 20
27318.50140596606
 30
0.0
 11
91401.58179369937
 21
27274.07123100612
 31
0.0
  0
LINE
  5
210
330
20C
100
AcDbEntity
  8
标注
 62
     0
370
    -2
100
AcDbLine
 10
91356.18179369936
 20
27284.07123100612
 30
0.0
 11
91336.18179369936
 21
27284.07123100612
 31
0.0
  0
LINE
  5
211
330
20C
100
AcDbEntity
  8
标注
 62
     0
370
    -2
100
AcDbLine
 10
91421.58179369937
 20
27284.07123100612
 30
0.0
 11
91474.36274608033
 21
27284.07123100612
 31
0.0
  0
LINE
  5
212
330
20C
100
AcDbEntity
  8
标注
 62
     0
370
    -2
100
AcDbLine
 10
91376.18179369937
 20
27284.07123100612
 30
0.0
 11
91401.58179369937
 21
27284.07123100612
 31
0.0
  0
SOLID
  5
213
330
20C
100
AcDbEntity
  8
标注
 62
     0
100
AcDbTrace
 10
91356.18179369936
 20
27287.40456433945
 30
0.0
 11
91356.18179369936
 21
27280.73789767279
 31
0.0
 12
91376.18179369937
 22
27284.07123100612
 32
0.0
 13
91376.18179369937
 23
27284.07123100612
 33
0.0
  0
SOLID
  5
214
330
20C
100
AcDbEntity
  8
标注
 62
     0
100
AcDbTrace
 10
91421.58179369937
 20
27287.40456433945
 30
0.0
 11
91421.58179369937
 21
27280.73789767279
 31
0.0
 12
91401.58179369937
 22
27284.07123100612
 32
0.0
 13
91401.58179369937
 23
27284.07123100612
 33
0.0
  0
MTEXT
  5
215
330
20C
100
AcDbEntity
  8
标注
 62
     0
370
     9
100
AcDbMText
 10
91457.97226988984
 20
27300.0236119585
 30
0.0
 40
18.4
 41
0.0
 71
     5
 72
     1
  1
1"
 73
     1
 44
1.0
  0
POINT
  5
216
330
20C
100
AcDbEntity
  8
Defpoints
 62
     0
100
AcDbPoint
 10
91376.18179369937
 20
27323.50140596605
 30
0.0
  0
POINT
  5
217
330
20C
100
AcDbEntity
  8
Defpoints
 62
     0
100
AcDbPoint
 10
91401.58179369937
 20
27323.50140596605
 30
0.0
  0
POINT
  5
218
330
20C
100
AcDbEntity
  8
Defpoints
 62
     0
100
AcDbPoint
 10
91401.58179369937
 20
27284.07123100612
 30
0.0
  0
ENDBLK
  5
219
330
20C
100
AcDbEntity
  8
0
100
AcDbBlockEnd
  0
BLOCK
  5
21B
330
21A
100
AcDbEntity
  8
0
100
AcDbBlockBegin
  2
*D4
 70
     1
 10
0.0
 20
0.0
 30
0.0
  3
*D4
  1

  0
LINE
  5
21C
330
21A
100
AcDbEntity
  8
标注
 62
     0
370
    -2
100
AcDbLine
 10
91688.68179369937
 20
26963.5962095915
 30
0.0
 11
91631.21348809031
 21
26963.5962095915
 31
0.0
  0
LINE
  5
21D
330
21A
100
AcDbEntity
  8
标注
 62
     0
370
    -2
100
AcDbLine
 10
91688.68179369937
 20
26988.59620959149
 30
0.0
 11
91631.21348809031
 21
26988.59620959149
 31
0.0
  0
LINE
  5
21E
330
21A
100
AcDbEntity
  8
标注
 62
     0
370
    -2
100
AcDbLine
 10
91641.21348809032
 20
27008.5962095915
 30
0.0
 11
91641.21348809032
 21
27028.59620959149
 31
0.0
  0
LINE
  5
21F
330
21A
100
AcDbEntity
  8
标注
 62
     0
370
    -2
100
AcDbLine
 10
91641.21348809032
 20
26943.59620959149
 30
0.0
 11
91641.21348809032
 21
26890.81525721053
 31
0.0
  0
LINE
  5
220
330
21A
100
AcDbEntity
  8
标注
 62
     0
370
    -2
100
AcDbLine
 10
91641.21348809032
 20
26988.59620959149
 30
0.0
 11
91641.21348809032
 21
26963.5962095915
 31
0.0
  0
SOLID
  5
221
330
21A
100
AcDbEntity
  8
标注
 62
     0
100
AcDbTrace
 10
91637.88015475699
 20
27008.5962095915
 30
0.0
 11
91644.54682142364
 21
27008.5962095915
 31
0.0
 12
91641.21348809032
 22
26988.59620959149
 32
0.0
 13
91641.21348809032
 23
26988.59620959149
 33
0.0
  0
SOLID
  5
222
330
21A
100
AcDbEntity
  8
标注
 62
     0
100
AcDbTrace
 10
91637.88015475699
 20
26943.59620959149
 30
0.0
 11
91644.54682142364
 21
26943.59620959149
 31
0.0
 12
91641.21348809032
 22
26963.5962095915
 32
0.0
 13
91641.21348809032
 23
26963.5962095915
 33
0.0
  0
MTEXT
  5
223
330
21A
100
AcDbEntity
  8
标注
 62
     0
370
     9
100
AcDbMText
 10
91625.26110713793
 20
26907.20573340102
 30
0.0
 40
18.4
 41
0.0
 71
     5
 72
     1
  1
1"
 11
0.0000000000000001
 21
1.0
 31
0.0
 73
     1
 44
1.0
  0
POINT
  5
224
330
21A
100
AcDbEntity
  8
Defpoints
 62
     0
100
AcDbPoint
 10
91693.68179369937
 20
26963.5962095915
 30
0.0
  0
POINT
  5
225
330
21A
100
AcDbEntity
  8
Defpoints
 62
     0
100
AcDbPoint
 10
91693.68179369937
 20
26988.59620959149
 30
0.0
  0
POINT
  5
226
330
21A
100
AcDbEntity
  8
Defpoints
 62
     0
100
AcDbPoint
 10
91641.21348809032
 20
26988.59620959149
 30
0.0
  0
ENDBLK
  5
227
330
21A
100
AcDbEntity
  8
0
100
AcDbBlockEnd
  0
BLOCK
  5
229
330
228
100
AcDbEntity
  8
0
100
AcDbBlockBegin
  2
*D5
 70
     1
 10
0.0
 20
0.0
 30
0.0
  3
*D5
  1

  0
LINE
  5
22A
330
228
100
AcDbEntity
  8
标注
 62
     0
370
    -2
100
AcDbLine
 10
91376.18179369937
 20
27572.05096114665
 30
0.0
 11
91376.18179369937
 21
27669.36125328971
 31
0.0
  0
LINE
  5
22B
330
228
100
AcDbEntity
  8
标注
 62
     0
370
    -2
100
AcDbLine
 10
92011.18179369938
 20
27572.05096114665
 30
0.0
 11
92011.18179369938
 21
27669.36125328971
 31
0.0
  0
LINE
  5
22C
330
228
100
AcDbEntity
  8
标注
 62
     0
370
    -2
100
AcDbLine
 10
91394.18179369936
 20
27654.36125328971
 30
0.0
 11
91993.18179369939
 21
27654.36125328971
 31
0.0
  0
SOLID
  5
22D
330
228
100
AcDbEntity
  8
标注
 62
     0
100
AcDbTrace
 10
91394.18179369936
 20
27657.36125328971
 30
0.0
 11
91394.18179369936
 21
27651.36125328971
 31
0.0
 12
91376.18179369937
 22
27654.36125328971
 32
0.0
 13
91376.18179369937
 23
27654.36125328971
 33
0.0
  0
SOLID
  5
22E
330
228
100
AcDbEntity
  8
标注
 62
     0
100
AcDbTrace
 10
91993.18179369939
 20
27657.36125328971
 30
0.0
 11
91993.18179369939
 21
27651.36125328971
 31
0.0
 12
92011.18179369938
 22
27654.36125328971
 32
0.0
 13
92011.18179369938
 23
27654.36125328971
 33
0.0
  0
MTEXT
  5
22F
330
228
100
AcDbEntity
  8
标注
 62
     0
370
     9
100
AcDbMText
 10
91693.68179369937
 20
27682.88982471828
 30
0.0
 40
27.6
 41
0.0
 71
     5
 72
     1
  1
635 [25]
 73
     1
 44
1.0
  0
POINT
  5
230
330
228
100
AcDbEntity
  8
Defpoints
 62
     0
100
AcDbPoint
 10
91376.18179369937
 20
27564.55096114665
 30
0.0
  0
POINT
  5
231
330
228
100
AcDbEntity
  8
Defpoints
 62
     0
100
AcDbPoint
 10
92011.18179369938
 20
27564.55096114665
 30
0.0
  0
POINT
  5
232
330
228
100
AcDbEntity
  8
Defpoints
 62
     0
100
AcDbPoint
 10
92011.18179369938
 20
27654.36125328971
 30
0.0
  0
ENDBLK
  5
233
330
228
100
AcDbEntity
  8
0
100
AcDbBlockEnd
  0
BLOCK
  5
235
330
234
100
AcDbEntity
  8
0
100
AcDbBlockBegin
  2
*D6
 70
     1
 10
0.0
 20
0.0
 30
0.0
  3
*D6
  1

  0
LINE
  5
236
330
234
100
AcDbEntity
  8
标注
 62
     0
370
    -2
100
AcDbLine
 10
91368.68179369937
 20
27564.55096114665
 30
0.0
 11
91267.39335704298
 21
27564.55096114665
 31
0.0
  0
LINE
  5
237
330
234
100
AcDbEntity
  8
标注
 62
     0
370
    -2
100
AcDbLine
 10
91368.68179369937
 20
27107.35096114665
 30
0.0
 11
91267.39335704298
 21
27107.35096114665
 31
0.0
  0
LINE
  5
238
330
234
100
AcDbEntity
  8
标注
 62
     0
370
    -2
100
AcDbLine
 10
91282.39335704298
 20
27546.55096114665
 30
0.0
 11
91282.39335704298
 21
27125.35096114665
 31
0.0
  0
SOLID
  5
239
330
234
100
AcDbEntity
  8
标注
 62
     0
100
AcDbTrace
 10
91279.39335704297
 20
27546.55096114665
 30
0.0
 11
91285.39335704298
 21
27546.55096114665
 31
0.0
 12
91282.39335704298
 22
27564.55096114665
 32
0.0
 13
91282.39335704298
 23
27564.55096114665
 33
0.0
  0
SOLID
  5
23A
330
234
100
AcDbEntity
  8
标注
 62
     0
100
AcDbTrace
 10
91279.39335704297
 20
27125.35096114665
 30
0.0
 11
91285.39335704298
 21
27125.35096114665
 31
0.0
 12
91282.39335704298
 22
27107.35096114665
 32
0.0
 13
91282.39335704298
 23
27107.35096114665
 33
0.0
  0
MTEXT
  5
23B
330
234
100
AcDbEntity
  8
标注
 62
     0
370
     9
100
AcDbMText
 10
91253.86478561441
 20
27323.25096114667
 30
0.0
 40
27.6
 41
0.0
 71
     5
 72
     1
  1
457.2 [18]
 11
0.0000000000000001
 21
1.0
 31
0.0
 73
     1
 44
1.0
  0
POINT
  5
23C
330
234
100
AcDbEntity
  8
Defpoints
 62
     0
100
AcDbPoint
 10
91376.18179369937
 20
27564.55096114665
 30
0.0
  0
POINT
  5
23D
330
234
100
AcDbEntity
  8
Defpoints
 62
     0
100
AcDbPoint
 10
91376.18179369937
 20
27107.35096114665
 30
0.0
  0
POINT
  5
23E
330
234
100
AcDbEntity
  8
Defpoints
 62
     0
100
AcDbPoint
 10
91282.39335704298
 20
27107.35096114665
 30
0.0
  0
ENDBLK
  5
23F
330
234
100
AcDbEntity
  8
0
100
AcDbBlockEnd
  0
BLOCK
  5
241
330
240
100
AcDbEntity
  8
0
100
AcDbBlockBegin
  2
*D7
 70
     1
 10
0.0
 20
0.0
 30
0.0
  3
*D7
  1

  0
LINE
  5
242
330
240
100
AcDbEntity
  8
标注
 62
     0
370
    -2
100
AcDbLine
 10
91686.71297222584
 20
27419.15096114666
 30
0.0
 11
91618.59281595438
 21
27419.15096114666
 31
0.0
  0
LINE
  5
243
330
240
100
AcDbEntity
  8
标注
 62
     0
370
    -2
100
AcDbLine
 10
91686.71297222584
 20
27539.15096114666
 30
0.0
 11
91618.59281595438
 21
27539.15096114666
 31
0.0
  0
LINE
  5
244
330
240
100
AcDbEntity
  8
标注
 62
     0
370
    -2
100
AcDbLine
 10
91628.59281595439
 20
27439.15096114665
 30
0.0
 11
91628.59281595439
 21
27519.15096114665
 31
0.0
  0
SOLID
  5
245
330
240
100
AcDbEntity
  8
标注
 62
     0
100
AcDbTrace
 10
91625.25948262105
 20
27439.15096114665
 30
0.0
 11
91631.92614928771
 21
27439.15096114665
 31
0.0
 12
91628.59281595439
 22
27419.15096114666
 32
0.0
 13
91628.59281595439
 23
27419.15096114666
 33
0.0
  0
SOLID
  5
246
330
240
100
AcDbEntity
  8
标注
 62
     0
100
AcDbTrace
 10
91625.25948262105
 20
27519.15096114665
 30
0.0
 11
91631.92614928771
 21
27519.15096114665
 31
0.0
 12
91628.59281595439
 22
27539.15096114666
 32
0.0
 13
91628.59281595439
 23
27539.15096114666
 33
0.0
  0
MTEXT
  5
247
330
240
100
AcDbEntity
  8
标注
 62
     0
370
     9
100
AcDbMText
 10
91612.64043500199
 20
27479.15096114667
 30
0.0
 40
18.4
 41
0.0
 71
     5
 72
     1
  1
4.7"
 11
0.0000000000000001
 21
1.0
 31
0.0
 73
     1
 44
1.0
  0
POINT
  5
248
330
240
100
AcDbEntity
  8
Defpoints
 62
     0
100
AcDbPoint
 10
91691.71297222584
 20
27419.15096114666
 30
0.0
  0
POINT
  5
249
330
240
100
AcDbEntity
  8
Defpoints
 62
     0
100
AcDbPoint
 10
91691.71297222584
 20
27539.15096114666
 30
0.0
  0
POINT
  5
24A
330
240
100
AcDbEntity
  8
Defpoints
 62
     0
100
AcDbPoint
 10
91628.59281595439
 20
27539.15096114666
 30
0.0
  0
ENDBLK
  5
24B
330
240
100
AcDbEntity
  8
0
100
AcDbBlockEnd
  0
BLOCK
  5
24D
330
24C
100
AcDbEntity
  8
0
100
AcDbBlockBegin
  2
*D8
 70
     1
 10
0.0
 20
0.0
 30
0.0
  3
*D8
  1

  0
LINE
  5
24E
330
24C
100
AcDbEntity
  8
标注
 62
     0
370
    -2
100
AcDbLine
 10
91523.8073964536
 20
27363.64318018725
 30
0.0
 11
91617.18020391916
 21
27394.51122802023
 31
0.0
  0
LINE
  5
24F
330
24C
100
AcDbEntity
  8
标注
 62
     0
370
    -2
100
AcDbLine
 10
91766.24574053247
 20
27443.79069427305
 30
0.0
 11
91785.23498086539
 21
27450.06833328615
 31
0.0
  0
MTEXT
  5
250
102
{ACAD_XDICTIONARY
360
442
102
}
330
24C
100
AcDbEntity
  8
标注
 62
     0
370
     9
100
AcDbMText
 10
91555.99201556899
 20
27391.08456438653
 30
0.0
 40
18.4
 41
0.0
 71
     5
 72
     1
  1
\U+22054.6"
 11
0.949462016645741
 21
0.313881950655023
 31
0.0
 73
     1
 44
1.0
  0
LINE
  5
251
330
24C
100
AcDbEntity
  8
标注
 62
     0
370
    -2
100
AcDbLine
 10
91747.25650019956
 20
27437.51305525995
 30
0.0
 11
91636.16944425207
 21
27400.78886703333
 31
0.0
  0
SOLID
  5
252
330
24C
100
AcDbEntity
  8
标注
 62
     0
100
AcDbTrace
 10
91765.19946736362
 20
27446.95556766187
 30
0.0
 11
91767.29201370132
 21
27440.62582088423
 31
0.0
 12
91747.25650019956
 22
27437.51305525995
 32
0.0
 13
91747.25650019956
 23
27437.51305525995
 33
0.0
  0
SOLID
  5
253
330
24C
100
AcDbEntity
  8
标注
 62
     0
100
AcDbTrace
 10
91616.13393075029
 20
27397.67610140905
 30
0.0
 11
91618.22647708801
 21
27391.34635463141
 31
0.0
 12
91636.16944425207
 22
27400.78886703333
 32
0.0
 13
91636.16944425207
 23
27400.78886703333
 33
0.0
  0
POINT
  5
254
330
24C
100
AcDbEntity
  8
Defpoints
 62
     0
100
AcDbPoint
 10
91636.16944425207
 20
27400.78886703333
 30
0.0
  0
POINT
  5
255
330
24C
100
AcDbEntity
  8
Defpoints
 62
     0
100
AcDbPoint
 10
91747.25650019956
 20
27437.51305525995
 30
0.0
  0
ENDBLK
  5
256
330
24C
100
AcDbEntity
  8
0
100
AcDbBlockEnd
  0
BLOCK
  5
258
330
257
100
AcDbEntity
  8
0
100
AcDbBlockBegin
  2
*D9
 70
     1
 10
0.0
 20
0.0
 30
0.0
  3
*D9
  1

  0
LINE
  5
259
330
257
100
AcDbEntity
  8
标注
 62
     0
370
    -2
100
AcDbLine
 10
91570.22720116307
 20
27309.96260824729
 30
0.0
 11
91643.3694128122
 21
27375.70098688637
 31
0.0
  0
LINE
  5
25A
330
257
100
AcDbEntity
  8
标注
 62
     0
370
    -2
100
AcDbLine
 10
91740.05653163954
 20
27462.60093540698
 30
0.0
 11
91754.93147299755
 21
27475.9701582563
 31
0.0
  0
MTEXT
  5
25B
102
{ACAD_XDICTIONARY
360
444
102
}
330
257
100
AcDbEntity
  8
标注
 62
     0
370
     9
100
AcDbMText
 10
91588.69728951215
 20
27348.01172270156
 30
0.0
 40
18.4
 41
0.0
 71
     5
 72
     1
  1
\U+22053.5"
 11
0.7437470679021856
 21
0.6684611424659641
 31
0.0
 73
     1
 44
1.0
  0
LINE
  5
25C
330
257
100
AcDbEntity
  8
标注
 62
     0
370
    -2
100
AcDbLine
 10
91725.18159028149
 20
27449.23171255766
 30
0.0
 11
91658.24435417025
 21
27389.07020973568
 31
0.0
  0
SOLID
  5
25D
330
257
100
AcDbEntity
  8
标注
 62
     0
100
AcDbTrace
 10
91737.8283278313
 20
27465.08009229999
 30
0.0
 11
91742.28473544776
 21
27460.12177851397
 31
0.0
 12
91725.18159028149
 22
27449.23171255766
 32
0.0
 13
91725.18159028149
 23
27449.23171255766
 33
0.0
  0
SOLID
  5
25E
330
257
100
AcDbEntity
  8
标注
 62
     0
100
AcDbTrace
 10
91641.14120900398
 20
27378.18014377938
 30
0.0
 11
91645.59761662042
 21
27373.22182999336
 31
0.0
 12
91658.24435417025
 22
27389.07020973568
 32
0.0
 13
91658.24435417025
 23
27389.07020973568
 33
0.0
  0
POINT
  5
25F
330
257
100
AcDbEntity
  8
Defpoints
 62
     0
100
AcDbPoint
 10
91658.24435417025
 20
27389.07020973568
 30
0.0
  0
POINT
  5
260
330
257
100
AcDbEntity
  8
Defpoints
 62
     0
100
AcDbPoint
 10
91725.18159028149
 20
27449.23171255766
 30
0.0
  0
ENDBLK
  5
261
330
257
100
AcDbEntity
  8
0
100
AcDbBlockEnd
  0
BLOCK
  5
263
330
262
100
AcDbEntity
  8
0
100
AcDbBlockBegin
  2
*D10
 70
     1
 10
0.0
 20
0.0
 30
0.0
  3
*D10
  1

  0
LINE
  5
264
330
262
100
AcDbEntity
  8
标注
 62
     0
370
    -2
100
AcDbLine
 10
91688.68179369937
 20
27107.35096114665
 30
0.0
 11
91658.4393086426
 21
27107.35096114665
 31
0.0
  0
LINE
  5
265
330
262
100
AcDbEntity
  8
标注
 62
     0
370
    -2
100
AcDbLine
 10
91688.68179369937
 20
27132.75096114665
 30
0.0
 11
91658.4393086426
 21
27132.75096114665
 31
0.0
  0
LINE
  5
266
330
262
100
AcDbEntity
  8
标注
 62
     0
370
    -2
100
AcDbLine
 10
91668.43930864262
 20
27087.35096114665
 30
0.0
 11
91668.43930864262
 21
27067.35096114665
 31
0.0
  0
LINE
  5
267
330
262
100
AcDbEntity
  8
标注
 62
     0
370
    -2
100
AcDbLine
 10
91668.43930864262
 20
27152.75096114665
 30
0.0
 11
91668.43930864262
 21
27205.5319135276
 31
0.0
  0
LINE
  5
268
330
262
100
AcDbEntity
  8
标注
 62
     0
370
    -2
100
AcDbLine
 10
91668.43930864262
 20
27107.35096114665
 30
0.0
 11
91668.43930864262
 21
27132.75096114665
 31
0.0
  0
SOLID
  5
269
330
262
100
AcDbEntity
  8
标注
 62
     0
100
AcDbTrace
 10
91665.10597530928
 20
27087.35096114665
 30
0.0
 11
91671.77264197594
 21
27087.35096114665
 31
0.0
 12
91668.43930864262
 22
27107.35096114665
 32
0.0
 13
91668.43930864262
 23
27107.35096114665
 33
0.0
  0
SOLID
  5
26A
330
262
100
AcDbEntity
  8
标注
 62
     0
100
AcDbTrace
 10
91665.10597530928
 20
27152.75096114665
 30
0.0
 11
91671.77264197594
 21
27152.75096114665
 31
0.0
 12
91668.43930864262
 22
27132.75096114665
 32
0.0
 13
91668.43930864262
 23
27132.75096114665
 33
0.0
  0
MTEXT
  5
26B
330
262
100
AcDbEntity
  8
标注
 62
     0
370
     9
100
AcDbMText
 10
91652.48692769024
 20
27189.14143733714
 30
0.0
 40
18.4
 41
0.0
 71
     5
 72
     1
  1
1"
 11
0.0000000000000001
 21
1.0
 31
0.0
 73
     1
 44
1.0
  0
POINT
  5
26C
330
262
100
AcDbEntity
  8
Defpoints
 62
     0
100
AcDbPoint
 10
91693.68179369937
 20
27107.35096114665
 30
0.0
  0
POINT
  5
26D
330
262
100
AcDbEntity
  8
Defpoints
 62
     0
100
AcDbPoint
 10
91693.68179369937
 20
27132.75096114665
 30
0.0
  0
POINT
  5
26E
330
262
100
AcDbEntity
  8
Defpoints
 62
     0
100
AcDbPoint
 10
91668.43930864262
 20
27132.75096114665
 30
0.0
  0
ENDBLK
  5
26F
330
262
100
AcDbEntity
  8
0
100
AcDbBlockEnd
  0
BLOCK
  5
271
330
270
100
AcDbEntity
  8
0
100
AcDbBlockBegin
  2
*D11
 70
     1
 10
0.0
 20
0.0
 30
0.0
  3
*D11
  1

  0
LINE
  5
272
330
270
100
AcDbEntity
  8
标注
 62
     0
370
    -2
100
AcDbLine
 10
91368.68179369937
 20
26988.59620959149
 30
0.0
 11
91327.75060643419
 21
26988.59620959149
 31
0.0
  0
LINE
  5
273
330
270
100
AcDbEntity
  8
标注
 62
     0
370
    -2
100
AcDbLine
 10
91394.08179369935
 20
26759.9962095915
 30
0.0
 11
91327.75060643419
 21
26759.9962095915
 31
0.0
  0
LINE
  5
274
330
270
100
AcDbEntity
  8
标注
 62
     0
370
    -2
100
AcDbLine
 10
91342.75060643419
 20
26970.5962095915
 30
0.0
 11
91342.75060643419
 21
26777.9962095915
 31
0.0
  0
SOLID
  5
275
330
270
100
AcDbEntity
  8
标注
 62
     0
100
AcDbTrace
 10
91339.75060643418
 20
26970.5962095915
 30
0.0
 11
91345.75060643419
 21
26970.5962095915
 31
0.0
 12
91342.75060643419
 22
26988.59620959149
 32
0.0
 13
91342.75060643419
 23
26988.59620959149
 33
0.0
  0
SOLID
  5
276
330
270
100
AcDbEntity
  8
标注
 62
     0
100
AcDbTrace
 10
91339.75060643418
 20
26777.9962095915
 30
0.0
 11
91345.75060643419
 21
26777.9962095915
 31
0.0
 12
91342.75060643419
 22
26759.9962095915
 32
0.0
 13
91342.75060643419
 23
26759.9962095915
 33
0.0
  0
MTEXT
  5
277
330
270
100
AcDbEntity
  8
标注
 62
     0
370
     9
100
AcDbMText
 10
91314.22203500562
 20
26874.29620959151
 30
0.0
 40
27.6
 41
0.0
 71
     5
 72
     1
  1
228.6 [9]
 11
0.0000000000000001
 21
1.0
 31
0.0
 73
     1
 44
1.0
  0
POINT
  5
278
330
270
100
AcDbEntity
  8
Defpoints
 62
     0
100
AcDbPoint
 10
91376.18179369937
 20
26988.59620959149
 30
0.0
  0
POINT
  5
279
330
270
100
AcDbEntity
  8
Defpoints
 62
     0
100
AcDbPoint
 10
91401.58179369935
 20
26759.9962095915
 30
0.0
  0
POINT
  5
27A
330
270
100
AcDbEntity
  8
Defpoints
 62
     0
100
AcDbPoint
 10
91342.75060643419
 20
26759.9962095915
 30
0.0
  0
ENDBLK
  5
27B
330
270
100
AcDbEntity
  8
0
100
AcDbBlockEnd
  0
BLOCK
  5
308
330
307
100
AcDbEntity
  8
0
100
AcDbBlockBegin
  2
*D13
 70
     1
 10
0.0
 20
0.0
 30
0.0
  3
*D13
  1

  0
LINE
  5
347
330
307
100
AcDbEntity
  8
标注
 62
     0
370
    -2
100
AcDbLine
 10
2093.974163488667
 20
1570.935879993049
 30
0.0
 11
2093.974163488667
 21
1603.027006564909
 31
0.0
  0
LINE
  5
348
330
307
100
AcDbEntity
  8
标注
 62
     0
370
    -2
100
AcDbLine
 10
2678.174163488679
 20
1570.531443278982
 30
0.0
 11
2678.174163488679
 21
1603.027006564909
 31
0.0
  0
LINE
  5
349
330
307
100
AcDbEntity
  8
标注
 62
     0
370
    -2
100
AcDbLine
 10
2111.974163488667
 20
1588.027006564909
 30
0.0
 11
2660.174163488679
 21
1588.027006564909
 31
0.0
  0
SOLID
  5
34A
330
307
100
AcDbEntity
  8
标注
 62
     0
100
AcDbTrace
 10
2111.974163488667
 20
1591.027006564909
 30
0.0
 11
2111.974163488667
 21
1585.027006564909
 31
0.0
 12
2093.974163488667
 22
1588.027006564909
 32
0.0
 13
2093.974163488667
 23
1588.027006564909
 33
0.0
  0
SOLID
  5
34B
330
307
100
AcDbEntity
  8
标注
 62
     0
100
AcDbTrace
 10
2660.174163488679
 20
1591.027006564909
 30
0.0
 11
2660.174163488679
 21
1585.027006564909
 31
0.0
 12
2678.174163488679
 22
1588.027006564909
 32
0.0
 13
2678.174163488679
 23
1588.027006564909
 33
0.0
  0
MTEXT
  5
34C
330
307
100
AcDbEntity
  8
标注
 62
     0
370
     9
100
AcDbMText
 10
2386.074163488673
 20
1612.547006564909
 30
0.0
 40
27.6
 41
0.0
 71
     5
 72
     1
  1
584.2 [23]
 73
     1
 44
1.0
  0
POINT
  5
34D
330
307
100
AcDbEntity
  8
Defpoints
 62
     0
100
AcDbPoint
 10
2093.974163488667
 20
1563.435879993049
 30
0.0
  0
POINT
  5
34E
330
307
100
AcDbEntity
  8
Defpoints
 62
     0
100
AcDbPoint
 10
2678.174163488679
 20
1563.031443278982
 30
0.0
  0
POINT
  5
34F
330
307
100
AcDbEntity
  8
Defpoints
 62
     0
100
AcDbPoint
 10
2678.174163488679
 20
1588.027006564909
 30
0.0
  0
ENDBLK
  5
309
330
307
100
AcDbEntity
  8
0
100
AcDbBlockEnd
  0
BLOCK
  5
314
330
313
100
AcDbEntity
  8
0
100
AcDbBlockBegin
  2
*D14
 70
     1
 10
0.0
 20
0.0
 30
0.0
  3
*D14
  1

  0
LINE
  5
35C
330
313
100
AcDbEntity
  8
标注
 62
     0
370
    -2
100
AcDbLine
 10
2061.074163488658
 20
1538.035879993054
 30
0.0
 11
2027.475761178466
 21
1538.035879993054
 31
0.0
  0
LINE
  5
35D
330
313
100
AcDbEntity
  8
标注
 62
     0
370
    -2
100
AcDbLine
 10
2061.074163488658
 20
1131.635879993053
 30
0.0
 11
2027.475761178466
 21
1131.635879993053
 31
0.0
  0
LINE
  5
35E
330
313
100
AcDbEntity
  8
标注
 62
     0
370
    -2
100
AcDbLine
 10
2042.475761178466
 20
1520.035879993054
 30
0.0
 11
2042.475761178466
 21
1149.635879993053
 31
0.0
  0
SOLID
  5
35F
330
313
100
AcDbEntity
  8
标注
 62
     0
100
AcDbTrace
 10
2039.475761178466
 20
1520.035879993054
 30
0.0
 11
2045.475761178466
 21
1520.035879993054
 31
0.0
 12
2042.475761178466
 22
1538.035879993054
 32
0.0
 13
2042.475761178466
 23
1538.035879993054
 33
0.0
  0
SOLID
  5
360
330
313
100
AcDbEntity
  8
标注
 62
     0
100
AcDbTrace
 10
2039.475761178466
 20
1149.635879993053
 30
0.0
 11
2045.475761178466
 21
1149.635879993053
 31
0.0
 12
2042.475761178466
 22
1131.635879993053
 32
0.0
 13
2042.475761178466
 23
1131.635879993053
 33
0.0
  0
MTEXT
  5
361
330
313
100
AcDbEntity
  8
标注
 62
     0
370
     9
100
AcDbMText
 10
2017.955761178466
 20
1334.835879993054
 30
0.0
 40
27.6
 41
0.0
 71
     5
 72
     1
  1
406.4 [16]
 11
0.0000000000000001
 21
1.0
 31
0.0
 73
     1
 44
1.0
  0
POINT
  5
362
330
313
100
AcDbEntity
  8
Defpoints
 62
     0
100
AcDbPoint
 10
2068.574163488658
 20
1538.035879993054
 30
0.0
  0
POINT
  5
363
330
313
100
AcDbEntity
  8
Defpoints
 62
     0
100
AcDbPoint
 10
2068.574163488658
 20
1131.635879993053
 30
0.0
  0
POINT
  5
364
330
313
100
AcDbEntity
  8
Defpoints
 62
     0
100
AcDbPoint
 10
2042.475761178466
 20
1131.635879993053
 30
0.0
  0
ENDBLK
  5
315
330
313
100
AcDbEntity
  8
0
100
AcDbBlockEnd
  0
BLOCK
  5
320
330
31F
100
AcDbEntity
  8
0
100
AcDbBlockBegin
  2
*D15
 70
     1
 10
0.0
 20
0.0
 30
0.0
  3
*D15
  1

  0
LINE
  5
387
330
31F
100
AcDbEntity
  8
标注
 62
     0
370
    -2
100
AcDbLine
 10
2068.574163488658
 20
1317.386324812454
 30
0.0
 11
2068.574163488658
 21
1272.956149852522
 31
0.0
  0
LINE
  5
388
330
31F
100
AcDbEntity
  8
标注
 62
     0
370
    -2
100
AcDbLine
 10
2093.974163488667
 20
1317.386324812454
 30
0.0
 11
2093.974163488667
 21
1272.956149852522
 31
0.0
  0
LINE
  5
389
330
31F
100
AcDbEntity
  8
标注
 62
     0
370
    -2
100
AcDbLine
 10
2048.574163488658
 20
1282.956149852522
 30
0.0
 11
2028.574163488658
 21
1282.956149852522
 31
0.0
  0
LINE
  5
38A
330
31F
100
AcDbEntity
  8
标注
 62
     0
370
    -2
100
AcDbLine
 10
2113.974163488667
 20
1282.956149852522
 30
0.0
 11
2165.031941266445
 21
1282.956149852522
 31
0.0
  0
LINE
  5
38B
330
31F
100
AcDbEntity
  8
标注
 62
     0
370
    -2
100
AcDbLine
 10
2068.574163488658
 20
1282.956149852522
 30
0.0
 11
2093.974163488667
 21
1282.956149852522
 31
0.0
  0
SOLID
  5
38C
330
31F
100
AcDbEntity
  8
标注
 62
     0
100
AcDbTrace
 10
2048.574163488658
 20
1286.289483185855
 30
0.0
 11
2048.574163488658
 21
1279.622816519188
 31
0.0
 12
2068.574163488658
 22
1282.956149852522
 32
0.0
 13
2068.574163488658
 23
1282.956149852522
 33
0.0
  0
SOLID
  5
38D
330
31F
100
AcDbEntity
  8
标注
 62
     0
100
AcDbTrace
 10
2113.974163488667
 20
1286.289483185855
 30
0.0
 11
2113.974163488667
 21
1279.622816519188
 31
0.0
 12
2093.974163488667
 22
1282.956149852522
 32
0.0
 13
2093.974163488667
 23
1282.956149852522
 33
0.0
  0
MTEXT
  5
38E
330
31F
100
AcDbEntity
  8
标注
 62
     0
370
     9
100
AcDbMText
 10
2149.503052377556
 20
1297.156149852522
 30
0.0
 40
18.4
 41
0.0
 71
     5
 72
     1
  1
1"
 73
     1
 44
1.0
  0
POINT
  5
38F
330
31F
100
AcDbEntity
  8
Defpoints
 62
     0
100
AcDbPoint
 10
2068.574163488658
 20
1322.386324812454
 30
0.0
  0
POINT
  5
390
330
31F
100
AcDbEntity
  8
Defpoints
 62
     0
100
AcDbPoint
 10
2093.974163488667
 20
1322.386324812454
 30
0.0
  0
POINT
  5
391
330
31F
100
AcDbEntity
  8
Defpoints
 62
     0
100
AcDbPoint
 10
2093.974163488667
 20
1282.956149852522
 30
0.0
  0
ENDBLK
  5
321
330
31F
100
AcDbEntity
  8
0
100
AcDbBlockEnd
  0
BLOCK
  5
32E
330
32D
100
AcDbEntity
  8
0
100
AcDbBlockBegin
  2
*D16
 70
     1
 10
0.0
 20
0.0
 30
0.0
  3
*D16
  1

  0
LINE
  5
330
330
32D
100
AcDbEntity
  8
标注
 62
     0
370
    -2
100
AcDbLine
 10
2381.074163488673
 20
962.4811284378957
 30
0.0
 11
2323.605857879615
 21
962.4811284378957
 31
0.0
  0
LINE
  5
331
330
32D
100
AcDbEntity
  8
标注
 62
     0
370
    -2
100
AcDbLine
 10
2381.074163488673
 20
987.4811284378957
 30
0.0
 11
2323.605857879615
 21
987.4811284378957
 31
0.0
  0
LINE
  5
332
330
32D
100
AcDbEntity
  8
标注
 62
     0
370
    -2
100
AcDbLine
 10
2333.605857879615
 20
1007.481128437895
 30
0.0
 11
2333.605857879615
 21
1027.481128437895
 31
0.0
  0
LINE
  5
333
330
32D
100
AcDbEntity
  8
标注
 62
     0
370
    -2
100
AcDbLine
 10
2333.605857879615
 20
942.4811284378957
 30
0.0
 11
2333.605857879615
 21
890.5617633585285
 31
0.0
  0
LINE
  5
334
330
32D
100
AcDbEntity
  8
标注
 62
     0
370
    -2
100
AcDbLine
 10
2333.605857879615
 20
987.4811284378957
 30
0.0
 11
2333.605857879615
 21
962.4811284378957
 31
0.0
  0
SOLID
  5
335
330
32D
100
AcDbEntity
  8
标注
 62
     0
100
AcDbTrace
 10
2330.272524546281
 20
1007.481128437895
 30
0.0
 11
2336.939191212948
 21
1007.481128437895
 31
0.0
 12
2333.605857879615
 22
987.4811284378957
 32
0.0
 13
2333.605857879615
 23
987.4811284378957
 33
0.0
  0
SOLID
  5
336
330
32D
100
AcDbEntity
  8
标注
 62
     0
100
AcDbTrace
 10
2330.272524546281
 20
942.4811284378957
 30
0.0
 11
2336.939191212948
 21
942.4811284378957
 31
0.0
 12
2333.605857879615
 22
962.4811284378957
 32
0.0
 13
2333.605857879615
 23
962.4811284378957
 33
0.0
  0
MTEXT
  5
337
330
32D
100
AcDbEntity
  8
标注
 62
     0
370
     9
100
AcDbMText
 10
2319.405857879615
 20
906.0906522474178
 30
0.0
 40
18.4
 41
0.0
 71
     5
 72
     1
  1
1"
 11
0.0000000000000001
 21
1.0
 31
0.0
 73
     1
 44
1.0
  0
POINT
  5
338
330
32D
100
AcDbEntity
  8
Defpoints
 62
     0
100
AcDbPoint
 10
2386.074163488673
 20
962.4811284378957
 30
0.0
  0
POINT
  5
339
330
32D
100
AcDbEntity
  8
Defpoints
 62
     0
100
AcDbPoint
 10
2386.074163488673
 20
987.4811284378957
 30
0.0
  0
POINT
  5
33A
330
32D
100
AcDbEntity
  8
Defpoints
 62
     0
100
AcDbPoint
 10
2333.605857879615
 20
987.4811284378957
 30
0.0
  0
ENDBLK
  5
32F
330
32D
100
AcDbEntity
  8
0
100
AcDbBlockEnd
  0
BLOCK
  5
33C
330
33B
100
AcDbEntity
  8
0
100
AcDbBlockBegin
  2
*D17
 70
     1
 10
0.0
 20
0.0
 30
0.0
  3
*D17
  1

  0
LINE
  5
400
330
33B
100
AcDbEntity
  8
标注
 62
     0
370
    -2
100
AcDbLine
 10
2068.574163488658
 20
1570.935879993049
 30
0.0
 11
2068.574163488658
 21
1668.24617213611
 31
0.0
  0
LINE
  5
401
330
33B
100
AcDbEntity
  8
标注
 62
     0
370
    -2
100
AcDbLine
 10
2703.574163488687
 20
1570.935879993049
 30
0.0
 11
2703.574163488687
 21
1668.24617213611
 31
0.0
  0
LINE
  5
402
330
33B
100
AcDbEntity
  8
标注
 62
     0
370
    -2
100
AcDbLine
 10
2086.574163488658
 20
1653.24617213611
 30
0.0
 11
2685.574163488687
 21
1653.24617213611
 31
0.0
  0
SOLID
  5
403
330
33B
100
AcDbEntity
  8
标注
 62
     0
100
AcDbTrace
 10
2086.574163488658
 20
1656.246172136111
 30
0.0
 11
2086.574163488658
 21
1650.24617213611
 31
0.0
 12
2068.574163488658
 22
1653.24617213611
 32
0.0
 13
2068.574163488658
 23
1653.24617213611
 33
0.0
  0
SOLID
  5
404
330
33B
100
AcDbEntity
  8
标注
 62
     0
100
AcDbTrace
 10
2685.574163488687
 20
1656.246172136111
 30
0.0
 11
2685.574163488687
 21
1650.24617213611
 31
0.0
 12
2703.574163488687
 22
1653.24617213611
 32
0.0
 13
2703.574163488687
 23
1653.24617213611
 33
0.0
  0
MTEXT
  5
405
330
33B
100
AcDbEntity
  8
标注
 62
     0
370
     9
100
AcDbMText
 10
2386.074163488673
 20
1677.76617213611
 30
0.0
 40
27.6
 41
0.0
 71
     5
 72
     1
  1
635 [25]
 73
     1
 44
1.0
  0
POINT
  5
406
330
33B
100
AcDbEntity
  8
Defpoints
 62
     0
100
AcDbPoint
 10
2068.574163488658
 20
1563.435879993049
 30
0.0
  0
POINT
  5
407
330
33B
100
AcDbEntity
  8
Defpoints
 62
     0
100
AcDbPoint
 10
2703.574163488687
 20
1563.435879993049
 30
0.0
  0
POINT
  5
408
330
33B
100
AcDbEntity
  8
Defpoints
 62
     0
100
AcDbPoint
 10
2703.574163488687
 20
1653.24617213611
 30
0.0
  0
ENDBLK
  5
33D
330
33B
100
AcDbEntity
  8
0
100
AcDbBlockEnd
  0
BLOCK
  5
351
330
350
100
AcDbEntity
  8
0
100
AcDbBlockBegin
  2
*D18
 70
     1
 10
0.0
 20
0.0
 30
0.0
  3
*D18
  1

  0
LINE
  5
353
330
350
100
AcDbEntity
  8
标注
 62
     0
370
    -2
100
AcDbLine
 10
2061.074163488658
 20
1563.435879993049
 30
0.0
 11
1959.785726832277
 21
1563.435879993049
 31
0.0
  0
LINE
  5
354
330
350
100
AcDbEntity
  8
标注
 62
     0
370
    -2
100
AcDbLine
 10
2061.074163488658
 20
1106.235879993051
 30
0.0
 11
1959.785726832277
 21
1106.235879993051
 31
0.0
  0
LINE
  5
355
330
350
100
AcDbEntity
  8
标注
 62
     0
370
    -2
100
AcDbLine
 10
1974.785726832277
 20
1545.435879993048
 30
0.0
 11
1974.785726832277
 21
1124.235879993051
 31
0.0
  0
SOLID
  5
356
330
350
100
AcDbEntity
  8
标注
 62
     0
100
AcDbTrace
 10
1971.785726832277
 20
1545.435879993048
 30
0.0
 11
1977.785726832277
 21
1545.435879993048
 31
0.0
 12
1974.785726832277
 22
1563.435879993049
 32
0.0
 13
1974.785726832277
 23
1563.435879993049
 33
0.0
  0
SOLID
  5
357
330
350
100
AcDbEntity
  8
标注
 62
     0
100
AcDbTrace
 10
1971.785726832277
 20
1124.235879993051
 30
0.0
 11
1977.785726832277
 21
1124.235879993051
 31
0.0
 12
1974.785726832277
 22
1106.235879993051
 32
0.0
 13
1974.785726832277
 23
1106.235879993051
 33
0.0
  0
MTEXT
  5
358
330
350
100
AcDbEntity
  8
标注
 62
     0
370
     9
100
AcDbMText
 10
1950.265726832277
 20
1322.135879993068
 30
0.0
 40
27.6
 41
0.0
 71
     5
 72
     1
  1
457.2 [18]
 11
0.0000000000000001
 21
1.0
 31
0.0
 73
     1
 44
1.0
  0
POINT
  5
359
330
350
100
AcDbEntity
  8
Defpoints
 62
     0
100
AcDbPoint
 10
2068.574163488658
 20
1563.435879993049
 30
0.0
  0
POINT
  5
35A
330
350
100
AcDbEntity
  8
Defpoints
 62
     0
100
AcDbPoint
 10
2068.574163488658
 20
1106.235879993051
 30
0.0
  0
POINT
  5
35B
330
350
100
AcDbEntity
  8
Defpoints
 62
     0
100
AcDbPoint
 10
1974.785726832277
 20
1106.235879993051
 30
0.0
  0
ENDBLK
  5
352
330
350
100
AcDbEntity
  8
0
100
AcDbBlockEnd
  0
BLOCK
  5
366
330
365
100
AcDbEntity
  8
0
100
AcDbBlockBegin
  2
*D19
 70
     1
 10
0.0
 20
0.0
 30
0.0
  3
*D19
  1

  0
LINE
  5
368
330
365
100
AcDbEntity
  8
标注
 62
     0
370
    -2
100
AcDbLine
 10
2379.105342015137
 20
1418.035879993054
 30
0.0
 11
2310.98518574368
 21
1418.035879993054
 31
0.0
  0
LINE
  5
369
330
365
100
AcDbEntity
  8
标注
 62
     0
370
    -2
100
AcDbLine
 10
2379.105342015137
 20
1538.035879993054
 30
0.0
 11
2310.98518574368
 21
1538.035879993054
 31
0.0
  0
LINE
  5
36A
330
365
100
AcDbEntity
  8
标注
 62
     0
370
    -2
100
AcDbLine
 10
2320.985185743681
 20
1438.035879993054
 30
0.0
 11
2320.985185743681
 21
1518.035879993054
 31
0.0
  0
SOLID
  5
36B
330
365
100
AcDbEntity
  8
标注
 62
     0
100
AcDbTrace
 10
2317.651852410347
 20
1438.035879993054
 30
0.0
 11
2324.318519077014
 21
1438.035879993054
 31
0.0
 12
2320.985185743681
 22
1418.035879993054
 32
0.0
 13
2320.985185743681
 23
1418.035879993054
 33
0.0
  0
SOLID
  5
36C
330
365
100
AcDbEntity
  8
标注
 62
     0
100
AcDbTrace
 10
2317.651852410347
 20
1518.035879993054
 30
0.0
 11
2324.318519077014
 21
1518.035879993054
 31
0.0
 12
2320.985185743681
 22
1538.035879993054
 32
0.0
 13
2320.985185743681
 23
1538.035879993054
 33
0.0
  0
MTEXT
  5
36D
330
365
100
AcDbEntity
  8
标注
 62
     0
370
     9
100
AcDbMText
 10
2306.78518574368
 20
1478.035879993055
 30
0.0
 40
18.4
 41
0.0
 71
     5
 72
     1
  1
4.7"
 11
0.0000000000000001
 21
1.0
 31
0.0
 73
     1
 44
1.0
  0
POINT
  5
36E
330
365
100
AcDbEntity
  8
Defpoints
 62
     0
100
AcDbPoint
 10
2384.105342015137
 20
1418.035879993054
 30
0.0
  0
POINT
  5
36F
330
365
100
AcDbEntity
  8
Defpoints
 62
     0
100
AcDbPoint
 10
2384.105342015137
 20
1538.035879993054
 30
0.0
  0
POINT
  5
370
330
365
100
AcDbEntity
  8
Defpoints
 62
     0
100
AcDbPoint
 10
2320.985185743681
 20
1538.035879993054
 30
0.0
  0
ENDBLK
  5
367
330
365
100
AcDbEntity
  8
0
100
AcDbBlockEnd
  0
BLOCK
  5
372
330
371
100
AcDbEntity
  8
0
100
AcDbBlockBegin
  2
*D20
 70
     1
 10
0.0
 20
0.0
 30
0.0
  3
*D20
  1

  0
LINE
  5
3AC
330
371
100
AcDbEntity
  8
标注
 62
     0
370
    -2
100
AcDbLine
 10
2215.439717159373
 20
1362.276834965418
 30
0.0
 11
2309.572573708447
 21
1393.396146866633
 31
0.0
  0
LINE
  5
3AD
330
371
100
AcDbEntity
  8
标注
 62
     0
370
    -2
100
AcDbLine
 10
2458.638110321777
 20
1442.675613119459
 30
0.0
 11
2477.627350654691
 21
1448.95325213256
 31
0.0
  0
MTEXT
  5
3AE
102
{ACAD_XDICTIONARY
360
446
102
}
330
371
100
AcDbEntity
  8
标注
 62
     0
370
     9
100
AcDbMText
 10
2248.331815158941
 20
1388.853334032546
 30
0.0
 40
18.4
 41
0.0
 71
     5
 72
     1
  1
\U+22054.6"
 11
0.949462016645732
 21
0.3138819506550509
 31
0.0
 73
     1
 44
1.0
  0
LINE
  5
3AF
330
371
100
AcDbEntity
  8
标注
 62
     0
370
    -2
100
AcDbLine
 10
2439.648869988862
 20
1436.397974106358
 30
0.0
 11
2328.561814041361
 21
1399.673785879734
 31
0.0
  0
SOLID
  5
3B0
330
371
100
AcDbEntity
  8
标注
 62
     0
100
AcDbTrace
 10
2457.591837152926
 20
1445.840486508279
 30
0.0
 11
2459.684383490627
 21
1439.51073973064
 31
0.0
 12
2439.648869988862
 22
1436.397974106358
 32
0.0
 13
2439.648869988862
 23
1436.397974106358
 33
0.0
  0
SOLID
  5
3B1
330
371
100
AcDbEntity
  8
标注
 62
     0
100
AcDbTrace
 10
2308.526300539597
 20
1396.561020255452
 30
0.0
 11
2310.618846877297
 21
1390.231273477814
 31
0.0
 12
2328.561814041361
 22
1399.673785879734
 32
0.0
 13
2328.561814041361
 23
1399.673785879734
 33
0.0
  0
POINT
  5
3B2
330
371
100
AcDbEntity
  8
Defpoints
 62
     0
100
AcDbPoint
 10
2328.561814041361
 20
1399.673785879734
 30
0.0
  0
POINT
  5
3B3
330
371
100
AcDbEntity
  8
Defpoints
 62
     0
100
AcDbPoint
 10
2439.648869988862
 20
1436.397974106358
 30
0.0
  0
ENDBLK
  5
373
330
371
100
AcDbEntity
  8
0
100
AcDbBlockEnd
  0
BLOCK
  5
37D
330
37C
100
AcDbEntity
  8
0
100
AcDbBlockBegin
  2
*D21
 70
     1
 10
0.0
 20
0.0
 30
0.0
  3
*D21
  1

  0
LINE
  5
3B4
330
37C
100
AcDbEntity
  8
标注
 62
     0
370
    -2
100
AcDbLine
 10
2262.024197712148
 20
1308.312420612548
 30
0.0
 11
2335.761782601497
 21
1374.585905732765
 31
0.0
  0
LINE
  5
3B5
330
37C
100
AcDbEntity
  8
标注
 62
     0
370
    -2
100
AcDbLine
 10
2432.448901428816
 20
1461.485854253379
 30
0.0
 11
2447.323842786859
 21
1474.8550771027
 31
0.0
  0
MTEXT
  5
3B6
102
{ACAD_XDICTIONARY
360
448
102
}
330
37C
100
AcDbEntity
  8
标注
 62
     0
370
     9
100
AcDbMText
 10
2281.489338373673
 20
1345.85318129351
 30
0.0
 40
18.4
 41
0.0
 71
     5
 72
     1
  1
\U+22053.5"
 11
0.743747067902154
 21
0.6684611424659993
 31
0.0
 73
     1
 44
1.0
  0
LINE
  5
3B7
330
37C
100
AcDbEntity
  8
标注
 62
     0
370
    -2
100
AcDbLine
 10
2417.573960070773
 20
1448.11663140406
 30
0.0
 11
2350.63672395954
 21
1387.955128582085
 31
0.0
  0
SOLID
  5
3B8
330
37C
100
AcDbEntity
  8
标注
 62
     0
100
AcDbTrace
 10
2430.220697620596
 20
1463.965011146387
 30
0.0
 11
2434.677105237036
 21
1459.006697360372
 31
0.0
 12
2417.573960070773
 22
1448.11663140406
 32
0.0
 13
2417.573960070773
 23
1448.11663140406
 33
0.0
  0
SOLID
  5
3B9
330
37C
100
AcDbEntity
  8
标注
 62
     0
100
AcDbTrace
 10
2333.533578793277
 20
1377.065062625772
 30
0.0
 11
2337.989986409717
 21
1372.106748839758
 31
0.0
 12
2350.63672395954
 22
1387.955128582085
 32
0.0
 13
2350.63672395954
 23
1387.955128582085
 33
0.0
  0
POINT
  5
3BA
330
37C
100
AcDbEntity
  8
Defpoints
 62
     0
100
AcDbPoint
 10
2350.63672395954
 20
1387.955128582085
 30
0.0
  0
POINT
  5
3BB
330
37C
100
AcDbEntity
  8
Defpoints
 62
     0
100
AcDbPoint
 10
2417.573960070773
 20
1448.11663140406
 30
0.0
  0
ENDBLK
  5
37E
330
37C
100
AcDbEntity
  8
0
100
AcDbBlockEnd
  0
BLOCK
  5
393
330
392
100
AcDbEntity
  8
0
100
AcDbBlockBegin
  2
*D22
 70
     1
 10
0.0
 20
0.0
 30
0.0
  3
*D22
  1

  0
LINE
  5
409
330
392
100
AcDbEntity
  8
标注
 62
     0
370
    -2
100
AcDbLine
 10
2381.074163488673
 20
1106.235879993051
 30
0.0
 11
2350.83167843191
 21
1106.235879993051
 31
0.0
  0
LINE
  5
40A
330
392
100
AcDbEntity
  8
标注
 62
     0
370
    -2
100
AcDbLine
 10
2381.074163488673
 20
1131.635879993053
 30
0.0
 11
2350.83167843191
 21
1131.635879993053
 31
0.0
  0
LINE
  5
40B
330
392
100
AcDbEntity
  8
标注
 62
     0
370
    -2
100
AcDbLine
 10
2360.83167843191
 20
1086.235879993052
 30
0.0
 11
2360.83167843191
 21
1066.235879993051
 31
0.0
  0
LINE
  5
40C
330
392
100
AcDbEntity
  8
标注
 62
     0
370
    -2
100
AcDbLine
 10
2360.83167843191
 20
1151.635879993053
 30
0.0
 11
2360.83167843191
 21
1202.693657770831
 31
0.0
  0
LINE
  5
40D
330
392
100
AcDbEntity
  8
标注
 62
     0
370
    -2
100
AcDbLine
 10
2360.83167843191
 20
1106.235879993051
 30
0.0
 11
2360.83167843191
 21
1131.635879993053
 31
0.0
  0
SOLID
  5
40E
330
392
100
AcDbEntity
  8
标注
 62
     0
100
AcDbTrace
 10
2357.498345098577
 20
1086.235879993052
 30
0.0
 11
2364.165011765244
 21
1086.235879993052
 31
0.0
 12
2360.83167843191
 22
1106.235879993051
 32
0.0
 13
2360.83167843191
 23
1106.235879993051
 33
0.0
  0
SOLID
  5
40F
330
392
100
AcDbEntity
  8
标注
 62
     0
100
AcDbTrace
 10
2357.498345098577
 20
1151.635879993053
 30
0.0
 11
2364.165011765244
 21
1151.635879993053
 31
0.0
 12
2360.83167843191
 22
1131.635879993053
 32
0.0
 13
2360.83167843191
 23
1131.635879993053
 33
0.0
  0
MTEXT
  5
410
330
392
100
AcDbEntity
  8
标注
 62
     0
370
     9
100
AcDbMText
 10
2346.63167843191
 20
1187.164768881942
 30
0.0
 40
18.4
 41
0.0
 71
     5
 72
     1
  1
1"
 11
0.0000000000000001
 21
1.0
 31
0.0
 73
     1
 44
1.0
  0
POINT
  5
411
330
392
100
AcDbEntity
  8
Defpoints
 62
     0
100
AcDbPoint
 10
2386.074163488673
 20
1106.235879993051
 30
0.0
  0
POINT
  5
412
330
392
100
AcDbEntity
  8
Defpoints
 62
     0
100
AcDbPoint
 10
2386.074163488673
 20
1131.635879993053
 30
0.0
  0
POINT
  5
413
330
392
100
AcDbEntity
  8
Defpoints
 62
     0
100
AcDbPoint
 10
2360.83167843191
 20
1131.635879993053
 30
0.0
  0
ENDBLK
  5
394
330
392
100
AcDbEntity
  8
0
100
AcDbBlockEnd
  0
BLOCK
  5
3A1
330
3A0
100
AcDbEntity
  8
0
100
AcDbBlockBegin
  2
*D23
 70
     1
 10
0.0
 20
0.0
 30
0.0
  3
*D23
  1

  0
LINE
  5
3A3
330
3A0
100
AcDbEntity
  8
标注
 62
     0
370
    -2
100
AcDbLine
 10
2061.074163488658
 20
987.4811284378957
 30
0.0
 11
2020.142976223484
 21
987.4811284378957
 31
0.0
  0
LINE
  5
3A4
330
3A0
100
AcDbEntity
  8
标注
 62
     0
370
    -2
100
AcDbLine
 10
2086.474163488652
 20
758.8811284378971
 30
0.0
 11
2020.142976223484
 21
758.8811284378971
 31
0.0
  0
LINE
  5
3A5
330
3A0
100
AcDbEntity
  8
标注
 62
     0
370
    -2
100
AcDbLine
 10
2035.142976223484
 20
969.4811284378957
 30
0.0
 11
2035.142976223484
 21
776.8811284378971
 31
0.0
  0
SOLID
  5
3A6
330
3A0
100
AcDbEntity
  8
标注
 62
     0
100
AcDbTrace
 10
2032.142976223484
 20
969.4811284378957
 30
0.0
 11
2038.142976223484
 21
969.4811284378957
 31
0.0
 12
2035.142976223484
 22
987.4811284378957
 32
0.0
 13
2035.142976223484
 23
987.4811284378957
 33
0.0
  0
SOLID
  5
3A7
330
3A0
100
AcDbEntity
  8
标注
 62
     0
100
AcDbTrace
 10
2032.142976223484
 20
776.8811284378971
 30
0.0
 11
2038.142976223484
 21
776.8811284378971
 31
0.0
 12
2035.142976223484
 22
758.8811284378971
 32
0.0
 13
2035.142976223484
 23
758.8811284378971
 33
0.0
  0
MTEXT
  5
3A8
330
3A0
100
AcDbEntity
  8
标注
 62
     0
370
     9
100
AcDbMText
 10
2010.622976223483
 20
873.1811284378967
 30
0.0
 40
27.6
 41
0.0
 71
     5
 72
     1
  1
228.6 [9]
 11
0.0000000000000001
 21
1.0
 31
0.0
 73
     1
 44
1.0
  0
POINT
  5
3A9
330
3A0
100
AcDbEntity
  8
Defpoints
 62
     0
100
AcDbPoint
 10
2068.574163488658
 20
987.4811284378957
 30
0.0
  0
POINT
  5
3AA
330
3A0
100
AcDbEntity
  8
Defpoints
 62
     0
100
AcDbPoint
 10
2093.974163488653
 20
758.8811284378971
 30
0.0
  0
POINT
  5
3AB
330
3A0
100
AcDbEntity
  8
Defpoints
 62
     0
100
AcDbPoint
 10
2035.142976223484
 20
758.8811284378971
 30
0.0
  0
ENDBLK
  5
3A2
330
3A0
100
AcDbEntity
  8
0
100
AcDbBlockEnd
  0
ENDSEC
  0
SECTION
  2
ENTITIES
  0
LWPOLYLINE
  5
2D5
330
1F
100
AcDbEntity
  8
外框线1
 62
     0
370
     9
100
AcDbPolyline
 90
        4
 70
     1
 43
0.0
 10
2093.974163488653
 20
1131.635879993053
 10
2678.174163488693
 20
1131.635879993053
 10
2678.174163488693
 20
1538.035879993047
 10
2093.974163488653
 20
1538.035879993047
  0
DIMENSION
  5
2E3
330
1F
100
AcDbEntity
  8
标注
370
     9
100
AcDbDimension
  2
*D13
 10
2678.174163488679
 20
1588.027006564909
 30
0.0
 11
2386.074163488673
 21
1612.547006564909
 31
0.0
 70
    32
 71
     5
 42
584.2000000000116
  3
1-12
100
AcDbAlignedDimension
 13
2093.974163488667
 23
1563.435879993049
 33
0.0
 14
2678.174163488679
 24
1563.031443278982
 34
0.0
100
AcDbRotatedDimension
  0
DIMENSION
  5
2E7
330
1F
100
AcDbEntity
  8
标注
370
     9
100
AcDbDimension
  2
*D14
 10
2042.475761178466
 20
1131.635879993053
 30
0.0
 11
2017.955761178466
 21
1334.835879993054
 31
0.0
 70
    32
 71
     5
 42
406.4000000000014
  3
1-12
100
AcDbAlignedDimension
 13
2068.574163488658
 23
1538.035879993054
 33
0.0
 14
2068.574163488658
 24
1131.635879993053
 34
0.0
 50
90.0
100
AcDbRotatedDimension
  0
ENDSEC
  0
SECTION
  2
OBJECTS
  0
DICTIONARY
  5
C
330
0
100
AcDbDictionary
281
     1
  3
ACAD_COLOR
350
6B
  3
ACAD_GROUP
350
D
  3
ACAD_LAYOUT
350
1A
  3
ACAD_MATERIAL
350
6A
  3
ACAD_MLEADERSTYLE
350
12D
  3
ACAD_MLINESTYLE
350
17
  3
ACAD_PLOTSETTINGS
350
19
  3
ACAD_PLOTSTYLENAME
350
E
  3
ACAD_SCALELIST
350
10C
  3
ACAD_TABLESTYLE
350
7E
  3
ACAD_VISUALSTYLE
350
EF
  3
ACDB_RECOMPOSE_DATA
350
415
  3
AcDbVariableDictionary
350
5E
  0
DICTIONARY
  5
28A
330
2
100
AcDbDictionary
280
     1
281
     1
  3
ACAD_LAYERSTATES
360
28B
  0
DICTIONARY
  5
13C
330
10
100
AcDbDictionary
280
     1
281
     1
  0
DICTIONARY
  5
1CE
330
1F
100
AcDbDictionary
280
     1
281
     1
  0
DICTIONARY
  5
442
330
250
100
AcDbDictionary
280
     1
281
     1
  3
ACAD_MTEXT_2008_RT
360
443
  0
DICTIONARY
  5
444
330
25B
100
AcDbDictionary
280
     1
281
     1
  3
ACAD_MTEXT_2008_RT
360
445
  0
DICTIONARY
  5
446
330
3AE
100
AcDbDictionary
280
     1
281
     1
  3
ACAD_MTEXT_2008_RT
360
447
  0
DICTIONARY
  5
448
330
3B6
100
AcDbDictionary
280
     1
281
     1
  3
ACAD_MTEXT_2008_RT
360
449
  0
DICTIONARY
  5
6B
102
{ACAD_REACTORS
330
C
102
}
330
C
100
AcDbDictionary
281
     1
  0
DICTIONARY
  5
D
102
{ACAD_REACTORS
330
C
102
}
330
C
100
AcDbDictionary
281
     1
  0
DICTIONARY
  5
1A
102
{ACAD_REACTORS
330
C
102
}
330
C
100
AcDbDictionary
281
     1
  3
Model
350
22
  3
布局1
350
D3
  3
布局2
350
D7
  0
DICTIONARY
  5
6A
102
{ACAD_REACTORS
330
C
102
}
330
C
100
AcDbDictionary
281
     1
  3
ByBlock
350
ED
  3
ByLayer
350
EC
  3
Global
350
EE
  0
DICTIONARY
  5
12D
102
{ACAD_REACTORS
330
C
102
}
330
C
100
AcDbDictionary
281
     1
  3
Annotative
350
13B
  3
Standard
350
12E
  0
DICTIONARY
  5
17
102
{ACAD_REACTORS
330
C
102
}
330
C
100
AcDbDictionary
281
     1
  3
Standard
350
18
  0
DICTIONARY
  5
19
102
{ACAD_REACTORS
330
C
102
}
330
C
100
AcDbDictionary
281
     1
  0
ACDBDICTIONARYWDFLT
  5
E
102
{ACAD_REACTORS
330
C
102
}
330
C
100
AcDbDictionary
281
     1
  3
Normal
350
F
100
AcDbDictionaryWithDefault
340
F
  0
DICTIONARY
  5
10C
102
{ACAD_REACTORS
330
C
102
}
330
C
100
AcDbDictionary
281
     1
  3
A0
350
10D
  3
A1
350
1BE
  3
A2
350
1BF
  3
A3
350
1C0
  3
A4
350
1C1
  3
A5
350
1C2
  3
A6
350
1C3
  3
A7
350
1C4
  3
A8
350
1C5
  3
A9
350
1C6
  3
B0
350
1C7
  3
B1
350
1C8
  3
B2
350
1C9
  3
B3
350
1CA
  3
B4
350
1CB
  3
B5
350
1CC
  3
B6
350
1CD
  0
DICTIONARY
  5
7E
102
{ACAD_REACTORS
330
C
102
}
330
C
100
AcDbDictionary
281
     1
  3
Standard
350
7F
  0
DICTIONARY
  5
EF
102
{ACAD_REACTORS
330
C
102
}
330
C
100
AcDbDictionary
281
     1
  3
2dWireframe
350
F5
  3
3D Hidden
350
F7
  3
3dWireframe
350
F6
  3
Basic
350
F4
  3
Brighten
350
FB
  3
ColorChange
350
FF
  3
Conceptual
350
F8
  3
Dim
350
FA
  3
EdgeColorOff
350
1E6
  3
Facepattern
350
FE
  3
Flat
350
F0
  3
FlatWithEdges
350
F1
  3
Gouraud
350
F2
  3
GouraudWithEdges
350
F3
  3
JitterOff
350
1E4
  3
Linepattern
350
FD
  3
OverhangOff
350
1E5
  3
Realistic
350
F9
  3
Thicken
350
FC
  0
XRECORD
  5
415
102
{ACAD_REACTORS
330
C
102
}
330
C
100
AcDbXrecord
280
     1
 90
        1
330
7F
  0
DICTIONARY
  5
5E
102
{ACAD_REACTORS
330
C
102
}
330
C
100
AcDbDictionary
281
     1
  3
CANNOSCALE
350
146
  3
CMLEADERSTYLE
350
145
  3
CTABLESTYLE
350
84
  3
DIMASSOC
350
5F
  3
HIDETEXT
350
63
  3
LAYEREVAL
350
1AE
  3
LAYERNOTIFY
350
1AF
  3
LIGHTINGUNITS
350
3BD
  3
MSLTSCALE
350
3BC
  3
PSOLHEIGHT
350
3BF
  3
PSOLWIDTH
350
3BE
  3
XCLIPFRAME
350
3C0
  0
DICTIONARY
  5
28B
102
{ACAD_REACTORS
330
28A
102
}
330
28A
100
AcDbDictionary
281
     1
  0
XRECORD
  5
443
102
{ACAD_REACTORS
330
442
102
}
330
442
100
AcDbXrecord
280
     1
 40
3244.0
  1
\U+22054.6"
  0
XRECORD
  5
445
102
{ACAD_REACTORS
330
444
102
}
330
444
100
AcDbXrecord
280
     1
 40
3226.0
  1
\U+22053.5"
  0
XRECORD
  5
447
102
{ACAD_REACTORS
330
446
102
}
330
446
100
AcDbXrecord
280
     1
 40
3244.0
  1
\U+22054.6"
  0
XRECORD
  5
449
102
{ACAD_REACTORS
330
448
102
}
330
448
100
AcDbXrecord
280
     1
 40
3226.0
  1
\U+22053.5"
  0
LAYOUT
  5
22
102
{ACAD_REACTORS
330
1A
102
}
330
1A
100
AcDbPlotSettings
  1

  2
none_device
  4
ISO_A4_(210.00_x_297.00_MM)
  6

 40
7.5
 41
20.0
 42
7.5
 43
20.0
 44
210.0
 45
297.0
 46
11.54999923706054
 47
-13.65000009536743
 48
0.0
 49
0.0
140
0.0
141
0.0
142
1.0
143
8.704084754739808
 70
 11952
 72
     1
 73
     0
 74
     0
  7

 75
     0
147
0.1148885871608098
 76
     0
 77
     2
 78
   300
148
0.0
149
0.0
100
AcDbLayout
  1
Model
 70
     1
 71
     0
 10
0.0
 20
0.0
 11
12.0
 21
9.0
 12
0.0
 22
0.0
 32
0.0
 14
0.0
 24
0.0
 34
0.0
 15
0.0
 25
0.0
 35
0.0
146
0.0
 13
0.0
 23
0.0
 33
0.0
 16
1.0
 26
0.0
 36
0.0
 17
0.0
 27
1.0
 37
0.0
 76
     0
330
1F
331
EA
1001
ACAD_PSEXT
1000
None
1000
None
1000
Not applicable
1000
The layout will not be plotted unless a new plotter configuration name is selected.
1070
     0
  0
LAYOUT
  5
D3
102
{ACAD_REACTORS
330
1A
102
}
330
1A
100
AcDbPlotSettings
  1

  2
C:\Documents and Settings\basas\Application Data\Autodesk\AutoCAD 2005\R16.1\enu\plotters\Default Windows System Printer.pc3
  4

  6

 40
0.0
 41
0.0
 42
0.0
 43
0.0
 44
0.0
 45
0.0
 46
0.0
 47
0.0
 48
0.0
 49
0.0
140
0.0
141
0.0
142
1.0
143
1.0
 70
   688
 72
     0
 73
     0
 74
     5
  7

 75
    16
147
1.0
 76
     0
 77
     2
 78
   300
148
0.0
149
0.0
100
AcDbLayout
  1
布局1
 70
     1
 71
     1
 10
0.0
 20
0.0
 11
12.0
 21
9.0
 12
0.0
 22
0.0
 32
0.0
 14
0.0
 24
0.0
 34
0.0
 15
0.0
 25
0.0
 35
0.0
146
0.0
 13
0.0
 23
0.0
 33
0.0
 16
1.0
 26
0.0
 36
0.0
 17
0.0
 27
1.0
 37
0.0
 76
     0
330
D2
  0
LAYOUT
  5
D7
102
{ACAD_REACTORS
330
1A
102
}
330
1A
100
AcDbPlotSettings
  1

  2
C:\Documents and Settings\basas\Application Data\Autodesk\AutoCAD 2005\R16.1\enu\plotters\Default Windows System Printer.pc3
  4

  6

 40
0.0
 41
0.0
 42
0.0
 43
0.0
 44
0.0
 45
0.0
 46
0.0
 47
0.0
 48
0.0
 49
0.0
140
0.0
141
0.0
142
1.0
143
1.0
 70
   688
 72
     0
 73
     0
 74
     5
  7

 75
    16
147
1.0
 76
     0
 77
     2
 78
   300
148
0.0
149
0.0
100
AcDbLayout
  1
布局2
 70
     1
 71
     2
 10
0.0
 20
0.0
 11
12.0
 21
9.0
 12
0.0
 22
0.0
 32
0.0
 14
0.0
 24
0.0
 34
0.0
 15
0.0
 25
0.0
 35
0.0
146
0.0
 13
0.0
 23
0.0
 33
0.0
 16
1.0
 26
0.0
 36
0.0
 17
0.0
 27
1.0
 37
0.0
 76
     0
330
D6
  0
MATERIAL
  5
ED
102
{ACAD_XDICTIONARY
360
419
102
}
102
{ACAD_REACTORS
330
6A
102
}
330
6A
100
AcDbMaterial
  1
ByBlock
  0
MATERIAL
  5
EC
102
{ACAD_XDICTIONARY
360
417
102
}
102
{ACAD_REACTORS
330
6A
102
}
330
6A
100
AcDbMaterial
  1
ByLayer
  0
MATERIAL
  5
EE
102
{ACAD_XDICTIONARY
360
173
102
}
102
{ACAD_REACTORS
330
6A
102
}
330
6A
100
AcDbMaterial
  1
Global
 43
0.0007999999797903
 43
0.0
 43
0.0
 43
0.0
 43
0.0
 43
0.0007999999797903
 43
0.0
 43
0.0
 43
0.0
 43
0.0
 43
1.0
 43
0.0
 43
0.0
 43
0.0
 43
0.0
 43
1.0
 49
0.0007999999797903
 49
0.0
 49
0.0
 49
0.0
 49
0.0
 49
0.0007999999797903
 49
0.0
 49
0.0
 49
0.0
 49
0.0
 49
1.0
 49
0.0
 49
0.0
 49
0.0
 49
0.0
 49
1.0
142
0.0007999999797903
142
0.0
142
0.0
142
0.0
142
0.0
142
0.0007999999797903
142
0.0
142
0.0
142
0.0
142
0.0
142
1.0
142
0.0
142
0.0
142
0.0
142
0.0
142
1.0
144
0.0007999999797903
144
0.0
144
0.0
144
0.0
144
0.0
144
0.0007999999797903
144
0.0
144
0.0
144
0.0
144
0.0
144
1.0
144
0.0
144
0.0
144
0.0
144
0.0
144
1.0
1001
ACAD
1070
    -1
1070
     3
1070
     0
1000

1071
        0
1070
     0
  0
MLEADERSTYLE
  5
13B
102
{ACAD_REACTORS
330
12D
102
}
330
12D
100
AcDbMLeaderStyle
170
     2
171
     1
172
     0
 90
        2
 40
0.0
 41
0.0
173
     1
 91
-1056964608
340
14
 92
       -2
290
     1
 42
2.0
291
     1
 43
8.0
  3
Standard
 44
4.0
300

342
11
174
     1
178
     1
175
     1
176
     0
 93
-1056964608
 45
4.0
292
     0
297
     0
 46
4.0
 94
-1056964608
 47
1.0
 49
1.0
140
1.0
293
     1
141
0.0
294
     1
177
     0
142
1.0
295
     0
296
     1
143
3.75
1001
ACAD_MLEADERVER
1070
     2
  0
MLEADERSTYLE
  5
12E
102
{ACAD_REACTORS
330
12D
102
}
330
12D
100
AcDbMLeaderStyle
170
     2
171
     1
172
     0
 90
        2
 40
0.0
 41
0.0
173
     1
 91
-1056964608
340
14
 92
       -2
290
     1
 42
2.0
291
     1
 43
8.0
  3
Standard
 44
4.0
300

342
11
174
     1
178
     1
175
     1
176
     0
 93
-1056964608
 45
4.0
292
     0
297
     0
 46
4.0
 94
-1056964608
 47
1.0
 49
1.0
140
1.0
293
     1
141
0.0
294
     1
177
     0
142
1.0
295
     0
296
     0
143
3.75
1001
ACAD_MLEADERVER
1070
     2
  0
MLINESTYLE
  5
18
102
{ACAD_REACTORS
330
17
102
}
330
17
100
AcDbMlineStyle
  2
STANDARD
 70
     0
  3

 62
   256
 51
90.0
 52
90.0
 71
     2
 49
0.5
 62
   256
  6
BYLAYER
 49
-0.5
 62
   256
  6
BYLAYER
  0
ACDBPLACEHOLDER
  5
F
102
{ACAD_REACTORS
330
E
102
}
330
E
  0
SCALE
  5
10D
102
{ACAD_REACTORS
330
10C
102
}
330
10C
100
AcDbScale
 70
     0
300
1:1
140
1.0
141
1.0
290
     1
  0
SCALE
  5
1BE
102
{ACAD_REACTORS
330
10C
102
}
330
10C
100
AcDbScale
 70
     0
300
1:2
140
1.0
141
2.0
290
     0
  0
SCALE
  5
1BF
102
{ACAD_REACTORS
330
10C
102
}
330
10C
100
AcDbScale
 70
     0
300
1:4
140
1.0
141
4.0
290
     0
  0
SCALE
  5
1C0
102
{ACAD_REACTORS
330
10C
102
}
330
10C
100
AcDbScale
 70
     0
300
1:5
140
1.0
141
5.0
290
     0
  0
SCALE
  5
1C1
102
{ACAD_REACTORS
330
10C
102
}
330
10C
100
AcDbScale
 70
     0
300
1:8
140
1.0
141
8.0
290
     0
  0
SCALE
  5
1C2
102
{ACAD_REACTORS
330
10C
102
}
330
10C
100
AcDbScale
 70
     0
300
1:10
140
1.0
141
10.0
290
     0
  0
SCALE
  5
1C3
102
{ACAD_REACTORS
330
10C
102
}
330
10C
100
AcDbScale
 70
     0
300
1:16
140
1.0
141
16.0
290
     0
  0
SCALE
  5
1C4
102
{ACAD_REACTORS
330
10C
102
}
330
10C
100
AcDbScale
 70
     0
300
1:20
140
1.0
141
20.0
290
     0
  0
SCALE
  5
1C5
102
{ACAD_REACTORS
330
10C
102
}
330
10C
100
AcDbScale
 70
     0
300
1:30
140
1.0
141
30.0
290
     0
  0
SCALE
  5
1C6
102
{ACAD_REACTORS
330
10C
102
}
330
10C
100
AcDbScale
 70
     0
300
1:40
140
1.0
141
40.0
290
     0
  0
SCALE
  5
1C7
102
{ACAD_REACTORS
330
10C
102
}
330
10C
100
AcDbScale
 70
     0
300
1:50
140
1.0
141
50.0
290
     0
  0
SCALE
  5
1C8
102
{ACAD_REACTORS
330
10C
102
}
330
10C
100
AcDbScale
 70
     0
300
1:100
140
1.0
141
100.0
290
     0
  0
SCALE
  5
1C9
102
{ACAD_REACTORS
330
10C
102
}
330
10C
100
AcDbScale
 70
     0
300
2:1
140
2.0
141
1.0
290
     0
  0
SCALE
  5
1CA
102
{ACAD_REACTORS
330
10C
102
}
330
10C
100
AcDbScale
 70
     0
300
4:1
140
4.0
141
1.0
290
     0
  0
SCALE
  5
1CB
102
{ACAD_REACTORS
330
10C
102
}
330
10C
100
AcDbScale
 70
     0
300
8:1
140
8.0
141
1.0
290
     0
  0
SCALE
  5
1CC
102
{ACAD_REACTORS
330
10C
102
}
330
10C
100
AcDbScale
 70
     0
300
10:1
140
10.0
141
1.0
290
     0
  0
SCALE
  5
1CD
102
{ACAD_REACTORS
330
10C
102
}
330
10C
100
AcDbScale
 70
     0
300
100:1
140
100.0
141
1.0
290
     0
  0
TABLESTYLE
  5
7F
102
{ACAD_XDICTIONARY
360
162
102
}
102
{ACAD_REACTORS
330
7E
102
}
330
7E
100
AcDbTableStyle
  3
Standard
 70
     0
 71
     0
 40
1.5
 41
1.5
280
     0
281
     0
  7
Standard
140
4.5
170
     2
 62
     0
 63
     7
283
     0
274
    -2
284
     1
 64
     0
275
    -2
285
     1
 65
     0
276
    -2
286
     1
 66
     0
277
    -2
287
     1
 67
     0
278
    -2
288
     1
 68
     0
279
    -2
289
     1
 69
     0
  7
Standard
140
6.0
170
     5
 62
     0
 63
     7
283
     0
274
    -2
284
     1
 64
     0
275
    -2
285
     1
 65
     0
276
    -2
286
     1
 66
     0
277
    -2
287
     1
 67
     0
278
    -2
288
     1
 68
     0
279
    -2
289
     1
 69
     0
  7
Standard
140
4.5
170
     5
 62
     0
 63
     7
283
     0
274
    -2
284
     1
 64
     0
275
    -2
285
     1
 65
     0
276
    -2
286
     1
 66
     0
277
    -2
287
     1
 67
     0
278
    -2
288
     1
 68
     0
279
    -2
289
     1
 69
     0
  0
VISUALSTYLE
  5
F5
102
{ACAD_XDICTIONARY
360
426
102
}
102
{ACAD_REACTORS
330
EF
102
}
330
EF
100
AcDbVisualStyle
  2
2dWireframe
 70
     4
 71
     0
 72
     2
 73
     1
 90
        0
 40
-0.6
 41
-30.0
 62
     5
 63
     7
421
 16777215
 74
     1
 91
        4
 64
     7
 65
   257
 75
     1
175
     1
 42
1.0
 92
        0
 66
   257
 43
1.0
 76
     1
 77
     6
 78
     2
 67
     7
 79
     5
170
     0
171
     0
290
     0
174
     0
 93
        1
 44
0.0
173
     0
291
     0
 45
0.0
1001
ACAD
1000
AcDbSavedByObjectVersion
1070
     0
  0
VISUALSTYLE
  5
F7
102
{ACAD_XDICTIONARY
360
42A
102
}
102
{ACAD_REACTORS
330
EF
102
}
330
EF
100
AcDbVisualStyle
  2
3D Hidden
 70
     6
 71
     1
 72
     2
 73
     2
 90
        0
 40
-0.6
 41
-30.0
 62
     5
 63
     7
421
 16777215
 74
     2
 91
        2
 64
     7
 65
   257
 75
     2
175
     1
 42
40.0
 92
        0
 66
   257
 43
1.0
 76
     1
 77
     6
 78
     2
 67
     7
 79
     3
170
     0
171
     0
290
     0
174
     0
 93
        1
 44
0.0
173
     0
291
     0
 45
0.0
1001
ACAD
1000
AcDbSavedByObjectVersion
1070
     0
  0
VISUALSTYLE
  5
F6
102
{ACAD_XDICTIONARY
360
428
102
}
102
{ACAD_REACTORS
330
EF
102
}
330
EF
100
AcDbVisualStyle
  2
3dWireframe
 70
     5
 71
     0
 72
     2
 73
     1
 90
        0
 40
-0.6
 41
-30.0
 62
     5
 63
     7
421
 16777215
 74
     1
 91
        4
 64
     7
 65
   257
 75
     1
175
     1
 42
1.0
 92
        0
 66
   257
 43
1.0
 76
     1
 77
     6
 78
     2
 67
     7
 79
     5
170
     0
171
     0
290
     0
174
     0
 93
        1
 44
0.0
173
     0
291
     0
 45
0.0
1001
ACAD
1000
AcDbSavedByObjectVersion
1070
     0
  0
VISUALSTYLE
  5
F4
102
{ACAD_XDICTIONARY
360
424
102
}
102
{ACAD_REACTORS
330
EF
102
}
330
EF
100
AcDbVisualStyle
  2
Basic
 70
     7
 71
     1
 72
     0
 73
     1
 90
        0
 40
-0.6
 41
-30.0
 62
     5
 63
     7
421
 16777215
 74
     0
 91
        4
 64
     7
 65
   257
 75
     1
175
     1
 42
1.0
 92
        8
 66
     7
 43
1.0
 76
     1
 77
     6
 78
     2
 67
     7
 79
     5
170
     0
171
     0
290
     0
174
     0
 93
        1
 44
0.0
173
     0
291
     1
 45
0.0
1001
ACAD
1000
AcDbSavedByObjectVersion
1070
     0
  0
VISUALSTYLE
  5
FB
102
{ACAD_XDICTIONARY
360
432
102
}
102
{ACAD_REACTORS
330
EF
102
}
330
EF
100
AcDbVisualStyle
  2
Brighten
 70
    12
 71
     2
 72
     2
 73
     1
 90
        0
 40
-0.6
 41
-30.0
 62
     5
 63
     7
421
 16777215
 74
     1
 91
        4
 64
     7
 65
   257
 75
     1
175
     1
 42
1.0
 92
        8
 66
     7
 43
1.0
 76
     1
 77
     6
 78
     2
 67
     7
 79
     5
170
     0
171
     0
290
     0
174
     0
 93
        1
 44
50.0
173
     0
291
     1
 45
0.0
1001
ACAD
1000
AcDbSavedByObjectVersion
1070
     0
  0
VISUALSTYLE
  5
FF
102
{ACAD_XDICTIONARY
360
43A
102
}
102
{ACAD_REACTORS
330
EF
102
}
330
EF
100
AcDbVisualStyle
  2
ColorChange
 70
    16
 71
     2
 72
     2
 73
     3
 90
        0
 40
-0.6
 41
-30.0
 62
     5
 63
     8
421
  8421504
 74
     1
 91
        4
 64
     7
 65
   257
 75
     1
175
     1
 42
1.0
 92
        8
 66
     8
424
  8421504
 43
1.0
 76
     1
 77
     6
 78
     2
 67
     7
 79
     5
170
     0
171
     0
290
     0
174
     0
 93
        1
 44
0.0
173
     0
291
     1
 45
0.0
1001
ACAD
1000
AcDbSavedByObjectVersion
1070
     0
  0
VISUALSTYLE
  5
F8
102
{ACAD_XDICTIONARY
360
42C
102
}
102
{ACAD_REACTORS
330
EF
102
}
330
EF
100
AcDbVisualStyle
  2
Conceptual
 70
     9
 71
     3
 72
     2
 73
     1
 90
        0
 40
-0.6
 41
-30.0
 62
     5
 63
     7
421
 16777215
 74
     2
 91
        2
 64
     7
 65
   257
 75
     1
175
     1
 42
40.0
 92
        8
 66
     7
 43
1.0
 76
     1
 77
     6
 78
     2
 67
     7
 79
     3
170
     0
171
     0
290
     0
174
     0
 93
        1
 44
0.0
173
     0
291
     0
 45
0.0
1001
ACAD
1000
AcDbSavedByObjectVersion
1070
     0
  0
VISUALSTYLE
  5
FA
102
{ACAD_XDICTIONARY
360
430
102
}
102
{ACAD_REACTORS
330
EF
102
}
330
EF
100
AcDbVisualStyle
  2
Dim
 70
    11
 71
     2
 72
     2
 73
     1
 90
        0
 40
-0.6
 41
-30.0
 62
     5
 63
     7
421
 16777215
 74
     1
 91
        4
 64
     7
 65
   257
 75
     1
175
     1
 42
1.0
 92
        8
 66
     7
 43
1.0
 76
     1
 77
     6
 78
     2
 67
     7
 79
     5
170
     0
171
     0
290
     0
174
     0
 93
        1
 44
-50.0
173
     0
291
     1
 45
0.0
1001
ACAD
1000
AcDbSavedByObjectVersion
1070
     0
  0
VISUALSTYLE
  5
1E6
102
{ACAD_XDICTIONARY
360
440
102
}
102
{ACAD_REACTORS
330
EF
102
}
330
EF
100
AcDbVisualStyle
  2
EdgeColorOff
 70
    22
 71
     2
 72
     2
 73
     0
 90
        0
 40
-0.6
 41
-30.0
 62
     5
 63
     7
421
 16777215
 74
     1
 91
        4
 64
     7
 65
   257
 75
     1
175
     1
 42
1.0
 92
        8
 66
     7
 43
1.0
 76
     1
 77
     6
 78
     2
 67
     7
 79
     5
170
     0
171
     0
290
     0
174
     0
 93
        1
 44
0.0
173
     0
291
     1
 45
0.0
1001
ACAD
1000
AcDbSavedByObjectVersion
1070
     0
  0
VISUALSTYLE
  5
FE
102
{ACAD_XDICTIONARY
360
438
102
}
102
{ACAD_REACTORS
330
EF
102
}
330
EF
100
AcDbVisualStyle
  2
Facepattern
 70
    15
 71
     2
 72
     2
 73
     1
 90
        0
 40
-0.6
 41
-30.0
 62
     5
 63
     7
421
 16777215
 74
     1
 91
        4
 64
     7
 65
   257
 75
     1
175
     1
 42
1.0
 92
        8
 66
     7
 43
1.0
 76
     1
 77
     6
 78
     2
 67
     7
 79
     5
170
     0
171
     0
290
     0
174
     0
 93
        1
 44
0.0
173
     0
291
     1
 45
0.0
1001
ACAD
1000
AcDbSavedByObjectVersion
1070
     0
  0
VISUALSTYLE
  5
F0
102
{ACAD_XDICTIONARY
360
41C
102
}
102
{ACAD_REACTORS
330
EF
102
}
330
EF
100
AcDbVisualStyle
  2
Flat
 70
     0
 71
     2
 72
     1
 73
     1
 90
        2
 40
-0.6
 41
30.0
 62
     5
 63
     7
421
 16777215
 74
     0
 91
        4
 64
     7
 65
   257
 75
     1
175
     1
 42
1.0
 92
        8
 66
     7
 43
1.0
 76
     1
 77
     6
 78
     2
 67
     7
 79
     5
170
     0
171
     0
290
     0
174
     0
 93
        1
 44
0.0
173
     0
291
     1
 45
0.0
1001
ACAD
1000
AcDbSavedByObjectVersion
1070
     0
  0
VISUALSTYLE
  5
F1
102
{ACAD_XDICTIONARY
360
41E
102
}
102
{ACAD_REACTORS
330
EF
102
}
330
EF
100
AcDbVisualStyle
  2
FlatWithEdges
 70
     1
 71
     2
 72
     1
 73
     1
 90
        2
 40
-0.6
 41
30.0
 62
     5
 63
     7
421
 16777215
 74
     1
 91
        4
 64
     7
 65
   257
 75
     1
175
     1
 42
1.0
 92
        0
 66
   257
 43
1.0
 76
     1
 77
     6
 78
     2
 67
     7
 79
     5
170
     0
171
     0
290
     0
174
     0
 93
        1
 44
0.0
173
     0
291
     1
 45
0.0
1001
ACAD
1000
AcDbSavedByObjectVersion
1070
     0
  0
VISUALSTYLE
  5
F2
102
{ACAD_XDICTIONARY
360
420
102
}
102
{ACAD_REACTORS
330
EF
102
}
330
EF
100
AcDbVisualStyle
  2
Gouraud
 70
     2
 71
     2
 72
     2
 73
     1
 90
        2
 40
-0.6
 41
30.0
 62
     5
 63
     7
421
 16777215
 74
     0
 91
        4
 64
     7
 65
   257
 75
     1
175
     1
 42
1.0
 92
        0
 66
     7
 43
1.0
 76
     1
 77
     6
 78
     2
 67
     7
 79
     5
170
     0
171
     0
290
     0
174
     0
 93
        1
 44
0.0
173
     0
291
     1
 45
0.0
1001
ACAD
1000
AcDbSavedByObjectVersion
1070
     0
  0
VISUALSTYLE
  5
F3
102
{ACAD_XDICTIONARY
360
422
102
}
102
{ACAD_REACTORS
330
EF
102
}
330
EF
100
AcDbVisualStyle
  2
GouraudWithEdges
 70
     3
 71
     2
 72
     2
 73
     1
 90
        2
 40
-0.6
 41
30.0
 62
     5
 63
     7
421
 16777215
 74
     1
 91
        4
 64
     7
 65
   257
 75
     1
175
     1
 42
1.0
 92
        0
 66
   257
 43
1.0
 76
     1
 77
     6
 78
     2
 67
     7
 79
     5
170
     0
171
     0
290
     0
174
     0
 93
        1
 44
0.0
173
     0
291
     1
 45
0.0
1001
ACAD
1000
AcDbSavedByObjectVersion
1070
     0
  0
VISUALSTYLE
  5
1E4
102
{ACAD_XDICTIONARY
360
43C
102
}
102
{ACAD_REACTORS
330
EF
102
}
330
EF
100
AcDbVisualStyle
  2
JitterOff
 70
    20
 71
     2
 72
     2
 73
     0
 90
        0
 40
-0.6
 41
-30.0
 62
     5
 63
     7
421
 16777215
 74
     1
 91
        4
 64
     7
 65
   257
 75
     1
175
     1
 42
1.0
 92
       10
 66
     7
 43
1.0
 76
     1
 77
     6
 78
     2
 67
     7
 79
     5
170
     0
171
     0
290
     0
174
     0
 93
        1
 44
0.0
173
     0
291
     1
 45
0.0
1001
ACAD
1000
AcDbSavedByObjectVersion
1070
     0
  0
VISUALSTYLE
  5
FD
102
{ACAD_XDICTIONARY
360
436
102
}
102
{ACAD_REACTORS
330
EF
102
}
330
EF
100
AcDbVisualStyle
  2
Linepattern
 70
    14
 71
     2
 72
     2
 73
     1
 90
        0
 40
-0.6
 41
-30.0
 62
     5
 63
     7
421
 16777215
 74
     1
 91
        4
 64
     7
 65
   257
 75
     7
175
     7
 42
1.0
 92
        8
 66
     7
 43
1.0
 76
     1
 77
     6
 78
     2
 67
     7
 79
     5
170
     0
171
     0
290
     0
174
     0
 93
        1
 44
0.0
173
     0
291
     1
 45
0.0
1001
ACAD
1000
AcDbSavedByObjectVersion
1070
     0
  0
VISUALSTYLE
  5
1E5
102
{ACAD_XDICTIONARY
360
43E
102
}
102
{ACAD_REACTORS
330
EF
102
}
330
EF
100
AcDbVisualStyle
  2
OverhangOff
 70
    21
 71
     2
 72
     2
 73
     0
 90
        0
 40
-0.6
 41
-30.0
 62
     5
 63
     7
421
 16777215
 74
     1
 91
        4
 64
     7
 65
   257
 75
     1
175
     1
 42
1.0
 92
        9
 66
     7
 43
1.0
 76
     1
 77
     6
 78
     2
 67
     7
 79
     5
170
     0
171
     0
290
     0
174
     0
 93
        1
 44
0.0
173
     0
291
     1
 45
0.0
1001
ACAD
1000
AcDbSavedByObjectVersion
1070
     0
  0
VISUALSTYLE
  5
F9
102
{ACAD_XDICTIONARY
360
42E
102
}
102
{ACAD_REACTORS
330
EF
102
}
330
EF
100
AcDbVisualStyle
  2
Realistic
 70
     8
 71
     2
 72
     2
 73
     1
 90
        0
 40
-0.6
 41
-30.0
 62
     5
 63
     7
421
 16777215
 74
     1
 91
        0
 64
     7
 65
   257
 75
     1
175
     1
 42
1.0
 92
        8
 66
     8
424
  7895160
 43
1.0
 76
     1
 77
     6
 78
     2
 67
     7
 79
     5
170
     0
171
     0
290
     0
174
     0
 93
       13
 44
0.0
173
     0
291
     0
 45
0.0
1001
ACAD
1000
AcDbSavedByObjectVersion
1070
     0
  0
VISUALSTYLE
  5
FC
102
{ACAD_XDICTIONARY
360
434
102
}
102
{ACAD_REACTORS
330
EF
102
}
330
EF
100
AcDbVisualStyle
  2
Thicken
 70
    13
 71
     2
 72
     2
 73
     1
 90
        0
 40
-0.6
 41
-30.0
 62
     5
 63
     7
421
 16777215
 74
     1
 91
        4
 64
     7
 65
   257
 75
     1
175
     1
 42
1.0
 92
       12
 66
     7
 43
1.0
 76
     1
 77
     6
 78
     2
 67
     7
 79
     5
170
     0
171
     0
290
     0
174
     0
 93
        1
 44
0.0
173
     0
291
     1
 45
0.0
1001
ACAD
1000
AcDbSavedByObjectVersion
1070
     0
  0
DICTIONARYVAR
  5
146
102
{ACAD_REACTORS
330
5E
102
}
330
5E
100
DictionaryVariables
280
     0
  1
1:1
  0
DICTIONARYVAR
  5
145
102
{ACAD_REACTORS
330
5E
102
}
330
5E
100
DictionaryVariables
280
     0
  1
STANDARD
  0
DICTIONARYVAR
  5
84
102
{ACAD_REACTORS
330
5E
102
}
330
5E
100
DictionaryVariables
280
     0
  1
STANDARD
  0
DICTIONARYVAR
  5
5F
102
{ACAD_REACTORS
330
5E
102
}
330
5E
100
DictionaryVariables
280
     0
  1
2
  0
DICTIONARYVAR
  5
63
102
{ACAD_REACTORS
330
5E
102
}
330
5E
100
DictionaryVariables
280
     0
  1
1
  0
DICTIONARYVAR
  5
1AE
102
{ACAD_REACTORS
330
5E
102
}
330
5E
100
DictionaryVariables
280
     0
  1
0
  0
DICTIONARYVAR
  5
1AF
102
{ACAD_REACTORS
330
5E
102
}
330
5E
100
DictionaryVariables
280
     0
  1
0
  0
DICTIONARYVAR
  5
3BD
102
{ACAD_REACTORS
330
5E
102
}
330
5E
100
DictionaryVariables
280
     0
  1
2
  0
DICTIONARYVAR
  5
3BC
102
{ACAD_REACTORS
330
5E
102
}
330
5E
100
DictionaryVariables
280
     0
  1
1
  0
DICTIONARYVAR
  5
3BF
102
{ACAD_REACTORS
330
5E
102
}
330
5E
100
DictionaryVariables
280
     0
  1
80.000000
  0
DICTIONARYVAR
  5
3BE
102
{ACAD_REACTORS
330
5E
102
}
330
5E
100
DictionaryVariables
280
     0
  1
5.000000
  0
DICTIONARYVAR
  5
3C0
102
{ACAD_REACTORS
330
5E
102
}
330
5E
100
DictionaryVariables
280
     0
  1
2
  0
DICTIONARY
  5
419
330
ED
100
AcDbDictionary
280
     1
281
     1
  3
ACAD_XREC_ROUNDTRIP
360
41A
  0
DICTIONARY
  5
417
330
EC
100
AcDbDictionary
280
     1
281
     1
  3
ACAD_XREC_ROUNDTRIP
360
418
  0
DICTIONARY
  5
173
330
EE
100
AcDbDictionary
280
     1
281
     1
  3
ACAD_XREC_ROUNDTRIP
360
41B
  3
BUMPTILE
360
175
  3
DIFFUSETILE
360
174
  3
OPACITYTILE
360
176
  3
REFLECTIONTILE
360
177
  0
DICTIONARY
  5
162
330
7F
100
AcDbDictionary
280
     1
281
     1
  3
ACAD_ROUNDTRIP_2008_TABLESTYLE_CELLSTYLEMAP
360
414
  3
ACAD_XREC_ROUNDTRIP
360
416
  0
DICTIONARY
  5
426
330
F5
100
AcDbDictionary
280
     1
281
     1
  3
ACAD_XREC_ROUNDTRIP
360
427
  0
DICTIONARY
  5
42A
330
F7
100
AcDbDictionary
280
     1
281
     1
  3
ACAD_XREC_ROUNDTRIP
360
42B
  0
DICTIONARY
  5
428
330
F6
100
AcDbDictionary
280
     1
281
     1
  3
ACAD_XREC_ROUNDTRIP
360
429
  0
DICTIONARY
  5
424
330
F4
100
AcDbDictionary
280
     1
281
     1
  3
ACAD_XREC_ROUNDTRIP
360
425
  0
DICTIONARY
  5
432
330
FB
100
AcDbDictionary
280
     1
281
     1
  3
ACAD_XREC_ROUNDTRIP
360
433
  0
DICTIONARY
  5
43A
330
FF
100
AcDbDictionary
280
     1
281
     1
  3
ACAD_XREC_ROUNDTRIP
360
43B
  0
DICTIONARY
  5
42C
330
F8
100
AcDbDictionary
280
     1
281
     1
  3
ACAD_XREC_ROUNDTRIP
360
42D
  0
DICTIONARY
  5
430
330
FA
100
AcDbDictionary
280
     1
281
     1
  3
ACAD_XREC_ROUNDTRIP
360
431
  0
DICTIONARY
  5
440
330
1E6
100
AcDbDictionary
280
     1
281
     1
  3
ACAD_XREC_ROUNDTRIP
360
441
  0
DICTIONARY
  5
438
330
FE
100
AcDbDictionary
280
     1
281
     1
  3
ACAD_XREC_ROUNDTRIP
360
439
  0
DICTIONARY
  5
41C
330
F0
100
AcDbDictionary
280
     1
281
     1
  3
ACAD_XREC_ROUNDTRIP
360
41D
  0
DICTIONARY
  5
41E
330
F1
100
AcDbDictionary
280
     1
281
     1
  3
ACAD_XREC_ROUNDTRIP
360
41F
  0
DICTIONARY
  5
420
330
F2
100
AcDbDictionary
280
     1
281
     1
  3
ACAD_XREC_ROUNDTRIP
360
421
  0
DICTIONARY
  5
422
330
F3
100
AcDbDictionary
280
     1
281
     1
  3
ACAD_XREC_ROUNDTRIP
360
423
  0
DICTIONARY
  5
43C
330
1E4
100
AcDbDictionary
280
     1
281
     1
  3
ACAD_XREC_ROUNDTRIP
360
43D
  0
DICTIONARY
  5
436
330
FD
100
AcDbDictionary
280
     1
281
     1
  3
ACAD_XREC_ROUNDTRIP
360
437
  0
DICTIONARY
  5
43E
330
1E5
100
AcDbDictionary
280
     1
281
     1
  3
ACAD_XREC_ROUNDTRIP
360
43F
  0
DICTIONARY
  5
42E
330
F9
100
AcDbDictionary
280
     1
281
     1
  3
ACAD_XREC_ROUNDTRIP
360
42F
  0
DICTIONARY
  5
434
330
FC
100
AcDbDictionary
280
     1
281
     1
  3
ACAD_XREC_ROUNDTRIP
360
435
  0
XRECORD
  5
41A
102
{ACAD_REACTORS
330
419
102
}
330
419
100
AcDbXrecord
280
     1
102
MATERIAL
148
0.0
149
0.0
149
0.0
 93
        0
 94
       63
282
     0
 72
     1
 77
     1
171
     1
175
     1
179
     1
273
     0
  0
XRECORD
  5
418
102
{ACAD_REACTORS
330
417
102
}
330
417
100
AcDbXrecord
280
     1
102
MATERIAL
148
0.0
149
0.0
149
0.0
 93
        0
 94
       63
282
     0
 72
     1
 77
     1
171
     1
175
     1
179
     1
273
     0
  0
XRECORD
  5
41B
102
{ACAD_REACTORS
330
173
102
}
330
173
100
AcDbXrecord
280
     1
102
MATERIAL
148
0.0
149
0.0
149
0.0
 93
        0
 94
       63
282
     0
 72
     1
 77
     1
171
     1
175
     1
179
     1
273
     0
  0
XRECORD
  5
175
102
{ACAD_REACTORS
330
173
102
}
330
173
100
AcDbXrecord
280
     1
270
     1
271
     1
  0
XRECORD
  5
174
102
{ACAD_REACTORS
330
173
102
}
330
173
100
AcDbXrecord
280
     1
270
     1
271
     1
  0
XRECORD
  5
176
102
{ACAD_REACTORS
330
173
102
}
330
173
100
AcDbXrecord
280
     1
270
     1
271
     1
  0
XRECORD
  5
177
102
{ACAD_REACTORS
330
173
102
}
330
173
100
AcDbXrecord
280
     1
270
     1
271
     1
  0
CELLSTYLEMAP
  5
414
102
{ACAD_REACTORS
330
162
102
}
330
162
100
AcDbCellStyleMap
 90
        3
300
CELLSTYLE
  1
TABLEFORMAT_BEGIN
 90
        5
170
     1
 91
        0
 92
    32768
 62
   257
 93
        1
300
CONTENTFORMAT
  1
CONTENTFORMAT_BEGIN
 90
        0
 91
        0
 92
      512
 93
        0
300

 40
0.0
140
1.0
 94
        5
 62
     0
340
11
144
6.0
309
CONTENTFORMAT_END
171
     1
301
MARGIN
  1
CELLMARGIN_BEGIN
 40
1.5
 40
1.5
 40
1.5
 40
1.5
 40
4.5
 40
4.5
309
CELLMARGIN_END
 94
        6
 95
        1
302
GRIDFORMAT
  1
GRIDFORMAT_BEGIN
 90
        0
 91
        1
 62
     0
 92
       -2
340
14
 93
        0
 40
1.125
309
GRIDFORMAT_END
 95
        2
302
GRIDFORMAT
  1
GRIDFORMAT_BEGIN
 90
        0
 91
        1
 62
     0
 92
       -2
340
14
 93
        0
 40
1.125
309
GRIDFORMAT_END
 95
        4
302
GRIDFORMAT
  1
GRIDFORMAT_BEGIN
 90
        0
 91
        1
 62
     0
 92
       -2
340
14
 93
        0
 40
1.125
309
GRIDFORMAT_END
 95
        8
302
GRIDFORMAT
  1
GRIDFORMAT_BEGIN
 90
        0
 91
        1
 62
     0
 92
       -2
340
14
 93
        0
 40
1.125
309
GRIDFORMAT_END
 95
       16
302
GRIDFORMAT
  1
GRIDFORMAT_BEGIN
 90
        0
 91
        1
 62
     0
 92
       -2
340
14
 93
        0
 40
1.125
309
GRIDFORMAT_END
 95
       32
302
GRIDFORMAT
  1
GRIDFORMAT_BEGIN
 90
        0
 91
        1
 62
     0
 92
       -2
340
14
 93
        0
 40
1.125
309
GRIDFORMAT_END
309
TABLEFORMAT_END
  1
CELLSTYLE_BEGIN
 90
        1
 91
        1
300
_TITLE
309
CELLSTYLE_END
300
CELLSTYLE
  1
TABLEFORMAT_BEGIN
 90
        5
170
     1
 91
        0
 92
        0
 62
   257
 93
        1
300
CONTENTFORMAT
  1
CONTENTFORMAT_BEGIN
 90
        0
 91
        0
 92
      512
 93
        0
300

 40
0.0
140
1.0
 94
        5
 62
     0
340
11
144
4.5
309
CONTENTFORMAT_END
171
     1
301
MARGIN
  1
CELLMARGIN_BEGIN
 40
1.5
 40
1.5
 40
1.5
 40
1.5
 40
4.5
 40
4.5
309
CELLMARGIN_END
 94
        6
 95
        1
302
GRIDFORMAT
  1
GRIDFORMAT_BEGIN
 90
        0
 91
        1
 62
     0
 92
       -2
340
14
 93
        0
 40
1.125
309
GRIDFORMAT_END
 95
        2
302
GRIDFORMAT
  1
GRIDFORMAT_BEGIN
 90
        0
 91
        1
 62
     0
 92
       -2
340
14
 93
        0
 40
1.125
309
GRIDFORMAT_END
 95
        4
302
GRIDFORMAT
  1
GRIDFORMAT_BEGIN
 90
        0
 91
        1
 62
     0
 92
       -2
340
14
 93
        0
 40
1.125
309
GRIDFORMAT_END
 95
        8
302
GRIDFORMAT
  1
GRIDFORMAT_BEGIN
 90
        0
 91
        1
 62
     0
 92
       -2
340
14
 93
        0
 40
1.125
309
GRIDFORMAT_END
 95
       16
302
GRIDFORMAT
  1
GRIDFORMAT_BEGIN
 90
        0
 91
        1
 62
     0
 92
       -2
340
14
 93
        0
 40
1.125
309
GRIDFORMAT_END
 95
       32
302
GRIDFORMAT
  1
GRIDFORMAT_BEGIN
 90
        0
 91
        1
 62
     0
 92
       -2
340
14
 93
        0
 40
1.125
309
GRIDFORMAT_END
309
TABLEFORMAT_END
  1
CELLSTYLE_BEGIN
 90
        2
 91
        1
300
_HEADER
309
CELLSTYLE_END
300
CELLSTYLE
  1
TABLEFORMAT_BEGIN
 90
        5
170
     1
 91
        0
 92
        0
 62
   257
 93
        1
300
CONTENTFORMAT
  1
CONTENTFORMAT_BEGIN
 90
        0
 91
        0
 92
      512
 93
        0
300

 40
0.0
140
1.0
 94
        2
 62
     0
340
11
144
4.5
309
CONTENTFORMAT_END
171
     1
301
MARGIN
  1
CELLMARGIN_BEGIN
 40
1.5
 40
1.5
 40
1.5
 40
1.5
 40
4.5
 40
4.5
309
CELLMARGIN_END
 94
        6
 95
        1
302
GRIDFORMAT
  1
GRIDFORMAT_BEGIN
 90
        0
 91
        1
 62
     0
 92
       -2
340
14
 93
        0
 40
1.125
309
GRIDFORMAT_END
 95
        2
302
GRIDFORMAT
  1
GRIDFORMAT_BEGIN
 90
        0
 91
        1
 62
     0
 92
       -2
340
14
 93
        0
 40
1.125
309
GRIDFORMAT_END
 95
        4
302
GRIDFORMAT
  1
GRIDFORMAT_BEGIN
 90
        0
 91
        1
 62
     0
 92
       -2
340
14
 93
        0
 40
1.125
309
GRIDFORMAT_END
 95
        8
302
GRIDFORMAT
  1
GRIDFORMAT_BEGIN
 90
        0
 91
        1
 62
     0
 92
       -2
340
14
 93
        0
 40
1.125
309
GRIDFORMAT_END
 95
       16
302
GRIDFORMAT
  1
GRIDFORMAT_BEGIN
 90
        0
 91
        1
 62
     0
 92
       -2
340
14
 93
        0
 40
1.125
309
GRIDFORMAT_END
 95
       32
302
GRIDFORMAT
  1
GRIDFORMAT_BEGIN
 90
        0
 91
        1
 62
     0
 92
       -2
340
14
 93
        0
 40
1.125
309
GRIDFORMAT_END
309
TABLEFORMAT_END
  1
CELLSTYLE_BEGIN
 90
        3
 91
        2
300
_DATA
309
CELLSTYLE_END
  0
XRECORD
  5
416
102
{ACAD_REACTORS
330
162
102
}
330
162
100
AcDbXrecord
280
     1
102
ACAD_ROUNDTRIP_PRE2007_TABLESTYLE
 90
      512
 91
        0
  1

 92
      512
 93
        0
  2

 94
      512
 95
        0
  3

  0
XRECORD
  5
427
102
{ACAD_REACTORS
330
426
102
}
330
426
100
AcDbXrecord
280
     1
102
RTVSPropertyOp0
 70
     1
102
RTVSPropertyOp1
 70
     1
102
RTVSPropertyOp2
 70
     1
102
RTVSPropertyOp3
 70
     1
102
RTVSPropertyOp4
 70
     1
102
RTVSPropertyOp5
 70
     1
102
RTVSPropertyOp6
 70
     1
102
RTVSPropertyOp7
 70
     1
102
RTVSPropertyOp8
 70
     1
102
RTVSPropertyOp9
 70
     1
102
RTVSPropertyOp10
 70
     1
102
RTVSPropertyOp11
 70
     1
102
RTVSPropertyOp12
 70
     1
102
RTVSPropertyOp13
 70
     1
102
RTVSPropertyOp14
 70
     1
102
RTVSPropertyOp15
 70
     1
102
RTVSPropertyOp16
 70
     1
102
RTVSPropertyOp17
 70
     1
102
RTVSPropertyOp18
 70
     1
102
RTVSPropertyOp19
 70
     1
102
RTVSPropertyOp20
 70
     1
102
RTVSPropertyOp21
 70
     1
102
RTVSPropertyOp22
 70
     1
102
RTVSPropertyOp23
 70
     1
102
RTVSPropertyOp24
 70
     1
102
RTVSPropertyOp25
 70
     1
102
RTVSPropertyOp26
 70
     1
102
RTVSPropertyOp27
 70
     1
  0
XRECORD
  5
42B
102
{ACAD_REACTORS
330
42A
102
}
330
42A
100
AcDbXrecord
280
     1
102
RTVSPropertyOp0
 70
     1
102
RTVSPropertyOp1
 70
     1
102
RTVSPropertyOp2
 70
     1
102
RTVSPropertyOp3
 70
     1
102
RTVSPropertyOp4
 70
     1
102
RTVSPropertyOp5
 70
     1
102
RTVSPropertyOp6
 70
     1
102
RTVSPropertyOp7
 70
     1
102
RTVSPropertyOp8
 70
     1
102
RTVSPropertyOp9
 70
     1
102
RTVSPropertyOp10
 70
     1
102
RTVSPropertyOp11
 70
     1
102
RTVSPropertyOp12
 70
     1
102
RTVSPropertyOp13
 70
     1
102
RTVSPropertyOp14
 70
     1
102
RTVSPropertyOp15
 70
     1
102
RTVSPropertyOp16
 70
     1
102
RTVSPropertyOp17
 70
     1
102
RTVSPropertyOp18
 70
     1
102
RTVSPropertyOp19
 70
     1
102
RTVSPropertyOp20
 70
     1
102
RTVSPropertyOp21
 70
     1
102
RTVSPropertyOp22
 70
     1
102
RTVSPropertyOp23
 70
     1
102
RTVSPropertyOp24
 70
     1
102
RTVSPropertyOp25
 70
     1
102
RTVSPropertyOp26
 70
     1
102
RTVSPropertyOp27
 70
     1
  0
XRECORD
  5
429
102
{ACAD_REACTORS
330
428
102
}
330
428
100
AcDbXrecord
280
     1
102
RTVSPropertyOp0
 70
     1
102
RTVSPropertyOp1
 70
     1
102
RTVSPropertyOp2
 70
     1
102
RTVSPropertyOp3
 70
     1
102
RTVSPropertyOp4
 70
     1
102
RTVSPropertyOp5
 70
     1
102
RTVSPropertyOp6
 70
     1
102
RTVSPropertyOp7
 70
     1
102
RTVSPropertyOp8
 70
     1
102
RTVSPropertyOp9
 70
     1
102
RTVSPropertyOp10
 70
     1
102
RTVSPropertyOp11
 70
     1
102
RTVSPropertyOp12
 70
     1
102
RTVSPropertyOp13
 70
     1
102
RTVSPropertyOp14
 70
     1
102
RTVSPropertyOp15
 70
     1
102
RTVSPropertyOp16
 70
     1
102
RTVSPropertyOp17
 70
     1
102
RTVSPropertyOp18
 70
     1
102
RTVSPropertyOp19
 70
     1
102
RTVSPropertyOp20
 70
     1
102
RTVSPropertyOp21
 70
     1
102
RTVSPropertyOp22
 70
     1
102
RTVSPropertyOp23
 70
     1
102
RTVSPropertyOp24
 70
     1
102
RTVSPropertyOp25
 70
     1
102
RTVSPropertyOp26
 70
     1
102
RTVSPropertyOp27
 70
     1
  0
XRECORD
  5
425
102
{ACAD_REACTORS
330
424
102
}
330
424
100
AcDbXrecord
280
     1
102
RTVSPropertyOp0
 70
     1
102
RTVSPropertyOp1
 70
     1
102
RTVSPropertyOp2
 70
     1
102
RTVSPropertyOp3
 70
     1
102
RTVSPropertyOp4
 70
     1
102
RTVSPropertyOp5
 70
     1
102
RTVSPropertyOp6
 70
     1
102
RTVSPropertyOp7
 70
     1
102
RTVSPropertyOp8
 70
     1
102
RTVSPropertyOp9
 70
     1
102
RTVSPropertyOp10
 70
     1
102
RTVSPropertyOp11
 70
     1
102
RTVSPropertyOp12
 70
     1
102
RTVSPropertyOp13
 70
     1
102
RTVSPropertyOp14
 70
     1
102
RTVSPropertyOp15
 70
     1
102
RTVSPropertyOp16
 70
     1
102
RTVSPropertyOp17
 70
     1
102
RTVSPropertyOp18
 70
     1
102
RTVSPropertyOp19
 70
     1
102
RTVSPropertyOp20
 70
     1
102
RTVSPropertyOp21
 70
     1
102
RTVSPropertyOp22
 70
     1
102
RTVSPropertyOp23
 70
     1
102
RTVSPropertyOp24
 70
     1
102
RTVSPropertyOp25
 70
     1
102
RTVSPropertyOp26
 70
     1
102
RTVSPropertyOp27
 70
     1
  0
XRECORD
  5
433
102
{ACAD_REACTORS
330
432
102
}
330
432
100
AcDbXrecord
280
     1
102
RTVSPropertyOp0
 70
     1
102
RTVSPropertyOp1
 70
     1
102
RTVSPropertyOp2
 70
     1
102
RTVSPropertyOp3
 70
     1
102
RTVSPropertyOp4
 70
     1
102
RTVSPropertyOp5
 70
     1
102
RTVSPropertyOp6
 70
     1
102
RTVSPropertyOp7
 70
     1
102
RTVSPropertyOp8
 70
     1
102
RTVSPropertyOp9
 70
     1
102
RTVSPropertyOp10
 70
     1
102
RTVSPropertyOp11
 70
     1
102
RTVSPropertyOp12
 70
     1
102
RTVSPropertyOp13
 70
     1
102
RTVSPropertyOp14
 70
     1
102
RTVSPropertyOp15
 70
     1
102
RTVSPropertyOp16
 70
     1
102
RTVSPropertyOp17
 70
     1
102
RTVSPropertyOp18
 70
     1
102
RTVSPropertyOp19
 70
     1
102
RTVSPropertyOp20
 70
     1
102
RTVSPropertyOp21
 70
     1
102
RTVSPropertyOp22
 70
     1
102
RTVSPropertyOp23
 70
     1
102
RTVSPropertyOp24
 70
     1
102
RTVSPropertyOp25
 70
     1
102
RTVSPropertyOp26
 70
     1
102
RTVSPropertyOp27
 70
     1
  0
XRECORD
  5
43B
102
{ACAD_REACTORS
330
43A
102
}
330
43A
100
AcDbXrecord
280
     1
102
RTVSPropertyOp0
 70
     1
102
RTVSPropertyOp1
 70
     1
102
RTVSPropertyOp2
 70
     1
102
RTVSPropertyOp3
 70
     1
102
RTVSPropertyOp4
 70
     1
102
RTVSPropertyOp5
 70
     1
102
RTVSPropertyOp6
 70
     1
102
RTVSPropertyOp7
 70
     1
102
RTVSPropertyOp8
 70
     1
102
RTVSPropertyOp9
 70
     1
102
RTVSPropertyOp10
 70
     1
102
RTVSPropertyOp11
 70
     1
102
RTVSPropertyOp12
 70
     1
102
RTVSPropertyOp13
 70
     1
102
RTVSPropertyOp14
 70
     1
102
RTVSPropertyOp15
 70
     1
102
RTVSPropertyOp16
 70
     1
102
RTVSPropertyOp17
 70
     1
102
RTVSPropertyOp18
 70
     1
102
RTVSPropertyOp19
 70
     1
102
RTVSPropertyOp20
 70
     1
102
RTVSPropertyOp21
 70
     1
102
RTVSPropertyOp22
 70
     1
102
RTVSPropertyOp23
 70
     1
102
RTVSPropertyOp24
 70
     1
102
RTVSPropertyOp25
 70
     1
102
RTVSPropertyOp26
 70
     1
102
RTVSPropertyOp27
 70
     1
  0
XRECORD
  5
42D
102
{ACAD_REACTORS
330
42C
102
}
330
42C
100
AcDbXrecord
280
     1
102
RTVSPropertyOp0
 70
     1
102
RTVSPropertyOp1
 70
     1
102
RTVSPropertyOp2
 70
     1
102
RTVSPropertyOp3
 70
     1
102
RTVSPropertyOp4
 70
     1
102
RTVSPropertyOp5
 70
     1
102
RTVSPropertyOp6
 70
     1
102
RTVSPropertyOp7
 70
     1
102
RTVSPropertyOp8
 70
     1
102
RTVSPropertyOp9
 70
     1
102
RTVSPropertyOp10
 70
     1
102
RTVSPropertyOp11
 70
     1
102
RTVSPropertyOp12
 70
     1
102
RTVSPropertyOp13
 70
     1
102
RTVSPropertyOp14
 70
     1
102
RTVSPropertyOp15
 70
     1
102
RTVSPropertyOp16
 70
     1
102
RTVSPropertyOp17
 70
     1
102
RTVSPropertyOp18
 70
     1
102
RTVSPropertyOp19
 70
     1
102
RTVSPropertyOp20
 70
     1
102
RTVSPropertyOp21
 70
     1
102
RTVSPropertyOp22
 70
     1
102
RTVSPropertyOp23
 70
     1
102
RTVSPropertyOp24
 70
     1
102
RTVSPropertyOp25
 70
     1
102
RTVSPropertyOp26
 70
     1
102
RTVSPropertyOp27
 70
     1
  0
XRECORD
  5
431
102
{ACAD_REACTORS
330
430
102
}
330
430
100
AcDbXrecord
280
     1
102
RTVSPropertyOp0
 70
     1
102
RTVSPropertyOp1
 70
     1
102
RTVSPropertyOp2
 70
     1
102
RTVSPropertyOp3
 70
     1
102
RTVSPropertyOp4
 70
     1
102
RTVSPropertyOp5
 70
     1
102
RTVSPropertyOp6
 70
     1
102
RTVSPropertyOp7
 70
     1
102
RTVSPropertyOp8
 70
     1
102
RTVSPropertyOp9
 70
     1
102
RTVSPropertyOp10
 70
     1
102
RTVSPropertyOp11
 70
     1
102
RTVSPropertyOp12
 70
     1
102
RTVSPropertyOp13
 70
     1
102
RTVSPropertyOp14
 70
     1
102
RTVSPropertyOp15
 70
     1
102
RTVSPropertyOp16
 70
     1
102
RTVSPropertyOp17
 70
     1
102
RTVSPropertyOp18
 70
     1
102
RTVSPropertyOp19
 70
     1
102
RTVSPropertyOp20
 70
     1
102
RTVSPropertyOp21
 70
     1
102
RTVSPropertyOp22
 70
     1
102
RTVSPropertyOp23
 70
     1
102
RTVSPropertyOp24
 70
     1
102
RTVSPropertyOp25
 70
     1
102
RTVSPropertyOp26
 70
     1
102
RTVSPropertyOp27
 70
     1
  0
XRECORD
  5
441
102
{ACAD_REACTORS
330
440
102
}
330
440
100
AcDbXrecord
280
     1
102
RTVSPropertyOp0
 70
     0
102
RTVSPropertyOp1
 70
     0
102
RTVSPropertyOp2
 70
     0
102
RTVSPropertyOp3
 70
     0
102
RTVSPropertyOp4
 70
     0
102
RTVSPropertyOp5
 70
     0
102
RTVSPropertyOp6
 70
     0
102
RTVSPropertyOp7
 70
     0
102
RTVSPropertyOp8
 70
     0
102
RTVSPropertyOp9
 70
     0
102
RTVSPropertyOp10
 70
     0
102
RTVSPropertyOp11
 70
     0
102
RTVSPropertyOp12
 70
     0
102
RTVSPropertyOp13
 70
     0
102
RTVSPropertyOp14
 70
     2
102
RTVSPropertyOp15
 70
     0
102
RTVSPropertyOp16
 70
     0
102
RTVSPropertyOp17
 70
     0
102
RTVSPropertyOp18
 70
     0
102
RTVSPropertyOp19
 70
     0
102
RTVSPropertyOp20
 70
     0
102
RTVSPropertyOp21
 70
     0
102
RTVSPropertyOp22
 70
     0
102
RTVSPropertyOp23
 70
     0
102
RTVSPropertyOp24
 70
     0
102
RTVSPropertyOp25
 70
     0
102
RTVSPropertyOp26
 70
     0
102
RTVSPropertyOp27
 70
     0
  0
XRECORD
  5
439
102
{ACAD_REACTORS
330
438
102
}
330
438
100
AcDbXrecord
280
     1
102
RTVSPropertyOp0
 70
     1
102
RTVSPropertyOp1
 70
     1
102
RTVSPropertyOp2
 70
     1
102
RTVSPropertyOp3
 70
     1
102
RTVSPropertyOp4
 70
     1
102
RTVSPropertyOp5
 70
     1
102
RTVSPropertyOp6
 70
     1
102
RTVSPropertyOp7
 70
     1
102
RTVSPropertyOp8
 70
     1
102
RTVSPropertyOp9
 70
     1
102
RTVSPropertyOp10
 70
     1
102
RTVSPropertyOp11
 70
     1
102
RTVSPropertyOp12
 70
     1
102
RTVSPropertyOp13
 70
     1
102
RTVSPropertyOp14
 70
     1
102
RTVSPropertyOp15
 70
     1
102
RTVSPropertyOp16
 70
     1
102
RTVSPropertyOp17
 70
     1
102
RTVSPropertyOp18
 70
     1
102
RTVSPropertyOp19
 70
     1
102
RTVSPropertyOp20
 70
     1
102
RTVSPropertyOp21
 70
     1
102
RTVSPropertyOp22
 70
     1
102
RTVSPropertyOp23
 70
     1
102
RTVSPropertyOp24
 70
     1
102
RTVSPropertyOp25
 70
     1
102
RTVSPropertyOp26
 70
     1
102
RTVSPropertyOp27
 70
     1
  0
XRECORD
  5
41D
102
{ACAD_REACTORS
330
41C
102
}
330
41C
100
AcDbXrecord
280
     1
102
RTVSPropertyOp0
 70
     1
102
RTVSPropertyOp1
 70
     1
102
RTVSPropertyOp2
 70
     1
102
RTVSPropertyOp3
 70
     1
102
RTVSPropertyOp4
 70
     1
102
RTVSPropertyOp5
 70
     1
102
RTVSPropertyOp6
 70
     1
102
RTVSPropertyOp7
 70
     1
102
RTVSPropertyOp8
 70
     1
102
RTVSPropertyOp9
 70
     1
102
RTVSPropertyOp10
 70
     1
102
RTVSPropertyOp11
 70
     1
102
RTVSPropertyOp12
 70
     1
102
RTVSPropertyOp13
 70
     1
102
RTVSPropertyOp14
 70
     1
102
RTVSPropertyOp15
 70
     1
102
RTVSPropertyOp16
 70
     1
102
RTVSPropertyOp17
 70
     1
102
RTVSPropertyOp18
 70
     1
102
RTVSPropertyOp19
 70
     1
102
RTVSPropertyOp20
 70
     1
102
RTVSPropertyOp21
 70
     1
102
RTVSPropertyOp22
 70
     1
102
RTVSPropertyOp23
 70
     1
102
RTVSPropertyOp24
 70
     1
102
RTVSPropertyOp25
 70
     1
102
RTVSPropertyOp26
 70
     1
102
RTVSPropertyOp27
 70
     1
  0
XRECORD
  5
41F
102
{ACAD_REACTORS
330
41E
102
}
330
41E
100
AcDbXrecord
280
     1
102
RTVSPropertyOp0
 70
     1
102
RTVSPropertyOp1
 70
     1
102
RTVSPropertyOp2
 70
     1
102
RTVSPropertyOp3
 70
     1
102
RTVSPropertyOp4
 70
     1
102
RTVSPropertyOp5
 70
     1
102
RTVSPropertyOp6
 70
     1
102
RTVSPropertyOp7
 70
     1
102
RTVSPropertyOp8
 70
     1
102
RTVSPropertyOp9
 70
     1
102
RTVSPropertyOp10
 70
     1
102
RTVSPropertyOp11
 70
     1
102
RTVSPropertyOp12
 70
     1
102
RTVSPropertyOp13
 70
     1
102
RTVSPropertyOp14
 70
     1
102
RTVSPropertyOp15
 70
     1
102
RTVSPropertyOp16
 70
     1
102
RTVSPropertyOp17
 70
     1
102
RTVSPropertyOp18
 70
     1
102
RTVSPropertyOp19
 70
     1
102
RTVSPropertyOp20
 70
     1
102
RTVSPropertyOp21
 70
     1
102
RTVSPropertyOp22
 70
     1
102
RTVSPropertyOp23
 70
     1
102
RTVSPropertyOp24
 70
     1
102
RTVSPropertyOp25
 70
     1
102
RTVSPropertyOp26
 70
     1
102
RTVSPropertyOp27
 70
     1
  0
XRECORD
  5
421
102
{ACAD_REACTORS
330
420
102
}
330
420
100
AcDbXrecord
280
     1
102
RTVSPropertyOp0
 70
     1
102
RTVSPropertyOp1
 70
     1
102
RTVSPropertyOp2
 70
     1
102
RTVSPropertyOp3
 70
     1
102
RTVSPropertyOp4
 70
     1
102
RTVSPropertyOp5
 70
     1
102
RTVSPropertyOp6
 70
     1
102
RTVSPropertyOp7
 70
     1
102
RTVSPropertyOp8
 70
     1
102
RTVSPropertyOp9
 70
     1
102
RTVSPropertyOp10
 70
     1
102
RTVSPropertyOp11
 70
     1
102
RTVSPropertyOp12
 70
     1
102
RTVSPropertyOp13
 70
     1
102
RTVSPropertyOp14
 70
     1
102
RTVSPropertyOp15
 70
     1
102
RTVSPropertyOp16
 70
     1
102
RTVSPropertyOp17
 70
     1
102
RTVSPropertyOp18
 70
     1
102
RTVSPropertyOp19
 70
     1
102
RTVSPropertyOp20
 70
     1
102
RTVSPropertyOp21
 70
     1
102
RTVSPropertyOp22
 70
     1
102
RTVSPropertyOp23
 70
     1
102
RTVSPropertyOp24
 70
     1
102
RTVSPropertyOp25
 70
     1
102
RTVSPropertyOp26
 70
     1
102
RTVSPropertyOp27
 70
     1
  0
XRECORD
  5
423
102
{ACAD_REACTORS
330
422
102
}
330
422
100
AcDbXrecord
280
     1
102
RTVSPropertyOp0
 70
     1
102
RTVSPropertyOp1
 70
     1
102
RTVSPropertyOp2
 70
     1
102
RTVSPropertyOp3
 70
     1
102
RTVSPropertyOp4
 70
     1
102
RTVSPropertyOp5
 70
     1
102
RTVSPropertyOp6
 70
     1
102
RTVSPropertyOp7
 70
     1
102
RTVSPropertyOp8
 70
     1
102
RTVSPropertyOp9
 70
     1
102
RTVSPropertyOp10
 70
     1
102
RTVSPropertyOp11
 70
     1
102
RTVSPropertyOp12
 70
     1
102
RTVSPropertyOp13
 70
     1
102
RTVSPropertyOp14
 70
     1
102
RTVSPropertyOp15
 70
     1
102
RTVSPropertyOp16
 70
     1
102
RTVSPropertyOp17
 70
     1
102
RTVSPropertyOp18
 70
     1
102
RTVSPropertyOp19
 70
     1
102
RTVSPropertyOp20
 70
     1
102
RTVSPropertyOp21
 70
     1
102
RTVSPropertyOp22
 70
     1
102
RTVSPropertyOp23
 70
     1
102
RTVSPropertyOp24
 70
     1
102
RTVSPropertyOp25
 70
     1
102
RTVSPropertyOp26
 70
     1
102
RTVSPropertyOp27
 70
     1
  0
XRECORD
  5
43D
102
{ACAD_REACTORS
330
43C
102
}
330
43C
100
AcDbXrecord
280
     1
102
RTVSPropertyOp0
 70
     0
102
RTVSPropertyOp1
 70
     0
102
RTVSPropertyOp2
 70
     0
102
RTVSPropertyOp3
 70
     0
102
RTVSPropertyOp4
 70
     0
102
RTVSPropertyOp5
 70
     0
102
RTVSPropertyOp6
 70
     0
102
RTVSPropertyOp7
 70
     0
102
RTVSPropertyOp8
 70
     0
102
RTVSPropertyOp9
 70
     0
102
RTVSPropertyOp10
 70
     0
102
RTVSPropertyOp11
 70
     0
102
RTVSPropertyOp12
 70
     0
102
RTVSPropertyOp13
 70
     0
102
RTVSPropertyOp14
 70
     2
102
RTVSPropertyOp15
 70
     0
102
RTVSPropertyOp16
 70
     0
102
RTVSPropertyOp17
 70
     0
102
RTVSPropertyOp18
 70
     0
102
RTVSPropertyOp19
 70
     0
102
RTVSPropertyOp20
 70
     0
102
RTVSPropertyOp21
 70
     0
102
RTVSPropertyOp22
 70
     0
102
RTVSPropertyOp23
 70
     0
102
RTVSPropertyOp24
 70
     0
102
RTVSPropertyOp25
 70
     0
102
RTVSPropertyOp26
 70
     0
102
RTVSPropertyOp27
 70
     0
  0
XRECORD
  5
437
102
{ACAD_REACTORS
330
436
102
}
330
436
100
AcDbXrecord
280
     1
102
RTVSPropertyOp0
 70
     1
102
RTVSPropertyOp1
 70
     1
102
RTVSPropertyOp2
 70
     1
102
RTVSPropertyOp3
 70
     1
102
RTVSPropertyOp4
 70
     1
102
RTVSPropertyOp5
 70
     1
102
RTVSPropertyOp6
 70
     1
102
RTVSPropertyOp7
 70
     1
102
RTVSPropertyOp8
 70
     1
102
RTVSPropertyOp9
 70
     1
102
RTVSPropertyOp10
 70
     1
102
RTVSPropertyOp11
 70
     1
102
RTVSPropertyOp12
 70
     1
102
RTVSPropertyOp13
 70
     1
102
RTVSPropertyOp14
 70
     1
102
RTVSPropertyOp15
 70
     1
102
RTVSPropertyOp16
 70
     1
102
RTVSPropertyOp17
 70
     1
102
RTVSPropertyOp18
 70
     1
102
RTVSPropertyOp19
 70
     1
102
RTVSPropertyOp20
 70
     1
102
RTVSPropertyOp21
 70
     1
102
RTVSPropertyOp22
 70
     1
102
RTVSPropertyOp23
 70
     1
102
RTVSPropertyOp24
 70
     1
102
RTVSPropertyOp25
 70
     1
102
RTVSPropertyOp26
 70
     1
102
RTVSPropertyOp27
 70
     1
  0
XRECORD
  5
43F
102
{ACAD_REACTORS
330
43E
102
}
330
43E
100
AcDbXrecord
280
     1
102
RTVSPropertyOp0
 70
     0
102
RTVSPropertyOp1
 70
     0
102
RTVSPropertyOp2
 70
     0
102
RTVSPropertyOp3
 70
     0
102
RTVSPropertyOp4
 70
     0
102
RTVSPropertyOp5
 70
     0
102
RTVSPropertyOp6
 70
     0
102
RTVSPropertyOp7
 70
     0
102
RTVSPropertyOp8
 70
     0
102
RTVSPropertyOp9
 70
     0
102
RTVSPropertyOp10
 70
     0
102
RTVSPropertyOp11
 70
     0
102
RTVSPropertyOp12
 70
     0
102
RTVSPropertyOp13
 70
     0
102
RTVSPropertyOp14
 70
     2
102
RTVSPropertyOp15
 70
     0
102
RTVSPropertyOp16
 70
     0
102
RTVSPropertyOp17
 70
     0
102
RTVSPropertyOp18
 70
     0
102
RTVSPropertyOp19
 70
     0
102
RTVSPropertyOp20
 70
     0
102
RTVSPropertyOp21
 70
     0
102
RTVSPropertyOp22
 70
     0
102
RTVSPropertyOp23
 70
     0
102
RTVSPropertyOp24
 70
     0
102
RTVSPropertyOp25
 70
     0
102
RTVSPropertyOp26
 70
     0
102
RTVSPropertyOp27
 70
     0
  0
XRECORD
  5
42F
102
{ACAD_REACTORS
330
42E
102
}
330
42E
100
AcDbXrecord
280
     1
102
RTVSPropertyOp0
 70
     1
102
RTVSPropertyOp1
 70
     1
102
RTVSPropertyOp2
 70
     1
102
RTVSPropertyOp3
 70
     1
102
RTVSPropertyOp4
 70
     1
102
RTVSPropertyOp5
 70
     1
102
RTVSPropertyOp6
 70
     1
102
RTVSPropertyOp7
 70
     1
102
RTVSPropertyOp8
 70
     1
102
RTVSPropertyOp9
 70
     1
102
RTVSPropertyOp10
 70
     1
102
RTVSPropertyOp11
 70
     1
102
RTVSPropertyOp12
 70
     1
102
RTVSPropertyOp13
 70
     1
102
RTVSPropertyOp14
 70
     1
102
RTVSPropertyOp15
 70
     1
102
RTVSPropertyOp16
 70
     1
102
RTVSPropertyOp17
 70
     1
102
RTVSPropertyOp18
 70
     1
102
RTVSPropertyOp19
 70
     1
102
RTVSPropertyOp20
 70
     1
102
RTVSPropertyOp21
 70
     1
102
RTVSPropertyOp22
 70
     1
102
RTVSPropertyOp23
 70
     1
102
RTVSPropertyOp24
 70
     1
102
RTVSPropertyOp25
 70
     1
102
RTVSPropertyOp26
 70
     1
102
RTVSPropertyOp27
 70
     1
  0
XRECORD
  5
435
102
{ACAD_REACTORS
330
434
102
}
330
434
100
AcDbXrecord
280
     1
102
RTVSPropertyOp0
 70
     1
102
RTVSPropertyOp1
 70
     1
102
RTVSPropertyOp2
 70
     1
102
RTVSPropertyOp3
 70
     1
102
RTVSPropertyOp4
 70
     1
102
RTVSPropertyOp5
 70
     1
102
RTVSPropertyOp6
 70
     1
102
RTVSPropertyOp7
 70
     1
102
RTVSPropertyOp8
 70
     1
102
RTVSPropertyOp9
 70
     1
102
RTVSPropertyOp10
 70
     1
102
RTVSPropertyOp11
 70
     1
102
RTVSPropertyOp12
 70
     1
102
RTVSPropertyOp13
 70
     1
102
RTVSPropertyOp14
 70
     1
102
RTVSPropertyOp15
 70
     1
102
RTVSPropertyOp16
 70
     1
102
RTVSPropertyOp17
 70
     1
102
RTVSPropertyOp18
 70
     1
102
RTVSPropertyOp19
 70
     1
102
RTVSPropertyOp20
 70
     1
102
RTVSPropertyOp21
 70
     1
102
RTVSPropertyOp22
 70
     1
102
RTVSPropertyOp23
 70
     1
102
RTVSPropertyOp24
 70
     1
102
RTVSPropertyOp25
 70
     1
102
RTVSPropertyOp26
 70
     1
102
RTVSPropertyOp27
 70
     1
  0
ENDSEC
  0
EOF
