  0
SECTION
  2
HEADER
  9
$ACADVER
  1
AC1018
  9
$ACADMAINTVER
 70
   104
  9
$DWGCODEPAGE
  3
ANSI_936
  9
$LASTSAVEDBY
  1
MY
  9
$INSBASE
 10
0.0
 20
0.0
 30
0.0
  9
$EXTMIN
 10
2095.556971255418
 20
812.1459371424178
 30
0.0
  9
$EXTMAX
 10
3133.477846717857
 20
1761.666218935901
 30
0.0
  9
$LIMMIN
 10
0.0
 20
0.0
  9
$LIMMAX
 10
420.0
 20
297.0
  9
$ORTHOMODE
 70
     0
  9
$REGENMODE
 70
     1
  9
$FILLMODE
 70
     1
  9
$QTEXTMODE
 70
     0
  9
$MIRRTEXT
 70
     0
  9
$LTSCALE
 40
1.0
  9
$ATTMODE
 70
     1
  9
$TEXTSIZE
 40
2.5
  9
$TRACEWID
 40
1.0
  9
$TEXTSTYLE
  7
Standard
  9
$CLAYER
  8
0
  9
$CELTYPE
  6
ByLayer
  9
$CECOLOR
 62
   256
  9
$CELTSCALE
 40
1.0
  9
$DISPSILH
 70
     0
  9
$DIMSCALE
 40
1.0
  9
$DIMASZ
 40
2.5
  9
$DIMEXO
 40
0.625
  9
$DIMDLI
 40
3.75
  9
$DIMRND
 40
0.0
  9
$DIMDLE
 40
0.0
  9
$DIMEXE
 40
1.25
  9
$DIMTP
 40
0.0
  9
$DIMTM
 40
0.0
  9
$DIMTXT
 40
2.5
  9
$DIMCEN
 40
2.5
  9
$DIMTSZ
 40
0.0
  9
$DIMTOL
 70
     0
  9
$DIMLIM
 70
     0
  9
$DIMTIH
 70
     0
  9
$DIMTOH
 70
     0
  9
$DIMSE1
 70
     0
  9
$DIMSE2
 70
     0
  9
$DIMTAD
 70
     1
  9
$DIMZIN
 70
     8
  9
$DIMBLK
  1

  9
$DIMASO
 70
     1
  9
$DIMSHO
 70
     1
  9
$DIMPOST
  1

  9
$DIMAPOST
  1

  9
$DIMALT
 70
     0
  9
$DIMALTD
 70
     3
  9
$DIMALTF
 40
0.03937007874016
  9
$DIMLFAC
 40
1.0
  9
$DIMTOFL
 70
     1
  9
$DIMTVP
 40
0.0
  9
$DIMTIX
 70
     0
  9
$DIMSOXD
 70
     0
  9
$DIMSAH
 70
     0
  9
$DIMBLK1
  1

  9
$DIMBLK2
  1

  9
$DIMSTYLE
  2
ISO-25
  9
$DIMCLRD
 70
     0
  9
$DIMCLRE
 70
     0
  9
$DIMCLRT
 70
     0
  9
$DIMTFAC
 40
1.0
  9
$DIMGAP
 40
0.625
  9
$DIMJUST
 70
     0
  9
$DIMSD1
 70
     0
  9
$DIMSD2
 70
     0
  9
$DIMTOLJ
 70
     0
  9
$DIMTZIN
 70
     8
  9
$DIMALTZ
 70
     0
  9
$DIMALTTZ
 70
     0
  9
$DIMUPT
 70
     0
  9
$DIMDEC
 70
     2
  9
$DIMTDEC
 70
     2
  9
$DIMALTU
 70
     2
  9
$DIMALTTD
 70
     3
  9
$DIMTXSTY
  7
Standard
  9
$DIMAUNIT
 70
     0
  9
$DIMADEC
 70
     0
  9
$DIMALTRND
 40
0.0
  9
$DIMAZIN
 70
     0
  9
$DIMDSEP
 70
    44
  9
$DIMATFIT
 70
     3
  9
$DIMFRAC
 70
     0
  9
$DIMLDRBLK
  1

  9
$DIMLUNIT
 70
     2
  9
$DIMLWD
 70
    -2
  9
$DIMLWE
 70
    -2
  9
$DIMTMOVE
 70
     0
  9
$LUNITS
 70
     2
  9
$LUPREC
 70
     4
  9
$SKETCHINC
 40
1.0
  9
$FILLETRAD
 40
0.0
  9
$AUNITS
 70
     0
  9
$AUPREC
 70
     0
  9
$MENU
  1
.
  9
$ELEVATION
 40
0.0
  9
$PELEVATION
 40
0.0
  9
$THICKNESS
 40
0.0
  9
$LIMCHECK
 70
     0
  9
$CHAMFERA
 40
0.0
  9
$CHAMFERB
 40
0.0
  9
$CHAMFERC
 40
0.0
  9
$CHAMFERD
 40
0.0
  9
$SKPOLY
 70
     0
  9
$TDCREATE
 40
2456709.596985151
  9
$TDUCREATE
 40
2456709.263651817
  9
$TDUPDATE
 40
2456709.597933264
  9
$TDUUPDATE
 40
2456709.264599931
  9
$TDINDWG
 40
0.0009496065
  9
$TDUSRTIMER
 40
0.0009495370
  9
$USRTIMER
 70
     1
  9
$ANGBASE
 50
0.0
  9
$ANGDIR
 70
     0
  9
$PDMODE
 70
     0
  9
$PDSIZE
 40
0.0
  9
$PLINEWID
 40
0.0
  9
$SPLFRAME
 70
     0
  9
$SPLINETYPE
 70
     6
  9
$SPLINESEGS
 70
     8
  9
$HANDSEED
  5
447
  9
$SURFTAB1
 70
     6
  9
$SURFTAB2
 70
     6
  9
$SURFTYPE
 70
     6
  9
$SURFU
 70
     6
  9
$SURFV
 70
     6
  9
$UCSBASE
  2

  9
$UCSNAME
  2

  9
$UCSORG
 10
0.0
 20
0.0
 30
0.0
  9
$UCSXDIR
 10
1.0
 20
0.0
 30
0.0
  9
$UCSYDIR
 10
0.0
 20
1.0
 30
0.0
  9
$UCSORTHOREF
  2

  9
$UCSORTHOVIEW
 70
     0
  9
$UCSORGTOP
 10
0.0
 20
0.0
 30
0.0
  9
$UCSORGBOTTOM
 10
0.0
 20
0.0
 30
0.0
  9
$UCSORGLEFT
 10
0.0
 20
0.0
 30
0.0
  9
$UCSORGRIGHT
 10
0.0
 20
0.0
 30
0.0
  9
$UCSORGFRONT
 10
0.0
 20
0.0
 30
0.0
  9
$UCSORGBACK
 10
0.0
 20
0.0
 30
0.0
  9
$PUCSBASE
  2

  9
$PUCSNAME
  2

  9
$PUCSORG
 10
0.0
 20
0.0
 30
0.0
  9
$PUCSXDIR
 10
1.0
 20
0.0
 30
0.0
  9
$PUCSYDIR
 10
0.0
 20
1.0
 30
0.0
  9
$PUCSORTHOREF
  2

  9
$PUCSORTHOVIEW
 70
     0
  9
$PUCSORGTOP
 10
0.0
 20
0.0
 30
0.0
  9
$PUCSORGBOTTOM
 10
0.0
 20
0.0
 30
0.0
  9
$PUCSORGLEFT
 10
0.0
 20
0.0
 30
0.0
  9
$PUCSORGRIGHT
 10
0.0
 20
0.0
 30
0.0
  9
$PUCSORGFRONT
 10
0.0
 20
0.0
 30
0.0
  9
$PUCSORGBACK
 10
0.0
 20
0.0
 30
0.0
  9
$USERI1
 70
     0
  9
$USERI2
 70
     0
  9
$USERI3
 70
     0
  9
$USERI4
 70
     0
  9
$USERI5
 70
     0
  9
$USERR1
 40
0.0
  9
$USERR2
 40
0.0
  9
$USERR3
 40
0.0
  9
$USERR4
 40
0.0
  9
$USERR5
 40
0.0
  9
$WORLDVIEW
 70
     1
  9
$SHADEDGE
 70
     3
  9
$SHADEDIF
 70
    70
  9
$TILEMODE
 70
     1
  9
$MAXACTVP
 70
    64
  9
$PINSBASE
 10
0.0
 20
0.0
 30
0.0
  9
$PLIMCHECK
 70
     0
  9
$PEXTMIN
 10
0.0
 20
0.0
 30
0.0
  9
$PEXTMAX
 10
0.0
 20
0.0
 30
0.0
  9
$PLIMMIN
 10
0.0
 20
0.0
  9
$PLIMMAX
 10
12.0
 20
9.0
  9
$UNITMODE
 70
     0
  9
$VISRETAIN
 70
     1
  9
$PLINEGEN
 70
     0
  9
$PSLTSCALE
 70
     1
  9
$TREEDEPTH
 70
  3020
  9
$CMLSTYLE
  2
Standard
  9
$CMLJUST
 70
     0
  9
$CMLSCALE
 40
20.0
  9
$PROXYGRAPHICS
 70
     1
  9
$MEASUREMENT
 70
     1
  9
$CELWEIGHT
370
    -1
  9
$ENDCAPS
280
     0
  9
$JOINSTYLE
280
     0
  9
$LWDISPLAY
290
     0
  9
$INSUNITS
 70
     4
  9
$HYPERLINKBASE
  1

  9
$STYLESHEET
  1
acad.ctb
  9
$XEDIT
290
     1
  9
$CEPSNTYPE
380
     0
  9
$PSTYLEMODE
290
     1
  9
$FINGERPRINTGUID
  2
{BCB9F3DB-3BAF-4341-86F9-FB65C52BD170}
  9
$VERSIONGUID
  2
{1BBB5BEF-5BAA-46AE-A411-E56517F93AD3}
  9
$EXTNAMES
290
     1
  9
$PSVPSCALE
 40
0.0
  9
$OLESTARTUP
290
     0
  9
$SORTENTS
280
   127
  9
$INDEXCTL
280
     0
  9
$HIDETEXT
280
     1
  9
$XCLIPFRAME
290
     0
  9
$HALOGAP
280
     0
  9
$OBSCOLOR
 70
   257
  9
$OBSLTYPE
280
     0
  9
$INTERSECTIONDISPLAY
280
     0
  9
$INTERSECTIONCOLOR
 70
   257
  9
$DIMASSOC
280
     2
  9
$PROJECTNAME
  1

  0
ENDSEC
  0
SECTION
  2
CLASSES
  0
CLASS
  1
ACDBDICTIONARYWDFLT
  2
AcDbDictionaryWithDefault
  3
ObjectDBX Classes
 90
        0
 91
        1
280
     0
281
     0
  0
CLASS
  1
DICTIONARYVAR
  2
AcDbDictionaryVar
  3
ObjectDBX Classes
 90
        0
 91
       12
280
     0
281
     0
  0
CLASS
  1
TABLESTYLE
  2
AcDbTableStyle
  3
ObjectDBX Classes
 90
     4095
 91
        1
280
     0
281
     0
  0
CLASS
  1
MATERIAL
  2
AcDbMaterial
  3
ObjectDBX Classes
 90
     1153
 91
        3
280
     0
281
     0
  0
CLASS
  1
VISUALSTYLE
  2
AcDbVisualStyle
  3
ObjectDBX Classes
 90
     4095
 91
       19
280
     0
281
     0
  0
CLASS
  1
SCALE
  2
AcDbScale
  3
ObjectDBX Classes
 90
     1153
 91
       17
280
     0
281
     0
  0
CLASS
  1
MLEADERSTYLE
  2
AcDbMLeaderStyle
  3
ACDB_MLEADERSTYLE_CLASS
 90
     4095
 91
        2
280
     0
281
     0
  0
CLASS
  1
CELLSTYLEMAP
  2
AcDbCellStyleMap
  3
ObjectDBX Classes
 90
     1152
 91
        2
280
     0
281
     0
  0
CLASS
  1
EXACXREFPANELOBJECT
  2
ExAcXREFPanelObject
  3
EXAC_ESW
 90
     1025
 91
        0
280
     0
281
     0
  0
CLASS
  1
NPOCOLLECTION
  2
AcDbImpNonPersistentObjectsCollection
  3
ObjectDBX Classes
 90
     1153
 91
        0
280
     0
281
     0
  0
CLASS
  1
LAYER_INDEX
  2
AcDbLayerIndex
  3
ObjectDBX Classes
 90
        0
 91
        0
280
     0
281
     0
  0
CLASS
  1
SPATIAL_INDEX
  2
AcDbSpatialIndex
  3
ObjectDBX Classes
 90
        0
 91
        0
280
     0
281
     0
  0
CLASS
  1
IDBUFFER
  2
AcDbIdBuffer
  3
ObjectDBX Classes
 90
        0
 91
        0
280
     0
281
     0
  0
CLASS
  1
DIMASSOC
  2
AcDbDimAssoc
  3
"AcDbDimAssoc|Product Desc:     AcDim ARX App For Dimension|Company:          Autodesk, Inc.|WEB Address:      www.autodesk.com"
 90
        0
 91
       16
280
     0
281
     0
  0
CLASS
  1
SORTENTSTABLE
  2
AcDbSortentsTable
  3
ObjectDBX Classes
 90
        0
 91
        1
280
     0
281
     0
  0
ENDSEC
  0
SECTION
  2
TABLES
  0
TABLE
  2
VPORT
  5
8
330
0
100
AcDbSymbolTable
 70
     1
  0
VPORT
  5
EA
330
8
100
AcDbSymbolTableRecord
100
AcDbViewportTableRecord
  2
*Active
 70
     0
 10
0.0
 20
0.0
 11
1.0
 21
1.0
 12
2563.417992206685
 22
1433.313072903173
 13
0.0
 23
0.0
 14
10.0
 24
10.0
 15
10.0
 25
10.0
 16
0.0
 26
0.0
 36
1.0
 17
0.0
 27
0.0
 37
0.0
 40
643.6389930595405
 41
2.376893939393939
 42
50.0
 43
0.0
 44
0.0
 50
0.0
 51
0.0
 71
     0
 72
  1000
 73
     1
 74
     3
 75
     0
 76
     0
 77
     0
 78
     0
281
     0
 65
     1
110
0.0
120
0.0
130
0.0
111
1.0
121
0.0
131
0.0
112
0.0
122
1.0
132
0.0
 79
     0
146
0.0
  0
ENDTAB
  0
TABLE
  2
LTYPE
  5
5
330
0
100
AcDbSymbolTable
 70
     1
  0
LTYPE
  5
14
330
5
100
AcDbSymbolTableRecord
100
AcDbLinetypeTableRecord
  2
ByBlock
 70
     0
  3

 72
    65
 73
     0
 40
0.0
  0
LTYPE
  5
15
330
5
100
AcDbSymbolTableRecord
100
AcDbLinetypeTableRecord
  2
ByLayer
 70
     0
  3

 72
    65
 73
     0
 40
0.0
  0
LTYPE
  5
16
330
5
100
AcDbSymbolTableRecord
100
AcDbLinetypeTableRecord
  2
Continuous
 70
     0
  3
Solid line
 72
    65
 73
     0
 40
0.0
  0
ENDTAB
  0
TABLE
  2
LAYER
  5
2
102
{ACAD_XDICTIONARY
360
28A
102
}
330
0
100
AcDbSymbolTable
 70
     6
  0
LAYER
  5
10
102
{ACAD_XDICTIONARY
360
13C
102
}
330
2
100
AcDbSymbolTableRecord
100
AcDbLayerTableRecord
  2
0
 70
     0
 62
     7
  6
Continuous
370
    -3
390
F
  0
LAYER
  5
27C
330
2
100
AcDbSymbolTableRecord
100
AcDbLayerTableRecord
  2
Defpoints
 70
     0
 62
     7
  6
Continuous
290
     0
370
    -3
390
F
  0
LAYER
  5
27D
330
2
100
AcDbSymbolTableRecord
100
AcDbLayerTableRecord
  2
外框线1
 70
     0
 62
     3
  6
Continuous
370
    -3
390
F
1001
AcAecLayerStandard
1000

1000

  0
LAYER
  5
27E
330
2
100
AcDbSymbolTableRecord
100
AcDbLayerTableRecord
  2
外框线2
 70
     0
 62
     6
  6
Continuous
370
    -3
390
F
1001
AcAecLayerStandard
1000

1000

  0
LAYER
  5
27F
330
2
100
AcDbSymbolTableRecord
100
AcDbLayerTableRecord
  2
标注
 70
     0
 62
     1
  6
Continuous
370
     9
390
F
1001
AcAecLayerStandard
1000

1000

  0
LAYER
  5
280
330
2
100
AcDbSymbolTableRecord
100
AcDbLayerTableRecord
  2
注释
 70
     0
 62
     7
  6
Continuous
370
    15
390
F
1001
AcAecLayerStandard
1000

1000

  0
ENDTAB
  0
TABLE
  2
STYLE
  5
3
330
0
100
AcDbSymbolTable
 70
     5
  0
STYLE
  5
11
330
3
100
AcDbSymbolTableRecord
100
AcDbTextStyleTableRecord
  2
Standard
 70
     0
 40
0.0
 41
1.0
 50
0.0
 71
     0
 42
2.5
  3

  4

1001
ACAD
1000
SimSun
1071
       34
  0
STYLE
  5
132
330
3
100
AcDbSymbolTableRecord
100
AcDbTextStyleTableRecord
  2
Annotative
 70
     0
 40
0.0
 41
1.0
 50
0.0
 71
     0
 42
2.5
  3

  4

1001
AcadAnnotative
1000
AnnotativeData
1002
{
1070
     1
1070
     1
1002
}
1001
ACAD
1000
SimSun
1071
       34
  0
STYLE
  5
281
330
3
100
AcDbSymbolTableRecord
100
AcDbTextStyleTableRecord
  2
样式 1
 70
     0
 40
0.0
 41
1.0
 50
0.0
 71
     0
 42
3.0
  3

  4

1001
ACAD
1000
NSimSun
1071
    34353
  0
ENDTAB
  0
TABLE
  2
VIEW
  5
6
330
0
100
AcDbSymbolTable
 70
     0
  0
ENDTAB
  0
TABLE
  2
UCS
  5
7
330
0
100
AcDbSymbolTable
 70
     0
  0
ENDTAB
  0
TABLE
  2
APPID
  5
9
330
0
100
AcDbSymbolTable
 70
    10
  0
APPID
  5
12
330
9
100
AcDbSymbolTableRecord
100
AcDbRegAppTableRecord
  2
ACAD
 70
     0
  0
APPID
  5
9E
330
9
100
AcDbSymbolTableRecord
100
AcDbRegAppTableRecord
  2
ACAD_PSEXT
 70
     0
  0
APPID
  5
133
330
9
100
AcDbSymbolTableRecord
100
AcDbRegAppTableRecord
  2
AcadAnnoPO
 70
     0
  0
APPID
  5
134
330
9
100
AcDbSymbolTableRecord
100
AcDbRegAppTableRecord
  2
AcadAnnotative
 70
     0
  0
APPID
  5
135
330
9
100
AcDbSymbolTableRecord
100
AcDbRegAppTableRecord
  2
ACAD_DSTYLE_DIMJAG
 70
     0
  0
APPID
  5
136
330
9
100
AcDbSymbolTableRecord
100
AcDbRegAppTableRecord
  2
ACAD_DSTYLE_DIMTALN
 70
     0
  0
APPID
  5
165
330
9
100
AcDbSymbolTableRecord
100
AcDbRegAppTableRecord
  2
ACAD_MLEADERVER
 70
     0
  0
APPID
  5
287
330
9
100
AcDbSymbolTableRecord
100
AcDbRegAppTableRecord
  2
ACAD_DSTYLE_DIMBREAK
 70
     0
  0
APPID
  5
288
330
9
100
AcDbSymbolTableRecord
100
AcDbRegAppTableRecord
  2
AcAecLayerStandard
 70
     0
  0
APPID
  5
289
330
9
100
AcDbSymbolTableRecord
100
AcDbRegAppTableRecord
  2
ACAD_DSTYLE_DIMRADIAL_EXTENSION
 70
     0
  0
ENDTAB
  0
TABLE
  2
DIMSTYLE
  5
A
330
0
100
AcDbSymbolTable
 70
    10
100
AcDbDimStyleTable
 71
     2
340
27
340
137
  0
DIMSTYLE
105
1B0
330
A
100
AcDbSymbolTableRecord
100
AcDbDimStyleTableRecord
  2
Standard
 70
     0
340
11
  0
DIMSTYLE
105
137
330
A
100
AcDbSymbolTableRecord
100
AcDbDimStyleTableRecord
  2
Annotative
 70
     0
 40
0.0
 41
2.5
 42
0.625
 43
3.75
 44
1.25
 73
     0
 74
     0
 77
     1
 78
     8
140
2.5
141
2.5
143
0.03937007874016
147
0.625
171
     3
172
     1
271
     2
272
     2
274
     3
278
    44
283
     0
284
     8
340
11
1001
AcadAnnotative
1000
AnnotativeData
1002
{
1070
     1
1070
     1
1002
}
1001
ACAD_DSTYLE_DIMJAG
1070
   388
1040
1.5
1001
ACAD_DSTYLE_DIMTALN
1070
   392
1070
     0
  0
DIMSTYLE
105
27
330
A
100
AcDbSymbolTableRecord
100
AcDbDimStyleTableRecord
  2
ISO-25
 70
     0
 41
2.5
 42
0.625
 43
3.75
 44
1.25
 73
     0
 74
     0
 77
     1
 78
     8
140
2.5
141
2.5
143
0.03937007874016
147
0.625
171
     3
172
     1
271
     2
272
     2
274
     3
278
    44
283
     0
284
     8
340
11
  0
DIMSTYLE
105
282
102
{ACAD_REACTORS
330
28E
330
2A7
330
2AA
330
2AD
330
2B0
330
2B1
102
}
330
A
100
AcDbSymbolTableRecord
100
AcDbDimStyleTableRecord
  2
1-8
 70
     0
  3
"
 40
8.0
 41
2.5
 42
0.625
 43
3.75
 44
1.25
 47
0.5
 48
0.5
 73
     0
 74
     0
 77
     1
 78
     8
140
2.299999999999999
141
2.5
143
0.03937007874016
144
0.03937007874016
147
0.625
171
     3
172
     1
271
     1
272
     1
273
     7
274
     3
283
     0
340
11
1001
ACAD_DSTYLE_DIMBREAK
1070
   391
1040
3.75
1001
ACAD_DSTYLE_DIMJAG
1070
   388
1040
1.5
1001
ACAD_DSTYLE_DIMTALN
1070
   392
1070
     0
  0
DIMSTYLE
105
283
330
A
100
AcDbSymbolTableRecord
100
AcDbDimStyleTableRecord
  2
1-8-L
 70
     0
 40
8.0
 41
1.5
 42
0.625
 43
3.75
 44
1.25
 73
     0
 74
     0
 77
     1
 78
     8
140
2.299999999999999
141
2.5
143
0.03937007874016
147
0.625
171
     8
172
     1
271
     2
272
     2
273
     7
274
     8
283
     0
284
     8
340
11
1001
ACAD_DSTYLE_DIMBREAK
1070
   391
1040
3.75
1001
ACAD_DSTYLE_DIMJAG
1070
   388
1040
1.5
1001
ACAD_DSTYLE_DIMTALN
1070
   392
1070
     0
  0
DIMSTYLE
105
284
102
{ACAD_REACTORS
330
29F
330
2A2
330
2A3
330
2A6
330
2B4
330
2E3
330
2E7
102
}
330
A
100
AcDbSymbolTableRecord
100
AcDbDimStyleTableRecord
  2
1-12
 70
     0
 40
12.0
 41
1.5
 42
0.625
 43
3.75
 44
1.25
 73
     0
 74
     0
 77
     1
 78
     8
140
2.299999999999999
141
2.5
143
0.03937007874016
147
0.625
170
     1
171
     8
172
     1
271
     2
272
     2
273
     7
274
     8
283
     0
284
     8
340
11
1001
ACAD_DSTYLE_DIMBREAK
1070
   391
1040
3.75
1001
ACAD_DSTYLE_DIMJAG
1070
   388
1040
1.5
1001
ACAD_DSTYLE_DIMTALN
1070
   392
1070
     0
  0
DIMSTYLE
105
285
330
A
100
AcDbSymbolTableRecord
100
AcDbDimStyleTableRecord
  2
1-10-L
 70
     0
 40
10.0
 41
1.5
 42
0.625
 43
3.75
 44
1.25
 73
     0
 74
     0
 77
     1
 78
     8
140
2.299999999999999
141
2.5
143
0.03937007874016
147
0.625
171
     8
172
     1
271
     2
272
     2
273
     7
274
     8
283
     0
284
     8
340
11
1001
ACAD_DSTYLE_DIMBREAK
1070
   391
1040
3.75
1001
ACAD_DSTYLE_DIMJAG
1070
   388
1040
1.5
1001
ACAD_DSTYLE_DIMTALN
1070
   392
1070
     0
  0
DIMSTYLE
105
286
330
A
100
AcDbSymbolTableRecord
100
AcDbDimStyleTableRecord
  2
1-10
 70
     0
 40
10.0
 41
1.5
 42
0.625
 43
3.75
 44
1.25
 73
     0
 74
     0
 77
     1
 78
     8
140
20.0
141
2.5
143
0.03937007874016
147
0.625
171
     8
172
     1
271
     2
272
     2
273
     7
274
     8
283
     0
284
     8
340
11
1001
ACAD_DSTYLE_DIMBREAK
1070
   391
1040
3.75
1001
ACAD_DSTYLE_DIMJAG
1070
   388
1040
1.5
1001
ACAD_DSTYLE_DIMTALN
1070
   392
1070
     0
  0
ENDTAB
  0
TABLE
  2
BLOCK_RECORD
  5
1
330
0
100
AcDbSymbolTable
 70
    26
  0
BLOCK_RECORD
  5
1F
102
{ACAD_XDICTIONARY
360
1CE
102
}
330
1
100
AcDbSymbolTableRecord
100
AcDbBlockTableRecord
  2
*Model_Space
340
22
  0
BLOCK_RECORD
  5
D2
330
1
100
AcDbSymbolTableRecord
100
AcDbBlockTableRecord
  2
*Paper_Space
340
D3
  0
BLOCK_RECORD
  5
D6
330
1
100
AcDbSymbolTableRecord
100
AcDbBlockTableRecord
  2
*Paper_Space0
340
D7
  0
BLOCK_RECORD
  5
1F4
330
1
100
AcDbSymbolTableRecord
100
AcDbBlockTableRecord
  2
*D1
340
0
  0
BLOCK_RECORD
  5
200
330
1
100
AcDbSymbolTableRecord
100
AcDbBlockTableRecord
  2
*D2
340
0
  0
BLOCK_RECORD
  5
20C
330
1
100
AcDbSymbolTableRecord
100
AcDbBlockTableRecord
  2
*D3
340
0
  0
BLOCK_RECORD
  5
21A
330
1
100
AcDbSymbolTableRecord
100
AcDbBlockTableRecord
  2
*D4
340
0
  0
BLOCK_RECORD
  5
228
330
1
100
AcDbSymbolTableRecord
100
AcDbBlockTableRecord
  2
*D5
340
0
  0
BLOCK_RECORD
  5
234
330
1
100
AcDbSymbolTableRecord
100
AcDbBlockTableRecord
  2
*D6
340
0
  0
BLOCK_RECORD
  5
240
330
1
100
AcDbSymbolTableRecord
100
AcDbBlockTableRecord
  2
*D7
340
0
  0
BLOCK_RECORD
  5
24C
330
1
100
AcDbSymbolTableRecord
100
AcDbBlockTableRecord
  2
*D8
340
0
  0
BLOCK_RECORD
  5
257
330
1
100
AcDbSymbolTableRecord
100
AcDbBlockTableRecord
  2
*D9
340
0
  0
BLOCK_RECORD
  5
262
330
1
100
AcDbSymbolTableRecord
100
AcDbBlockTableRecord
  2
*D10
340
0
  0
BLOCK_RECORD
  5
270
330
1
100
AcDbSymbolTableRecord
100
AcDbBlockTableRecord
  2
*D11
340
0
  0
BLOCK_RECORD
  5
307
330
1
100
AcDbSymbolTableRecord
100
AcDbBlockTableRecord
  2
*D13
340
0
  0
BLOCK_RECORD
  5
313
330
1
100
AcDbSymbolTableRecord
100
AcDbBlockTableRecord
  2
*D14
340
0
  0
BLOCK_RECORD
  5
31F
330
1
100
AcDbSymbolTableRecord
100
AcDbBlockTableRecord
  2
*D15
340
0
  0
BLOCK_RECORD
  5
32D
330
1
100
AcDbSymbolTableRecord
100
AcDbBlockTableRecord
  2
*D16
340
0
  0
BLOCK_RECORD
  5
33B
330
1
100
AcDbSymbolTableRecord
100
AcDbBlockTableRecord
  2
*D17
340
0
  0
BLOCK_RECORD
  5
350
330
1
100
AcDbSymbolTableRecord
100
AcDbBlockTableRecord
  2
*D18
340
0
  0
BLOCK_RECORD
  5
365
330
1
100
AcDbSymbolTableRecord
100
AcDbBlockTableRecord
  2
*D19
340
0
  0
BLOCK_RECORD
  5
371
330
1
100
AcDbSymbolTableRecord
100
AcDbBlockTableRecord
  2
*D20
340
0
  0
BLOCK_RECORD
  5
37C
330
1
100
AcDbSymbolTableRecord
100
AcDbBlockTableRecord
  2
*D21
340
0
  0
BLOCK_RECORD
  5
392
330
1
100
AcDbSymbolTableRecord
100
AcDbBlockTableRecord
  2
*D22
340
0
  0
BLOCK_RECORD
  5
3A0
330
1
100
AcDbSymbolTableRecord
100
AcDbBlockTableRecord
  2
*D23
340
0
  0
ENDTAB
  0
ENDSEC
  0
SECTION
  2
BLOCKS
  0
BLOCK
  5
20
330
1F
100
AcDbEntity
  8
0
100
AcDbBlockBegin
  2
*Model_Space
 70
     0
 10
0.0
 20
0.0
 30
0.0
  3
*Model_Space
  1

  0
ENDBLK
  5
21
330
1F
100
AcDbEntity
  8
0
100
AcDbBlockEnd
  0
BLOCK
  5
D4
330
D2
100
AcDbEntity
 67
     1
  8
0
100
AcDbBlockBegin
  2
*Paper_Space
 70
     0
 10
0.0
 20
0.0
 30
0.0
  3
*Paper_Space
  1

  0
ENDBLK
  5
D5
330
D2
100
AcDbEntity
 67
     1
  8
0
100
AcDbBlockEnd
  0
BLOCK
  5
D8
330
D6
100
AcDbEntity
 67
     1
  8
0
100
AcDbBlockBegin
  2
*Paper_Space0
 70
     0
 10
0.0
 20
0.0
 30
0.0
  3
*Paper_Space0
  1

  0
ENDBLK
  5
D9
330
D6
100
AcDbEntity
 67
     1
  8
0
100
AcDbBlockEnd
  0
BLOCK
  5
1F5
330
1F4
100
AcDbEntity
  8
0
100
AcDbBlockBegin
  2
*D1
 70
     1
 10
0.0
 20
0.0
 30
0.0
  3
*D1
  1

  0
LINE
  5
1F6
330
1F4
100
AcDbEntity
  8
标注
 62
     0
370
    -2
100
AcDbLine
 10
91439.68179369938
 20
25811.1379414643
 30
0.0
 11
91439.68179369938
 21
25843.22906803615
 31
0.0
  0
LINE
  5
1F7
330
1F4
100
AcDbEntity
  8
标注
 62
     0
370
    -2
100
AcDbLine
 10
91947.68179369937
 20
25810.73350475023
 30
0.0
 11
91947.68179369937
 21
25843.22906803615
 31
0.0
  0
LINE
  5
1F8
330
1F4
100
AcDbEntity
  8
标注
 62
     0
370
    -2
100
AcDbLine
 10
91457.68179369937
 20
25828.22906803615
 30
0.0
 11
91929.68179369938
 21
25828.22906803615
 31
0.0
  0
SOLID
  5
1F9
330
1F4
100
AcDbEntity
  8
标注
 62
     0
100
AcDbTrace
 10
91457.68179369937
 20
25831.22906803616
 30
0.0
 11
91457.68179369937
 21
25825.22906803616
 31
0.0
 12
91439.68179369938
 22
25828.22906803615
 32
0.0
 13
91439.68179369938
 23
25828.22906803615
 33
0.0
  0
SOLID
  5
1FA
330
1F4
100
AcDbEntity
  8
标注
 62
     0
100
AcDbTrace
 10
91929.68179369938
 20
25831.22906803616
 30
0.0
 11
91929.68179369938
 21
25825.22906803616
 31
0.0
 12
91947.68179369937
 22
25828.22906803615
 32
0.0
 13
91947.68179369937
 23
25828.22906803615
 33
0.0
  0
MTEXT
  5
1FB
330
1F4
100
AcDbEntity
  8
标注
 62
     0
370
     9
100
AcDbMText
 10
91693.68179369937
 20
25856.75763946473
 30
0.0
 40
27.6
 41
0.0
 71
     5
 72
     1
  1
508 [20]
 73
     1
 44
1.0
  0
POINT
  5
1FC
330
1F4
100
AcDbEntity
  8
Defpoints
 62
     0
100
AcDbPoint
 10
91439.68179369938
 20
25803.6379414643
 30
0.0
  0
POINT
  5
1FD
330
1F4
100
AcDbEntity
  8
Defpoints
 62
     0
100
AcDbPoint
 10
91947.68179369937
 20
25803.23350475023
 30
0.0
  0
POINT
  5
1FE
330
1F4
100
AcDbEntity
  8
Defpoints
 62
     0
100
AcDbPoint
 10
91947.68179369937
 20
25828.22906803615
 30
0.0
  0
ENDBLK
  5
1FF
330
1F4
100
AcDbEntity
  8
0
100
AcDbBlockEnd
  0
BLOCK
  5
201
330
200
100
AcDbEntity
  8
0
100
AcDbBlockBegin
  2
*D2
 70
     1
 10
0.0
 20
0.0
 30
0.0
  3
*D2
  1

  0
LINE
  5
202
330
200
100
AcDbEntity
  8
标注
 62
     0
370
    -2
100
AcDbLine
 10
91406.78179369936
 20
25778.2379414643
 30
0.0
 11
91373.18339138918
 21
25778.2379414643
 31
0.0
  0
LINE
  5
203
330
200
100
AcDbEntity
  8
标注
 62
     0
370
    -2
100
AcDbLine
 10
91406.78179369936
 20
25371.8379414643
 30
0.0
 11
91373.18339138918
 21
25371.8379414643
 31
0.0
  0
LINE
  5
204
330
200
100
AcDbEntity
  8
标注
 62
     0
370
    -2
100
AcDbLine
 10
91388.18339138918
 20
25760.2379414643
 30
0.0
 11
91388.18339138918
 21
25389.8379414643
 31
0.0
  0
SOLID
  5
205
330
200
100
AcDbEntity
  8
标注
 62
     0
100
AcDbTrace
 10
91385.18339138917
 20
25760.2379414643
 30
0.0
 11
91391.18339138917
 21
25760.2379414643
 31
0.0
 12
91388.18339138918
 22
25778.2379414643
 32
0.0
 13
91388.18339138918
 23
25778.2379414643
 33
0.0
  0
SOLID
  5
206
330
200
100
AcDbEntity
  8
标注
 62
     0
100
AcDbTrace
 10
91385.18339138917
 20
25389.8379414643
 30
0.0
 11
91391.18339138917
 21
25389.8379414643
 31
0.0
 12
91388.18339138918
 22
25371.8379414643
 32
0.0
 13
91388.18339138918
 23
25371.8379414643
 33
0.0
  0
MTEXT
  5
207
330
200
100
AcDbEntity
  8
标注
 62
     0
370
     9
100
AcDbMText
 10
91359.65481996061
 20
25575.03794146431
 30
0.0
 40
27.6
 41
0.0
 71
     5
 72
     1
  1
406.4 [16]
 11
0.0000000000000001
 21
1.0
 31
0.0
 73
     1
 44
1.0
  0
POINT
  5
208
330
200
100
AcDbEntity
  8
Defpoints
 62
     0
100
AcDbPoint
 10
91414.28179369937
 20
25778.2379414643
 30
0.0
  0
POINT
  5
209
330
200
100
AcDbEntity
  8
Defpoints
 62
     0
100
AcDbPoint
 10
91414.28179369937
 20
25371.8379414643
 30
0.0
  0
POINT
  5
20A
330
200
100
AcDbEntity
  8
Defpoints
 62
     0
100
AcDbPoint
 10
91388.18339138918
 20
25371.8379414643
 30
0.0
  0
ENDBLK
  5
20B
330
200
100
AcDbEntity
  8
0
100
AcDbBlockEnd
  0
BLOCK
  5
20D
330
20C
100
AcDbEntity
  8
0
100
AcDbBlockBegin
  2
*D3
 70
     1
 10
0.0
 20
0.0
 30
0.0
  3
*D3
  1

  0
LINE
  5
20E
330
20C
100
AcDbEntity
  8
标注
 62
     0
370
    -2
100
AcDbLine
 10
91414.28179369937
 20
25557.5883862837
 30
0.0
 11
91414.28179369937
 21
25513.15821132377
 31
0.0
  0
LINE
  5
20F
330
20C
100
AcDbEntity
  8
标注
 62
     0
370
    -2
100
AcDbLine
 10
91439.68179369938
 20
25557.5883862837
 30
0.0
 11
91439.68179369938
 21
25513.15821132377
 31
0.0
  0
LINE
  5
210
330
20C
100
AcDbEntity
  8
标注
 62
     0
370
    -2
100
AcDbLine
 10
91394.28179369936
 20
25523.15821132377
 30
0.0
 11
91374.28179369937
 21
25523.15821132377
 31
0.0
  0
LINE
  5
211
330
20C
100
AcDbEntity
  8
标注
 62
     0
370
    -2
100
AcDbLine
 10
91459.68179369937
 20
25523.15821132377
 30
0.0
 11
91512.46274608032
 21
25523.15821132377
 31
0.0
  0
LINE
  5
212
330
20C
100
AcDbEntity
  8
标注
 62
     0
370
    -2
100
AcDbLine
 10
91414.28179369937
 20
25523.15821132377
 30
0.0
 11
91439.68179369938
 21
25523.15821132377
 31
0.0
  0
SOLID
  5
213
330
20C
100
AcDbEntity
  8
标注
 62
     0
100
AcDbTrace
 10
91394.28179369936
 20
25526.4915446571
 30
0.0
 11
91394.28179369936
 21
25519.82487799044
 31
0.0
 12
91414.28179369937
 22
25523.15821132377
 32
0.0
 13
91414.28179369937
 23
25523.15821132377
 33
0.0
  0
SOLID
  5
214
330
20C
100
AcDbEntity
  8
标注
 62
     0
100
AcDbTrace
 10
91459.68179369937
 20
25526.4915446571
 30
0.0
 11
91459.68179369937
 21
25519.82487799044
 31
0.0
 12
91439.68179369938
 22
25523.15821132377
 32
0.0
 13
91439.68179369938
 23
25523.15821132377
 33
0.0
  0
MTEXT
  5
215
330
20C
100
AcDbEntity
  8
标注
 62
     0
370
     9
100
AcDbMText
 10
91496.07226988985
 20
25539.11059227615
 30
0.0
 40
18.4
 41
0.0
 71
     5
 72
     1
  1
1"
 73
     1
 44
1.0
  0
POINT
  5
216
330
20C
100
AcDbEntity
  8
Defpoints
 62
     0
100
AcDbPoint
 10
91414.28179369937
 20
25562.5883862837
 30
0.0
  0
POINT
  5
217
330
20C
100
AcDbEntity
  8
Defpoints
 62
     0
100
AcDbPoint
 10
91439.68179369938
 20
25562.5883862837
 30
0.0
  0
POINT
  5
218
330
20C
100
AcDbEntity
  8
Defpoints
 62
     0
100
AcDbPoint
 10
91439.68179369938
 20
25523.15821132377
 30
0.0
  0
ENDBLK
  5
219
330
20C
100
AcDbEntity
  8
0
100
AcDbBlockEnd
  0
BLOCK
  5
21B
330
21A
100
AcDbEntity
  8
0
100
AcDbBlockBegin
  2
*D4
 70
     1
 10
0.0
 20
0.0
 30
0.0
  3
*D4
  1

  0
LINE
  5
21C
330
21A
100
AcDbEntity
  8
标注
 62
     0
370
    -2
100
AcDbLine
 10
91688.68179369937
 20
25202.68318990914
 30
0.0
 11
91631.21348809031
 21
25202.68318990914
 31
0.0
  0
LINE
  5
21D
330
21A
100
AcDbEntity
  8
标注
 62
     0
370
    -2
100
AcDbLine
 10
91688.68179369937
 20
25227.68318990914
 30
0.0
 11
91631.21348809031
 21
25227.68318990914
 31
0.0
  0
LINE
  5
21E
330
21A
100
AcDbEntity
  8
标注
 62
     0
370
    -2
100
AcDbLine
 10
91641.21348809032
 20
25247.68318990914
 30
0.0
 11
91641.21348809032
 21
25267.68318990914
 31
0.0
  0
LINE
  5
21F
330
21A
100
AcDbEntity
  8
标注
 62
     0
370
    -2
100
AcDbLine
 10
91641.21348809032
 20
25182.68318990914
 30
0.0
 11
91641.21348809032
 21
25129.90223752817
 31
0.0
  0
LINE
  5
220
330
21A
100
AcDbEntity
  8
标注
 62
     0
370
    -2
100
AcDbLine
 10
91641.21348809032
 20
25227.68318990914
 30
0.0
 11
91641.21348809032
 21
25202.68318990914
 31
0.0
  0
SOLID
  5
221
330
21A
100
AcDbEntity
  8
标注
 62
     0
100
AcDbTrace
 10
91637.88015475699
 20
25247.68318990914
 30
0.0
 11
91644.54682142364
 21
25247.68318990914
 31
0.0
 12
91641.21348809032
 22
25227.68318990914
 32
0.0
 13
91641.21348809032
 23
25227.68318990914
 33
0.0
  0
SOLID
  5
222
330
21A
100
AcDbEntity
  8
标注
 62
     0
100
AcDbTrace
 10
91637.88015475699
 20
25182.68318990914
 30
0.0
 11
91644.54682142364
 21
25182.68318990914
 31
0.0
 12
91641.21348809032
 22
25202.68318990914
 32
0.0
 13
91641.21348809032
 23
25202.68318990914
 33
0.0
  0
MTEXT
  5
223
330
21A
100
AcDbEntity
  8
标注
 62
     0
370
     9
100
AcDbMText
 10
91625.26110713793
 20
25146.29271371866
 30
0.0
 40
18.4
 41
0.0
 71
     5
 72
     1
  1
1"
 11
0.0000000000000001
 21
1.0
 31
0.0
 73
     1
 44
1.0
  0
POINT
  5
224
330
21A
100
AcDbEntity
  8
Defpoints
 62
     0
100
AcDbPoint
 10
91693.68179369937
 20
25202.68318990914
 30
0.0
  0
POINT
  5
225
330
21A
100
AcDbEntity
  8
Defpoints
 62
     0
100
AcDbPoint
 10
91693.68179369937
 20
25227.68318990914
 30
0.0
  0
POINT
  5
226
330
21A
100
AcDbEntity
  8
Defpoints
 62
     0
100
AcDbPoint
 10
91641.21348809032
 20
25227.68318990914
 30
0.0
  0
ENDBLK
  5
227
330
21A
100
AcDbEntity
  8
0
100
AcDbBlockEnd
  0
BLOCK
  5
229
330
228
100
AcDbEntity
  8
0
100
AcDbBlockBegin
  2
*D5
 70
     1
 10
0.0
 20
0.0
 30
0.0
  3
*D5
  1

  0
LINE
  5
22A
330
228
100
AcDbEntity
  8
标注
 62
     0
370
    -2
100
AcDbLine
 10
91414.28179369937
 20
25811.1379414643
 30
0.0
 11
91414.28179369937
 21
25908.44823360736
 31
0.0
  0
LINE
  5
22B
330
228
100
AcDbEntity
  8
标注
 62
     0
370
    -2
100
AcDbLine
 10
91973.08179369938
 20
25811.1379414643
 30
0.0
 11
91973.08179369938
 21
25908.44823360736
 31
0.0
  0
LINE
  5
22C
330
228
100
AcDbEntity
  8
标注
 62
     0
370
    -2
100
AcDbLine
 10
91432.28179369936
 20
25893.44823360736
 30
0.0
 11
91955.08179369939
 21
25893.44823360736
 31
0.0
  0
SOLID
  5
22D
330
228
100
AcDbEntity
  8
标注
 62
     0
100
AcDbTrace
 10
91432.28179369936
 20
25896.44823360736
 30
0.0
 11
91432.28179369936
 21
25890.44823360736
 31
0.0
 12
91414.28179369937
 22
25893.44823360736
 32
0.0
 13
91414.28179369937
 23
25893.44823360736
 33
0.0
  0
SOLID
  5
22E
330
228
100
AcDbEntity
  8
标注
 62
     0
100
AcDbTrace
 10
91955.08179369939
 20
25896.44823360736
 30
0.0
 11
91955.08179369939
 21
25890.44823360736
 31
0.0
 12
91973.08179369938
 22
25893.44823360736
 32
0.0
 13
91973.08179369938
 23
25893.44823360736
 33
0.0
  0
MTEXT
  5
22F
330
228
100
AcDbEntity
  8
标注
 62
     0
370
     9
100
AcDbMText
 10
91693.68179369937
 20
25921.97680503593
 30
0.0
 40
27.6
 41
0.0
 71
     5
 72
     1
  1
558.8 [22]
 73
     1
 44
1.0
  0
POINT
  5
230
330
228
100
AcDbEntity
  8
Defpoints
 62
     0
100
AcDbPoint
 10
91414.28179369937
 20
25803.6379414643
 30
0.0
  0
POINT
  5
231
330
228
100
AcDbEntity
  8
Defpoints
 62
     0
100
AcDbPoint
 10
91973.08179369938
 20
25803.6379414643
 30
0.0
  0
POINT
  5
232
330
228
100
AcDbEntity
  8
Defpoints
 62
     0
100
AcDbPoint
 10
91973.08179369938
 20
25893.44823360736
 30
0.0
  0
ENDBLK
  5
233
330
228
100
AcDbEntity
  8
0
100
AcDbBlockEnd
  0
BLOCK
  5
235
330
234
100
AcDbEntity
  8
0
100
AcDbBlockBegin
  2
*D6
 70
     1
 10
0.0
 20
0.0
 30
0.0
  3
*D6
  1

  0
LINE
  5
236
330
234
100
AcDbEntity
  8
标注
 62
     0
370
    -2
100
AcDbLine
 10
91406.78179369936
 20
25803.6379414643
 30
0.0
 11
91305.49335704298
 21
25803.6379414643
 31
0.0
  0
LINE
  5
237
330
234
100
AcDbEntity
  8
标注
 62
     0
370
    -2
100
AcDbLine
 10
91406.78179369936
 20
25346.4379414643
 30
0.0
 11
91305.49335704298
 21
25346.4379414643
 31
0.0
  0
LINE
  5
238
330
234
100
AcDbEntity
  8
标注
 62
     0
370
    -2
100
AcDbLine
 10
91320.49335704298
 20
25785.63794146429
 30
0.0
 11
91320.49335704298
 21
25364.4379414643
 31
0.0
  0
SOLID
  5
239
330
234
100
AcDbEntity
  8
标注
 62
     0
100
AcDbTrace
 10
91317.49335704299
 20
25785.63794146429
 30
0.0
 11
91323.49335704299
 21
25785.63794146429
 31
0.0
 12
91320.49335704298
 22
25803.6379414643
 32
0.0
 13
91320.49335704298
 23
25803.6379414643
 33
0.0
  0
SOLID
  5
23A
330
234
100
AcDbEntity
  8
标注
 62
     0
100
AcDbTrace
 10
91317.49335704299
 20
25364.4379414643
 30
0.0
 11
91323.49335704299
 21
25364.4379414643
 31
0.0
 12
91320.49335704298
 22
25346.4379414643
 32
0.0
 13
91320.49335704298
 23
25346.4379414643
 33
0.0
  0
MTEXT
  5
23B
330
234
100
AcDbEntity
  8
标注
 62
     0
370
     9
100
AcDbMText
 10
91291.96478561441
 20
25562.33794146431
 30
0.0
 40
27.6
 41
0.0
 71
     5
 72
     1
  1
457.2 [18]
 11
0.0000000000000001
 21
1.0
 31
0.0
 73
     1
 44
1.0
  0
POINT
  5
23C
330
234
100
AcDbEntity
  8
Defpoints
 62
     0
100
AcDbPoint
 10
91414.28179369937
 20
25803.6379414643
 30
0.0
  0
POINT
  5
23D
330
234
100
AcDbEntity
  8
Defpoints
 62
     0
100
AcDbPoint
 10
91414.28179369937
 20
25346.4379414643
 30
0.0
  0
POINT
  5
23E
330
234
100
AcDbEntity
  8
Defpoints
 62
     0
100
AcDbPoint
 10
91320.49335704298
 20
25346.4379414643
 30
0.0
  0
ENDBLK
  5
23F
330
234
100
AcDbEntity
  8
0
100
AcDbBlockEnd
  0
BLOCK
  5
241
330
240
100
AcDbEntity
  8
0
100
AcDbBlockBegin
  2
*D7
 70
     1
 10
0.0
 20
0.0
 30
0.0
  3
*D7
  1

  0
LINE
  5
242
330
240
100
AcDbEntity
  8
标注
 62
     0
370
    -2
100
AcDbLine
 10
91686.71297222584
 20
25658.2379414643
 30
0.0
 11
91618.59281595438
 21
25658.2379414643
 31
0.0
  0
LINE
  5
243
330
240
100
AcDbEntity
  8
标注
 62
     0
370
    -2
100
AcDbLine
 10
91686.71297222584
 20
25778.2379414643
 30
0.0
 11
91618.59281595438
 21
25778.2379414643
 31
0.0
  0
LINE
  5
244
330
240
100
AcDbEntity
  8
标注
 62
     0
370
    -2
100
AcDbLine
 10
91628.59281595439
 20
25678.2379414643
 30
0.0
 11
91628.59281595439
 21
25758.2379414643
 31
0.0
  0
SOLID
  5
245
330
240
100
AcDbEntity
  8
标注
 62
     0
100
AcDbTrace
 10
91625.25948262105
 20
25678.2379414643
 30
0.0
 11
91631.92614928771
 21
25678.2379414643
 31
0.0
 12
91628.59281595439
 22
25658.2379414643
 32
0.0
 13
91628.59281595439
 23
25658.2379414643
 33
0.0
  0
SOLID
  5
246
330
240
100
AcDbEntity
  8
标注
 62
     0
100
AcDbTrace
 10
91625.25948262105
 20
25758.2379414643
 30
0.0
 11
91631.92614928771
 21
25758.2379414643
 31
0.0
 12
91628.59281595439
 22
25778.2379414643
 32
0.0
 13
91628.59281595439
 23
25778.2379414643
 33
0.0
  0
MTEXT
  5
247
330
240
100
AcDbEntity
  8
标注
 62
     0
370
     9
100
AcDbMText
 10
91612.64043500199
 20
25718.23794146431
 30
0.0
 40
18.4
 41
0.0
 71
     5
 72
     1
  1
4.7"
 11
0.0000000000000001
 21
1.0
 31
0.0
 73
     1
 44
1.0
  0
POINT
  5
248
330
240
100
AcDbEntity
  8
Defpoints
 62
     0
100
AcDbPoint
 10
91691.71297222584
 20
25658.2379414643
 30
0.0
  0
POINT
  5
249
330
240
100
AcDbEntity
  8
Defpoints
 62
     0
100
AcDbPoint
 10
91691.71297222584
 20
25778.2379414643
 30
0.0
  0
POINT
  5
24A
330
240
100
AcDbEntity
  8
Defpoints
 62
     0
100
AcDbPoint
 10
91628.59281595439
 20
25778.2379414643
 30
0.0
  0
ENDBLK
  5
24B
330
240
100
AcDbEntity
  8
0
100
AcDbBlockEnd
  0
BLOCK
  5
24D
330
24C
100
AcDbEntity
  8
0
100
AcDbBlockBegin
  2
*D8
 70
     1
 10
0.0
 20
0.0
 30
0.0
  3
*D8
  1

  0
LINE
  5
24E
330
24C
100
AcDbEntity
  8
标注
 62
     0
370
    -2
100
AcDbLine
 10
91523.8073964536
 20
25602.73016050488
 30
0.0
 11
91617.18020391916
 21
25633.59820833787
 31
0.0
  0
LINE
  5
24F
330
24C
100
AcDbEntity
  8
标注
 62
     0
370
    -2
100
AcDbLine
 10
91766.24574053247
 20
25682.8776745907
 30
0.0
 11
91785.23498086539
 21
25689.1553136038
 31
0.0
  0
MTEXT
  5
250
102
{ACAD_XDICTIONARY
360
43F
102
}
330
24C
100
AcDbEntity
  8
标注
 62
     0
370
     9
100
AcDbMText
 10
91555.99201556899
 20
25630.17154470417
 30
0.0
 40
18.4
 41
0.0
 71
     5
 72
     1
  1
\U+22054.6"
 11
0.9494620166457321
 21
0.3138819506550509
 31
0.0
 73
     1
 44
1.0
  0
LINE
  5
251
330
24C
100
AcDbEntity
  8
标注
 62
     0
370
    -2
100
AcDbLine
 10
91747.25650019956
 20
25676.6000355776
 30
0.0
 11
91636.16944425207
 21
25639.87584735098
 31
0.0
  0
SOLID
  5
252
330
24C
100
AcDbEntity
  8
标注
 62
     0
100
AcDbTrace
 10
91765.19946736364
 20
25686.04254797952
 30
0.0
 11
91767.29201370132
 21
25679.71280120188
 31
0.0
 12
91747.25650019956
 22
25676.6000355776
 32
0.0
 13
91747.25650019956
 23
25676.6000355776
 33
0.0
  0
SOLID
  5
253
330
24C
100
AcDbEntity
  8
标注
 62
     0
100
AcDbTrace
 10
91616.13393075031
 20
25636.76308172669
 30
0.0
 11
91618.22647708801
 21
25630.43333494905
 31
0.0
 12
91636.16944425207
 22
25639.87584735098
 32
0.0
 13
91636.16944425207
 23
25639.87584735098
 33
0.0
  0
POINT
  5
254
330
24C
100
AcDbEntity
  8
Defpoints
 62
     0
100
AcDbPoint
 10
91636.16944425207
 20
25639.87584735098
 30
0.0
  0
POINT
  5
255
330
24C
100
AcDbEntity
  8
Defpoints
 62
     0
100
AcDbPoint
 10
91747.25650019956
 20
25676.6000355776
 30
0.0
  0
ENDBLK
  5
256
330
24C
100
AcDbEntity
  8
0
100
AcDbBlockEnd
  0
BLOCK
  5
258
330
257
100
AcDbEntity
  8
0
100
AcDbBlockBegin
  2
*D9
 70
     1
 10
0.0
 20
0.0
 30
0.0
  3
*D9
  1

  0
LINE
  5
259
330
257
100
AcDbEntity
  8
标注
 62
     0
370
    -2
100
AcDbLine
 10
91570.22720116311
 20
25549.04958856492
 30
0.0
 11
91643.36941281222
 21
25614.787967204
 31
0.0
  0
LINE
  5
25A
330
257
100
AcDbEntity
  8
标注
 62
     0
370
    -2
100
AcDbLine
 10
91740.05653163954
 20
25701.68791572463
 30
0.0
 11
91754.93147299757
 21
25715.05713857394
 31
0.0
  0
MTEXT
  5
25B
102
{ACAD_XDICTIONARY
360
441
102
}
330
257
100
AcDbEntity
  8
标注
 62
     0
370
     9
100
AcDbMText
 10
91588.69728951215
 20
25587.09870301919
 30
0.0
 40
18.4
 41
0.0
 71
     5
 72
     1
  1
\U+22053.5"
 11
0.743747067902154
 21
0.6684611424659993
 31
0.0
 73
     1
 44
1.0
  0
LINE
  5
25C
330
257
100
AcDbEntity
  8
标注
 62
     0
370
    -2
100
AcDbLine
 10
91725.18159028149
 20
25688.3186928753
 30
0.0
 11
91658.24435417025
 21
25628.15719005333
 31
0.0
  0
SOLID
  5
25D
330
257
100
AcDbEntity
  8
标注
 62
     0
100
AcDbTrace
 10
91737.82832783132
 20
25704.16707261764
 30
0.0
 11
91742.28473544776
 21
25699.20875883162
 31
0.0
 12
91725.18159028149
 22
25688.3186928753
 32
0.0
 13
91725.18159028149
 23
25688.3186928753
 33
0.0
  0
SOLID
  5
25E
330
257
100
AcDbEntity
  8
标注
 62
     0
100
AcDbTrace
 10
91641.14120900398
 20
25617.26712409701
 30
0.0
 11
91645.59761662044
 21
25612.308810311
 31
0.0
 12
91658.24435417025
 22
25628.15719005333
 32
0.0
 13
91658.24435417025
 23
25628.15719005333
 33
0.0
  0
POINT
  5
25F
330
257
100
AcDbEntity
  8
Defpoints
 62
     0
100
AcDbPoint
 10
91658.24435417025
 20
25628.15719005333
 30
0.0
  0
POINT
  5
260
330
257
100
AcDbEntity
  8
Defpoints
 62
     0
100
AcDbPoint
 10
91725.18159028149
 20
25688.3186928753
 30
0.0
  0
ENDBLK
  5
261
330
257
100
AcDbEntity
  8
0
100
AcDbBlockEnd
  0
BLOCK
  5
263
330
262
100
AcDbEntity
  8
0
100
AcDbBlockBegin
  2
*D10
 70
     1
 10
0.0
 20
0.0
 30
0.0
  3
*D10
  1

  0
LINE
  5
264
330
262
100
AcDbEntity
  8
标注
 62
     0
370
    -2
100
AcDbLine
 10
91688.68179369937
 20
25346.4379414643
 30
0.0
 11
91658.4393086426
 21
25346.4379414643
 31
0.0
  0
LINE
  5
265
330
262
100
AcDbEntity
  8
标注
 62
     0
370
    -2
100
AcDbLine
 10
91688.68179369937
 20
25371.8379414643
 30
0.0
 11
91658.4393086426
 21
25371.8379414643
 31
0.0
  0
LINE
  5
266
330
262
100
AcDbEntity
  8
标注
 62
     0
370
    -2
100
AcDbLine
 10
91668.43930864262
 20
25326.4379414643
 30
0.0
 11
91668.43930864262
 21
25306.4379414643
 31
0.0
  0
LINE
  5
267
330
262
100
AcDbEntity
  8
标注
 62
     0
370
    -2
100
AcDbLine
 10
91668.43930864262
 20
25391.8379414643
 30
0.0
 11
91668.43930864262
 21
25444.61889384525
 31
0.0
  0
LINE
  5
268
330
262
100
AcDbEntity
  8
标注
 62
     0
370
    -2
100
AcDbLine
 10
91668.43930864262
 20
25346.4379414643
 30
0.0
 11
91668.43930864262
 21
25371.8379414643
 31
0.0
  0
SOLID
  5
269
330
262
100
AcDbEntity
  8
标注
 62
     0
100
AcDbTrace
 10
91665.10597530928
 20
25326.4379414643
 30
0.0
 11
91671.77264197594
 21
25326.4379414643
 31
0.0
 12
91668.43930864262
 22
25346.4379414643
 32
0.0
 13
91668.43930864262
 23
25346.4379414643
 33
0.0
  0
SOLID
  5
26A
330
262
100
AcDbEntity
  8
标注
 62
     0
100
AcDbTrace
 10
91665.10597530928
 20
25391.8379414643
 30
0.0
 11
91671.77264197594
 21
25391.8379414643
 31
0.0
 12
91668.43930864262
 22
25371.8379414643
 32
0.0
 13
91668.43930864262
 23
25371.8379414643
 33
0.0
  0
MTEXT
  5
26B
330
262
100
AcDbEntity
  8
标注
 62
     0
370
     9
100
AcDbMText
 10
91652.48692769024
 20
25428.22841765479
 30
0.0
 40
18.4
 41
0.0
 71
     5
 72
     1
  1
1"
 11
0.0000000000000001
 21
1.0
 31
0.0
 73
     1
 44
1.0
  0
POINT
  5
26C
330
262
100
AcDbEntity
  8
Defpoints
 62
     0
100
AcDbPoint
 10
91693.68179369937
 20
25346.4379414643
 30
0.0
  0
POINT
  5
26D
330
262
100
AcDbEntity
  8
Defpoints
 62
     0
100
AcDbPoint
 10
91693.68179369937
 20
25371.8379414643
 30
0.0
  0
POINT
  5
26E
330
262
100
AcDbEntity
  8
Defpoints
 62
     0
100
AcDbPoint
 10
91668.43930864262
 20
25371.8379414643
 30
0.0
  0
ENDBLK
  5
26F
330
262
100
AcDbEntity
  8
0
100
AcDbBlockEnd
  0
BLOCK
  5
271
330
270
100
AcDbEntity
  8
0
100
AcDbBlockBegin
  2
*D11
 70
     1
 10
0.0
 20
0.0
 30
0.0
  3
*D11
  1

  0
LINE
  5
272
330
270
100
AcDbEntity
  8
标注
 62
     0
370
    -2
100
AcDbLine
 10
91406.78179369936
 20
25227.68318990914
 30
0.0
 11
91365.85060643419
 21
25227.68318990914
 31
0.0
  0
LINE
  5
273
330
270
100
AcDbEntity
  8
标注
 62
     0
370
    -2
100
AcDbLine
 10
91432.18179369936
 20
24999.08318990915
 30
0.0
 11
91365.85060643419
 21
24999.08318990915
 31
0.0
  0
LINE
  5
274
330
270
100
AcDbEntity
  8
标注
 62
     0
370
    -2
100
AcDbLine
 10
91380.85060643419
 20
25209.68318990914
 30
0.0
 11
91380.85060643419
 21
25017.08318990914
 31
0.0
  0
SOLID
  5
275
330
270
100
AcDbEntity
  8
标注
 62
     0
100
AcDbTrace
 10
91377.8506064342
 20
25209.68318990914
 30
0.0
 11
91383.8506064342
 21
25209.68318990914
 31
0.0
 12
91380.85060643419
 22
25227.68318990914
 32
0.0
 13
91380.85060643419
 23
25227.68318990914
 33
0.0
  0
SOLID
  5
276
330
270
100
AcDbEntity
  8
标注
 62
     0
100
AcDbTrace
 10
91377.8506064342
 20
25017.08318990914
 30
0.0
 11
91383.8506064342
 21
25017.08318990914
 31
0.0
 12
91380.85060643419
 22
24999.08318990915
 32
0.0
 13
91380.85060643419
 23
24999.08318990915
 33
0.0
  0
MTEXT
  5
277
330
270
100
AcDbEntity
  8
标注
 62
     0
370
     9
100
AcDbMText
 10
91352.32203500562
 20
25113.38318990916
 30
0.0
 40
27.6
 41
0.0
 71
     5
 72
     1
  1
228.6 [9]
 11
0.0000000000000001
 21
1.0
 31
0.0
 73
     1
 44
1.0
  0
POINT
  5
278
330
270
100
AcDbEntity
  8
Defpoints
 62
     0
100
AcDbPoint
 10
91414.28179369937
 20
25227.68318990914
 30
0.0
  0
POINT
  5
279
330
270
100
AcDbEntity
  8
Defpoints
 62
     0
100
AcDbPoint
 10
91439.68179369936
 20
24999.08318990915
 30
0.0
  0
POINT
  5
27A
330
270
100
AcDbEntity
  8
Defpoints
 62
     0
100
AcDbPoint
 10
91380.85060643419
 20
24999.08318990915
 30
0.0
  0
ENDBLK
  5
27B
330
270
100
AcDbEntity
  8
0
100
AcDbBlockEnd
  0
BLOCK
  5
308
330
307
100
AcDbEntity
  8
0
100
AcDbBlockBegin
  2
*D13
 70
     1
 10
0.0
 20
0.0
 30
0.0
  3
*D13
  1

  0
LINE
  5
347
330
307
100
AcDbEntity
  8
标注
 62
     0
370
    -2
100
AcDbLine
 10
2262.900646007054
 20
1631.200688697603
 30
0.0
 11
2262.900646007054
 21
1663.291815269464
 31
0.0
  0
LINE
  5
348
330
307
100
AcDbEntity
  8
标注
 62
     0
370
    -2
100
AcDbLine
 10
2770.900646007054
 20
1630.796251983536
 30
0.0
 11
2770.900646007054
 21
1663.291815269464
 31
0.0
  0
LINE
  5
349
330
307
100
AcDbEntity
  8
标注
 62
     0
370
    -2
100
AcDbLine
 10
2280.900646007054
 20
1648.291815269464
 30
0.0
 11
2752.900646007054
 21
1648.291815269464
 31
0.0
  0
SOLID
  5
34A
330
307
100
AcDbEntity
  8
标注
 62
     0
100
AcDbTrace
 10
2280.900646007054
 20
1651.291815269464
 30
0.0
 11
2280.900646007054
 21
1645.291815269464
 31
0.0
 12
2262.900646007054
 22
1648.291815269464
 32
0.0
 13
2262.900646007054
 23
1648.291815269464
 33
0.0
  0
SOLID
  5
34B
330
307
100
AcDbEntity
  8
标注
 62
     0
100
AcDbTrace
 10
2752.900646007054
 20
1651.291815269464
 30
0.0
 11
2752.900646007054
 21
1645.291815269464
 31
0.0
 12
2770.900646007054
 22
1648.291815269464
 32
0.0
 13
2770.900646007054
 23
1648.291815269464
 33
0.0
  0
MTEXT
  5
34C
330
307
100
AcDbEntity
  8
标注
 62
     0
370
     9
100
AcDbMText
 10
2516.900646007054
 20
1672.811815269463
 30
0.0
 40
27.6
 41
0.0
 71
     5
 72
     1
  1
508 [20]
 73
     1
 44
1.0
  0
POINT
  5
34D
330
307
100
AcDbEntity
  8
Defpoints
 62
     0
100
AcDbPoint
 10
2262.900646007054
 20
1623.700688697603
 30
0.0
  0
POINT
  5
34E
330
307
100
AcDbEntity
  8
Defpoints
 62
     0
100
AcDbPoint
 10
2770.900646007054
 20
1623.296251983536
 30
0.0
  0
POINT
  5
34F
330
307
100
AcDbEntity
  8
Defpoints
 62
     0
100
AcDbPoint
 10
2770.900646007054
 20
1648.291815269464
 30
0.0
  0
ENDBLK
  5
309
330
307
100
AcDbEntity
  8
0
100
AcDbBlockEnd
  0
BLOCK
  5
314
330
313
100
AcDbEntity
  8
0
100
AcDbBlockBegin
  2
*D14
 70
     1
 10
0.0
 20
0.0
 30
0.0
  3
*D14
  1

  0
LINE
  5
35C
330
313
100
AcDbEntity
  8
标注
 62
     0
370
    -2
100
AcDbLine
 10
2230.000646007045
 20
1598.300688697609
 30
0.0
 11
2196.402243696853
 21
1598.300688697609
 31
0.0
  0
LINE
  5
35D
330
313
100
AcDbEntity
  8
标注
 62
     0
370
    -2
100
AcDbLine
 10
2230.000646007045
 20
1191.900688697607
 30
0.0
 11
2196.402243696853
 21
1191.900688697607
 31
0.0
  0
LINE
  5
35E
330
313
100
AcDbEntity
  8
标注
 62
     0
370
    -2
100
AcDbLine
 10
2211.402243696854
 20
1580.300688697609
 30
0.0
 11
2211.402243696854
 21
1209.900688697607
 31
0.0
  0
SOLID
  5
35F
330
313
100
AcDbEntity
  8
标注
 62
     0
100
AcDbTrace
 10
2208.402243696854
 20
1580.300688697609
 30
0.0
 11
2214.402243696854
 21
1580.300688697609
 31
0.0
 12
2211.402243696854
 22
1598.300688697609
 32
0.0
 13
2211.402243696854
 23
1598.300688697609
 33
0.0
  0
SOLID
  5
360
330
313
100
AcDbEntity
  8
标注
 62
     0
100
AcDbTrace
 10
2208.402243696854
 20
1209.900688697607
 30
0.0
 11
2214.402243696854
 21
1209.900688697607
 31
0.0
 12
2211.402243696854
 22
1191.900688697607
 32
0.0
 13
2211.402243696854
 23
1191.900688697607
 33
0.0
  0
MTEXT
  5
361
330
313
100
AcDbEntity
  8
标注
 62
     0
370
     9
100
AcDbMText
 10
2186.882243696853
 20
1395.100688697608
 30
0.0
 40
27.6
 41
0.0
 71
     5
 72
     1
  1
406.4 [16]
 11
0.0000000000000001
 21
1.0
 31
0.0
 73
     1
 44
1.0
  0
POINT
  5
362
330
313
100
AcDbEntity
  8
Defpoints
 62
     0
100
AcDbPoint
 10
2237.500646007045
 20
1598.300688697609
 30
0.0
  0
POINT
  5
363
330
313
100
AcDbEntity
  8
Defpoints
 62
     0
100
AcDbPoint
 10
2237.500646007045
 20
1191.900688697607
 30
0.0
  0
POINT
  5
364
330
313
100
AcDbEntity
  8
Defpoints
 62
     0
100
AcDbPoint
 10
2211.402243696854
 20
1191.900688697607
 30
0.0
  0
ENDBLK
  5
315
330
313
100
AcDbEntity
  8
0
100
AcDbBlockEnd
  0
BLOCK
  5
320
330
31F
100
AcDbEntity
  8
0
100
AcDbBlockBegin
  2
*D15
 70
     1
 10
0.0
 20
0.0
 30
0.0
  3
*D15
  1

  0
LINE
  5
387
330
31F
100
AcDbEntity
  8
标注
 62
     0
370
    -2
100
AcDbLine
 10
2237.500646007045
 20
1377.651133517009
 30
0.0
 11
2237.500646007045
 21
1333.220958557076
 31
0.0
  0
LINE
  5
388
330
31F
100
AcDbEntity
  8
标注
 62
     0
370
    -2
100
AcDbLine
 10
2262.900646007054
 20
1377.651133517009
 30
0.0
 11
2262.900646007054
 21
1333.220958557076
 31
0.0
  0
LINE
  5
389
330
31F
100
AcDbEntity
  8
标注
 62
     0
370
    -2
100
AcDbLine
 10
2217.500646007045
 20
1343.220958557076
 30
0.0
 11
2197.500646007045
 21
1343.220958557076
 31
0.0
  0
LINE
  5
38A
330
31F
100
AcDbEntity
  8
标注
 62
     0
370
    -2
100
AcDbLine
 10
2282.900646007054
 20
1343.220958557076
 30
0.0
 11
2333.958423784832
 21
1343.220958557076
 31
0.0
  0
LINE
  5
38B
330
31F
100
AcDbEntity
  8
标注
 62
     0
370
    -2
100
AcDbLine
 10
2237.500646007045
 20
1343.220958557076
 30
0.0
 11
2262.900646007054
 21
1343.220958557076
 31
0.0
  0
SOLID
  5
38C
330
31F
100
AcDbEntity
  8
标注
 62
     0
100
AcDbTrace
 10
2217.500646007045
 20
1346.554291890409
 30
0.0
 11
2217.500646007045
 21
1339.887625223743
 31
0.0
 12
2237.500646007045
 22
1343.220958557076
 32
0.0
 13
2237.500646007045
 23
1343.220958557076
 33
0.0
  0
SOLID
  5
38D
330
31F
100
AcDbEntity
  8
标注
 62
     0
100
AcDbTrace
 10
2282.900646007054
 20
1346.554291890409
 30
0.0
 11
2282.900646007054
 21
1339.887625223743
 31
0.0
 12
2262.900646007054
 22
1343.220958557076
 32
0.0
 13
2262.900646007054
 23
1343.220958557076
 33
0.0
  0
MTEXT
  5
38E
330
31F
100
AcDbEntity
  8
标注
 62
     0
370
     9
100
AcDbMText
 10
2318.429534895943
 20
1357.420958557076
 30
0.0
 40
18.4
 41
0.0
 71
     5
 72
     1
  1
1"
 73
     1
 44
1.0
  0
POINT
  5
38F
330
31F
100
AcDbEntity
  8
Defpoints
 62
     0
100
AcDbPoint
 10
2237.500646007045
 20
1382.651133517009
 30
0.0
  0
POINT
  5
390
330
31F
100
AcDbEntity
  8
Defpoints
 62
     0
100
AcDbPoint
 10
2262.900646007054
 20
1382.651133517009
 30
0.0
  0
POINT
  5
391
330
31F
100
AcDbEntity
  8
Defpoints
 62
     0
100
AcDbPoint
 10
2262.900646007054
 20
1343.220958557076
 30
0.0
  0
ENDBLK
  5
321
330
31F
100
AcDbEntity
  8
0
100
AcDbBlockEnd
  0
BLOCK
  5
32E
330
32D
100
AcDbEntity
  8
0
100
AcDbBlockBegin
  2
*D16
 70
     1
 10
0.0
 20
0.0
 30
0.0
  3
*D16
  1

  0
LINE
  5
330
330
32D
100
AcDbEntity
  8
标注
 62
     0
370
    -2
100
AcDbLine
 10
2511.900646007054
 20
1022.74593714245
 30
0.0
 11
2454.432340397997
 21
1022.74593714245
 31
0.0
  0
LINE
  5
331
330
32D
100
AcDbEntity
  8
标注
 62
     0
370
    -2
100
AcDbLine
 10
2511.900646007054
 20
1047.74593714245
 30
0.0
 11
2454.432340397997
 21
1047.74593714245
 31
0.0
  0
LINE
  5
332
330
32D
100
AcDbEntity
  8
标注
 62
     0
370
    -2
100
AcDbLine
 10
2464.432340397997
 20
1067.74593714245
 30
0.0
 11
2464.432340397997
 21
1087.74593714245
 31
0.0
  0
LINE
  5
333
330
32D
100
AcDbEntity
  8
标注
 62
     0
370
    -2
100
AcDbLine
 10
2464.432340397996
 20
1002.74593714245
 30
0.0
 11
2464.432340397996
 21
950.8265720630831
 31
0.0
  0
LINE
  5
334
330
32D
100
AcDbEntity
  8
标注
 62
     0
370
    -2
100
AcDbLine
 10
2464.432340397997
 20
1047.74593714245
 30
0.0
 11
2464.432340397996
 21
1022.74593714245
 31
0.0
  0
SOLID
  5
335
330
32D
100
AcDbEntity
  8
标注
 62
     0
100
AcDbTrace
 10
2461.099007064663
 20
1067.74593714245
 30
0.0
 11
2467.76567373133
 21
1067.74593714245
 31
0.0
 12
2464.432340397997
 22
1047.74593714245
 32
0.0
 13
2464.432340397997
 23
1047.74593714245
 33
0.0
  0
SOLID
  5
336
330
32D
100
AcDbEntity
  8
标注
 62
     0
100
AcDbTrace
 10
2461.099007064663
 20
1002.74593714245
 30
0.0
 11
2467.76567373133
 21
1002.74593714245
 31
0.0
 12
2464.432340397996
 22
1022.74593714245
 32
0.0
 13
2464.432340397996
 23
1022.74593714245
 33
0.0
  0
MTEXT
  5
337
330
32D
100
AcDbEntity
  8
标注
 62
     0
370
     9
100
AcDbMText
 10
2450.232340397997
 20
966.3554609519724
 30
0.0
 40
18.4
 41
0.0
 71
     5
 72
     1
  1
1"
 11
0.0000000000000001
 21
1.0
 31
0.0
 73
     1
 44
1.0
  0
POINT
  5
338
330
32D
100
AcDbEntity
  8
Defpoints
 62
     0
100
AcDbPoint
 10
2516.900646007054
 20
1022.74593714245
 30
0.0
  0
POINT
  5
339
330
32D
100
AcDbEntity
  8
Defpoints
 62
     0
100
AcDbPoint
 10
2516.900646007054
 20
1047.74593714245
 30
0.0
  0
POINT
  5
33A
330
32D
100
AcDbEntity
  8
Defpoints
 62
     0
100
AcDbPoint
 10
2464.432340397997
 20
1047.74593714245
 30
0.0
  0
ENDBLK
  5
32F
330
32D
100
AcDbEntity
  8
0
100
AcDbBlockEnd
  0
BLOCK
  5
33C
330
33B
100
AcDbEntity
  8
0
100
AcDbBlockBegin
  2
*D17
 70
     1
 10
0.0
 20
0.0
 30
0.0
  3
*D17
  1

  0
LINE
  5
400
330
33B
100
AcDbEntity
  8
标注
 62
     0
370
    -2
100
AcDbLine
 10
2237.500646007045
 20
1631.200688697603
 30
0.0
 11
2237.500646007045
 21
1728.510980840665
 31
0.0
  0
LINE
  5
401
330
33B
100
AcDbEntity
  8
标注
 62
     0
370
    -2
100
AcDbLine
 10
2796.300646007063
 20
1631.200688697603
 30
0.0
 11
2796.300646007063
 21
1728.510980840665
 31
0.0
  0
LINE
  5
402
330
33B
100
AcDbEntity
  8
标注
 62
     0
370
    -2
100
AcDbLine
 10
2255.500646007046
 20
1713.510980840665
 30
0.0
 11
2778.300646007063
 21
1713.510980840665
 31
0.0
  0
SOLID
  5
403
330
33B
100
AcDbEntity
  8
标注
 62
     0
100
AcDbTrace
 10
2255.500646007046
 20
1716.510980840665
 30
0.0
 11
2255.500646007046
 21
1710.510980840665
 31
0.0
 12
2237.500646007045
 22
1713.510980840665
 32
0.0
 13
2237.500646007045
 23
1713.510980840665
 33
0.0
  0
SOLID
  5
404
330
33B
100
AcDbEntity
  8
标注
 62
     0
100
AcDbTrace
 10
2778.300646007063
 20
1716.510980840665
 30
0.0
 11
2778.300646007063
 21
1710.510980840665
 31
0.0
 12
2796.300646007063
 22
1713.510980840665
 32
0.0
 13
2796.300646007063
 23
1713.510980840665
 33
0.0
  0
MTEXT
  5
405
330
33B
100
AcDbEntity
  8
标注
 62
     0
370
     9
100
AcDbMText
 10
2516.900646007054
 20
1738.030980840665
 30
0.0
 40
27.6
 41
0.0
 71
     5
 72
     1
  1
558.8 [22]
 73
     1
 44
1.0
  0
POINT
  5
406
330
33B
100
AcDbEntity
  8
Defpoints
 62
     0
100
AcDbPoint
 10
2237.500646007045
 20
1623.700688697603
 30
0.0
  0
POINT
  5
407
330
33B
100
AcDbEntity
  8
Defpoints
 62
     0
100
AcDbPoint
 10
2796.300646007063
 20
1623.700688697603
 30
0.0
  0
POINT
  5
408
330
33B
100
AcDbEntity
  8
Defpoints
 62
     0
100
AcDbPoint
 10
2796.300646007063
 20
1713.510980840665
 30
0.0
  0
ENDBLK
  5
33D
330
33B
100
AcDbEntity
  8
0
100
AcDbBlockEnd
  0
BLOCK
  5
351
330
350
100
AcDbEntity
  8
0
100
AcDbBlockBegin
  2
*D18
 70
     1
 10
0.0
 20
0.0
 30
0.0
  3
*D18
  1

  0
LINE
  5
353
330
350
100
AcDbEntity
  8
标注
 62
     0
370
    -2
100
AcDbLine
 10
2230.000646007045
 20
1623.700688697603
 30
0.0
 11
2128.712209350664
 21
1623.700688697603
 31
0.0
  0
LINE
  5
354
330
350
100
AcDbEntity
  8
标注
 62
     0
370
    -2
100
AcDbLine
 10
2230.000646007045
 20
1166.500688697606
 30
0.0
 11
2128.712209350664
 21
1166.500688697606
 31
0.0
  0
LINE
  5
355
330
350
100
AcDbEntity
  8
标注
 62
     0
370
    -2
100
AcDbLine
 10
2143.712209350665
 20
1605.700688697603
 30
0.0
 11
2143.712209350665
 21
1184.500688697606
 31
0.0
  0
SOLID
  5
356
330
350
100
AcDbEntity
  8
标注
 62
     0
100
AcDbTrace
 10
2140.712209350665
 20
1605.700688697603
 30
0.0
 11
2146.712209350665
 21
1605.700688697603
 31
0.0
 12
2143.712209350665
 22
1623.700688697603
 32
0.0
 13
2143.712209350665
 23
1623.700688697603
 33
0.0
  0
SOLID
  5
357
330
350
100
AcDbEntity
  8
标注
 62
     0
100
AcDbTrace
 10
2140.712209350665
 20
1184.500688697606
 30
0.0
 11
2146.712209350665
 21
1184.500688697606
 31
0.0
 12
2143.712209350665
 22
1166.500688697606
 32
0.0
 13
2143.712209350665
 23
1166.500688697606
 33
0.0
  0
MTEXT
  5
358
330
350
100
AcDbEntity
  8
标注
 62
     0
370
     9
100
AcDbMText
 10
2119.192209350664
 20
1382.400688697622
 30
0.0
 40
27.6
 41
0.0
 71
     5
 72
     1
  1
457.2 [18]
 11
0.0000000000000001
 21
1.0
 31
0.0
 73
     1
 44
1.0
  0
POINT
  5
359
330
350
100
AcDbEntity
  8
Defpoints
 62
     0
100
AcDbPoint
 10
2237.500646007045
 20
1623.700688697603
 30
0.0
  0
POINT
  5
35A
330
350
100
AcDbEntity
  8
Defpoints
 62
     0
100
AcDbPoint
 10
2237.500646007045
 20
1166.500688697606
 30
0.0
  0
POINT
  5
35B
330
350
100
AcDbEntity
  8
Defpoints
 62
     0
100
AcDbPoint
 10
2143.712209350665
 20
1166.500688697606
 30
0.0
  0
ENDBLK
  5
352
330
350
100
AcDbEntity
  8
0
100
AcDbBlockEnd
  0
BLOCK
  5
366
330
365
100
AcDbEntity
  8
0
100
AcDbBlockBegin
  2
*D19
 70
     1
 10
0.0
 20
0.0
 30
0.0
  3
*D19
  1

  0
LINE
  5
368
330
365
100
AcDbEntity
  8
标注
 62
     0
370
    -2
100
AcDbLine
 10
2509.931824533518
 20
1478.300688697609
 30
0.0
 11
2441.811668262062
 21
1478.300688697609
 31
0.0
  0
LINE
  5
369
330
365
100
AcDbEntity
  8
标注
 62
     0
370
    -2
100
AcDbLine
 10
2509.931824533518
 20
1598.300688697609
 30
0.0
 11
2441.811668262062
 21
1598.300688697609
 31
0.0
  0
LINE
  5
36A
330
365
100
AcDbEntity
  8
标注
 62
     0
370
    -2
100
AcDbLine
 10
2451.811668262062
 20
1498.300688697609
 30
0.0
 11
2451.811668262062
 21
1578.300688697609
 31
0.0
  0
SOLID
  5
36B
330
365
100
AcDbEntity
  8
标注
 62
     0
100
AcDbTrace
 10
2448.478334928729
 20
1498.300688697609
 30
0.0
 11
2455.145001595396
 21
1498.300688697609
 31
0.0
 12
2451.811668262062
 22
1478.300688697609
 32
0.0
 13
2451.811668262062
 23
1478.300688697609
 33
0.0
  0
SOLID
  5
36C
330
365
100
AcDbEntity
  8
标注
 62
     0
100
AcDbTrace
 10
2448.478334928729
 20
1578.300688697609
 30
0.0
 11
2455.145001595396
 21
1578.300688697609
 31
0.0
 12
2451.811668262062
 22
1598.300688697609
 32
0.0
 13
2451.811668262062
 23
1598.300688697609
 33
0.0
  0
MTEXT
  5
36D
330
365
100
AcDbEntity
  8
标注
 62
     0
370
     9
100
AcDbMText
 10
2437.611668262062
 20
1538.300688697609
 30
0.0
 40
18.4
 41
0.0
 71
     5
 72
     1
  1
4.7"
 11
0.0000000000000001
 21
1.0
 31
0.0
 73
     1
 44
1.0
  0
POINT
  5
36E
330
365
100
AcDbEntity
  8
Defpoints
 62
     0
100
AcDbPoint
 10
2514.931824533518
 20
1478.300688697609
 30
0.0
  0
POINT
  5
36F
330
365
100
AcDbEntity
  8
Defpoints
 62
     0
100
AcDbPoint
 10
2514.931824533518
 20
1598.300688697609
 30
0.0
  0
POINT
  5
370
330
365
100
AcDbEntity
  8
Defpoints
 62
     0
100
AcDbPoint
 10
2451.811668262062
 20
1598.300688697609
 30
0.0
  0
ENDBLK
  5
367
330
365
100
AcDbEntity
  8
0
100
AcDbBlockEnd
  0
BLOCK
  5
372
330
371
100
AcDbEntity
  8
0
100
AcDbBlockBegin
  2
*D20
 70
     1
 10
0.0
 20
0.0
 30
0.0
  3
*D20
  1

  0
LINE
  5
3AC
330
371
100
AcDbEntity
  8
标注
 62
     0
370
    -2
100
AcDbLine
 10
2346.266199677752
 20
1422.541643669977
 30
0.0
 11
2440.399056226827
 21
1453.66095557119
 31
0.0
  0
LINE
  5
3AD
330
371
100
AcDbEntity
  8
标注
 62
     0
370
    -2
100
AcDbLine
 10
2589.464592840158
 20
1502.940421824011
 30
0.0
 11
2608.453833173073
 21
1509.218060837112
 31
0.0
  0
MTEXT
  5
3AE
102
{ACAD_XDICTIONARY
360
443
102
}
330
371
100
AcDbEntity
  8
标注
 62
     0
370
     9
100
AcDbMText
 10
2379.158297677322
 20
1449.118142737105
 30
0.0
 40
18.4
 41
0.0
 71
     5
 72
     1
  1
\U+22054.6"
 11
0.949462016645741
 21
0.313881950655023
 31
0.0
 73
     1
 44
1.0
  0
LINE
  5
3AF
330
371
100
AcDbEntity
  8
标注
 62
     0
370
    -2
100
AcDbLine
 10
2570.475352507243
 20
1496.662782810911
 30
0.0
 11
2459.388296559742
 21
1459.93859458429
 31
0.0
  0
SOLID
  5
3B0
330
371
100
AcDbEntity
  8
标注
 62
     0
100
AcDbTrace
 10
2588.418319671307
 20
1506.105295212831
 30
0.0
 11
2590.510866009008
 21
1499.775548435192
 31
0.0
 12
2570.475352507243
 22
1496.662782810911
 32
0.0
 13
2570.475352507243
 23
1496.662782810911
 33
0.0
  0
SOLID
  5
3B1
330
371
100
AcDbEntity
  8
标注
 62
     0
100
AcDbTrace
 10
2439.352783057977
 20
1456.825828960009
 30
0.0
 11
2441.445329395677
 21
1450.49608218237
 31
0.0
 12
2459.388296559742
 22
1459.93859458429
 32
0.0
 13
2459.388296559742
 23
1459.93859458429
 33
0.0
  0
POINT
  5
3B2
330
371
100
AcDbEntity
  8
Defpoints
 62
     0
100
AcDbPoint
 10
2459.388296559742
 20
1459.93859458429
 30
0.0
  0
POINT
  5
3B3
330
371
100
AcDbEntity
  8
Defpoints
 62
     0
100
AcDbPoint
 10
2570.475352507243
 20
1496.662782810911
 30
0.0
  0
ENDBLK
  5
373
330
371
100
AcDbEntity
  8
0
100
AcDbBlockEnd
  0
BLOCK
  5
37D
330
37C
100
AcDbEntity
  8
0
100
AcDbBlockBegin
  2
*D21
 70
     1
 10
0.0
 20
0.0
 30
0.0
  3
*D21
  1

  0
LINE
  5
3B4
330
37C
100
AcDbEntity
  8
标注
 62
     0
370
    -2
100
AcDbLine
 10
2392.850680230528
 20
1368.577229317103
 30
0.0
 11
2466.588265119878
 21
1434.850714437319
 31
0.0
  0
LINE
  5
3B5
330
37C
100
AcDbEntity
  8
标注
 62
     0
370
    -2
100
AcDbLine
 10
2563.275383947197
 20
1521.750662957933
 30
0.0
 11
2578.15032530524
 21
1535.119885807254
 31
0.0
  0
MTEXT
  5
3B6
102
{ACAD_XDICTIONARY
360
445
102
}
330
37C
100
AcDbEntity
  8
标注
 62
     0
370
     9
100
AcDbMText
 10
2412.315820892054
 20
1406.117989998065
 30
0.0
 40
18.4
 41
0.0
 71
     5
 72
     1
  1
\U+22053.5"
 11
0.7437470679021558
 21
0.6684611424659972
 31
0.0
 73
     1
 44
1.0
  0
LINE
  5
3B7
330
37C
100
AcDbEntity
  8
标注
 62
     0
370
    -2
100
AcDbLine
 10
2548.400442589154
 20
1508.381440108614
 30
0.0
 11
2481.463206477921
 21
1448.219937286639
 31
0.0
  0
SOLID
  5
3B8
330
37C
100
AcDbEntity
  8
标注
 62
     0
100
AcDbTrace
 10
2561.047180138977
 20
1524.229819850941
 30
0.0
 11
2565.503587755417
 21
1519.271506064926
 31
0.0
 12
2548.400442589154
 22
1508.381440108614
 32
0.0
 13
2548.400442589154
 23
1508.381440108614
 33
0.0
  0
SOLID
  5
3B9
330
37C
100
AcDbEntity
  8
标注
 62
     0
100
AcDbTrace
 10
2464.360061311658
 20
1437.329871330326
 30
0.0
 11
2468.816468928098
 21
1432.371557544312
 31
0.0
 12
2481.463206477921
 22
1448.219937286639
 32
0.0
 13
2481.463206477921
 23
1448.219937286639
 33
0.0
  0
POINT
  5
3BA
330
37C
100
AcDbEntity
  8
Defpoints
 62
     0
100
AcDbPoint
 10
2481.463206477921
 20
1448.219937286639
 30
0.0
  0
POINT
  5
3BB
330
37C
100
AcDbEntity
  8
Defpoints
 62
     0
100
AcDbPoint
 10
2548.400442589154
 20
1508.381440108614
 30
0.0
  0
ENDBLK
  5
37E
330
37C
100
AcDbEntity
  8
0
100
AcDbBlockEnd
  0
BLOCK
  5
393
330
392
100
AcDbEntity
  8
0
100
AcDbBlockBegin
  2
*D22
 70
     1
 10
0.0
 20
0.0
 30
0.0
  3
*D22
  1

  0
LINE
  5
395
330
392
100
AcDbEntity
  8
标注
 62
     0
370
    -2
100
AcDbLine
 10
2511.900646007054
 20
1166.500688697606
 30
0.0
 11
2481.658160950292
 21
1166.500688697606
 31
0.0
  0
LINE
  5
396
330
392
100
AcDbEntity
  8
标注
 62
     0
370
    -2
100
AcDbLine
 10
2511.900646007054
 20
1191.900688697607
 30
0.0
 11
2481.658160950292
 21
1191.900688697607
 31
0.0
  0
LINE
  5
397
330
392
100
AcDbEntity
  8
标注
 62
     0
370
    -2
100
AcDbLine
 10
2491.658160950292
 20
1146.500688697606
 30
0.0
 11
2491.658160950292
 21
1126.500688697606
 31
0.0
  0
LINE
  5
398
330
392
100
AcDbEntity
  8
标注
 62
     0
370
    -2
100
AcDbLine
 10
2491.658160950292
 20
1211.900688697608
 30
0.0
 11
2491.658160950292
 21
1262.958466475385
 31
0.0
  0
LINE
  5
399
330
392
100
AcDbEntity
  8
标注
 62
     0
370
    -2
100
AcDbLine
 10
2491.658160950292
 20
1166.500688697606
 30
0.0
 11
2491.658160950292
 21
1191.900688697607
 31
0.0
  0
SOLID
  5
39A
330
392
100
AcDbEntity
  8
标注
 62
     0
100
AcDbTrace
 10
2488.324827616958
 20
1146.500688697606
 30
0.0
 11
2494.991494283626
 21
1146.500688697606
 31
0.0
 12
2491.658160950292
 22
1166.500688697606
 32
0.0
 13
2491.658160950292
 23
1166.500688697606
 33
0.0
  0
SOLID
  5
39B
330
392
100
AcDbEntity
  8
标注
 62
     0
100
AcDbTrace
 10
2488.324827616958
 20
1211.900688697608
 30
0.0
 11
2494.991494283626
 21
1211.900688697608
 31
0.0
 12
2491.658160950292
 22
1191.900688697607
 32
0.0
 13
2491.658160950292
 23
1191.900688697607
 33
0.0
  0
MTEXT
  5
39C
330
392
100
AcDbEntity
  8
标注
 62
     0
370
     9
100
AcDbMText
 10
2477.458160950292
 20
1247.429577586496
 30
0.0
 40
18.4
 41
0.0
 71
     5
 72
     1
  1
1"
 11
0.0000000000000001
 21
1.0
 31
0.0
 73
     1
 44
1.0
  0
POINT
  5
39D
330
392
100
AcDbEntity
  8
Defpoints
 62
     0
100
AcDbPoint
 10
2516.900646007054
 20
1166.500688697606
 30
0.0
  0
POINT
  5
39E
330
392
100
AcDbEntity
  8
Defpoints
 62
     0
100
AcDbPoint
 10
2516.900646007054
 20
1191.900688697607
 30
0.0
  0
POINT
  5
39F
330
392
100
AcDbEntity
  8
Defpoints
 62
     0
100
AcDbPoint
 10
2491.658160950292
 20
1191.900688697607
 30
0.0
  0
ENDBLK
  5
394
330
392
100
AcDbEntity
  8
0
100
AcDbBlockEnd
  0
BLOCK
  5
3A1
330
3A0
100
AcDbEntity
  8
0
100
AcDbBlockBegin
  2
*D23
 70
     1
 10
0.0
 20
0.0
 30
0.0
  3
*D23
  1

  0
LINE
  5
3A3
330
3A0
100
AcDbEntity
  8
标注
 62
     0
370
    -2
100
AcDbLine
 10
2230.000646007045
 20
1047.74593714245
 30
0.0
 11
2189.069458741872
 21
1047.74593714245
 31
0.0
  0
LINE
  5
3A4
330
3A0
100
AcDbEntity
  8
标注
 62
     0
370
    -2
100
AcDbLine
 10
2255.40064600704
 20
819.1459371424516
 30
0.0
 11
2189.069458741871
 21
819.1459371424516
 31
0.0
  0
LINE
  5
3A5
330
3A0
100
AcDbEntity
  8
标注
 62
     0
370
    -2
100
AcDbLine
 10
2204.069458741872
 20
1029.74593714245
 30
0.0
 11
2204.069458741871
 21
837.1459371424517
 31
0.0
  0
SOLID
  5
3A6
330
3A0
100
AcDbEntity
  8
标注
 62
     0
100
AcDbTrace
 10
2201.069458741871
 20
1029.74593714245
 30
0.0
 11
2207.069458741872
 21
1029.74593714245
 31
0.0
 12
2204.069458741872
 22
1047.74593714245
 32
0.0
 13
2204.069458741872
 23
1047.74593714245
 33
0.0
  0
SOLID
  5
3A7
330
3A0
100
AcDbEntity
  8
标注
 62
     0
100
AcDbTrace
 10
2201.069458741871
 20
837.1459371424517
 30
0.0
 11
2207.069458741871
 21
837.1459371424517
 31
0.0
 12
2204.069458741871
 22
819.1459371424516
 32
0.0
 13
2204.069458741871
 23
819.1459371424516
 33
0.0
  0
MTEXT
  5
3A8
330
3A0
100
AcDbEntity
  8
标注
 62
     0
370
     9
100
AcDbMText
 10
2179.549458741871
 20
933.4459371424513
 30
0.0
 40
27.6
 41
0.0
 71
     5
 72
     1
  1
228.6 [9]
 11
0.0000000000000001
 21
1.0
 31
0.0
 73
     1
 44
1.0
  0
POINT
  5
3A9
330
3A0
100
AcDbEntity
  8
Defpoints
 62
     0
100
AcDbPoint
 10
2237.500646007045
 20
1047.74593714245
 30
0.0
  0
POINT
  5
3AA
330
3A0
100
AcDbEntity
  8
Defpoints
 62
     0
100
AcDbPoint
 10
2262.900646007039
 20
819.1459371424516
 30
0.0
  0
POINT
  5
3AB
330
3A0
100
AcDbEntity
  8
Defpoints
 62
     0
100
AcDbPoint
 10
2204.069458741871
 20
819.1459371424516
 30
0.0
  0
ENDBLK
  5
3A2
330
3A0
100
AcDbEntity
  8
0
100
AcDbBlockEnd
  0
ENDSEC
  0
SECTION
  2
ENTITIES
  0
LWPOLYLINE
  5
2D5
330
1F
100
AcDbEntity
  8
外框线1
 62
     0
370
     9
100
AcDbPolyline
 90
        4
 70
     1
 43
0.0
 10
2262.900646007039
 20
1191.900688697607
 10
2770.900646007069
 20
1191.900688697607
 10
2770.900646007069
 20
1598.300688697602
 10
2262.900646007039
 20
1598.300688697602
  0
DIMENSION
  5
2E3
330
1F
100
AcDbEntity
  8
标注
370
     9
100
AcDbDimension
  2
*D13
 10
2770.900646007054
 20
1648.291815269464
 30
0.0
 11
2516.900646007054
 21
1672.811815269463
 31
0.0
 70
    32
 71
     5
 42
508.0
  3
1-12
100
AcDbAlignedDimension
 13
2262.900646007054
 23
1623.700688697603
 33
0.0
 14
2770.900646007054
 24
1623.296251983536
 34
0.0
100
AcDbRotatedDimension
  0
DIMENSION
  5
2E7
330
1F
100
AcDbEntity
  8
标注
370
     9
100
AcDbDimension
  2
*D14
 10
2211.402243696854
 20
1191.900688697607
 30
0.0
 11
2186.882243696853
 21
1395.100688697608
 31
0.0
 70
    32
 71
     5
 42
406.4000000000014
  3
1-12
100
AcDbAlignedDimension
 13
2237.500646007045
 23
1598.300688697609
 33
0.0
 14
2237.500646007045
 24
1191.900688697607
 34
0.0
 50
90.0
100
AcDbRotatedDimension
  0
ENDSEC
  0
SECTION
  2
OBJECTS
  0
DICTIONARY
  5
C
330
0
100
AcDbDictionary
281
     1
  3
ACAD_COLOR
350
6B
  3
ACAD_GROUP
350
D
  3
ACAD_LAYOUT
350
1A
  3
ACAD_MATERIAL
350
6A
  3
ACAD_MLEADERSTYLE
350
12D
  3
ACAD_MLINESTYLE
350
17
  3
ACAD_PLOTSETTINGS
350
19
  3
ACAD_PLOTSTYLENAME
350
E
  3
ACAD_SCALELIST
350
10C
  3
ACAD_TABLESTYLE
350
7E
  3
ACAD_VISUALSTYLE
350
EF
  3
ACDB_RECOMPOSE_DATA
350
412
  3
AcDbVariableDictionary
350
5E
  0
DICTIONARY
  5
28A
330
2
100
AcDbDictionary
280
     1
281
     1
  3
ACAD_LAYERSTATES
360
28B
  0
DICTIONARY
  5
13C
330
10
100
AcDbDictionary
280
     1
281
     1
  0
DICTIONARY
  5
1CE
330
1F
100
AcDbDictionary
280
     1
281
     1
  0
DICTIONARY
  5
43F
330
250
100
AcDbDictionary
280
     1
281
     1
  3
ACAD_MTEXT_2008_RT
360
440
  0
DICTIONARY
  5
441
330
25B
100
AcDbDictionary
280
     1
281
     1
  3
ACAD_MTEXT_2008_RT
360
442
  0
DICTIONARY
  5
443
330
3AE
100
AcDbDictionary
280
     1
281
     1
  3
ACAD_MTEXT_2008_RT
360
444
  0
DICTIONARY
  5
445
330
3B6
100
AcDbDictionary
280
     1
281
     1
  3
ACAD_MTEXT_2008_RT
360
446
  0
DICTIONARY
  5
6B
102
{ACAD_REACTORS
330
C
102
}
330
C
100
AcDbDictionary
281
     1
  0
DICTIONARY
  5
D
102
{ACAD_REACTORS
330
C
102
}
330
C
100
AcDbDictionary
281
     1
  0
DICTIONARY
  5
1A
102
{ACAD_REACTORS
330
C
102
}
330
C
100
AcDbDictionary
281
     1
  3
Model
350
22
  3
布局1
350
D3
  3
布局2
350
D7
  0
DICTIONARY
  5
6A
102
{ACAD_REACTORS
330
C
102
}
330
C
100
AcDbDictionary
281
     1
  3
ByBlock
350
ED
  3
ByLayer
350
EC
  3
Global
350
EE
  0
DICTIONARY
  5
12D
102
{ACAD_REACTORS
330
C
102
}
330
C
100
AcDbDictionary
281
     1
  3
Annotative
350
13B
  3
Standard
350
12E
  0
DICTIONARY
  5
17
102
{ACAD_REACTORS
330
C
102
}
330
C
100
AcDbDictionary
281
     1
  3
Standard
350
18
  0
DICTIONARY
  5
19
102
{ACAD_REACTORS
330
C
102
}
330
C
100
AcDbDictionary
281
     1
  0
ACDBDICTIONARYWDFLT
  5
E
102
{ACAD_REACTORS
330
C
102
}
330
C
100
AcDbDictionary
281
     1
  3
Normal
350
F
100
AcDbDictionaryWithDefault
340
F
  0
DICTIONARY
  5
10C
102
{ACAD_REACTORS
330
C
102
}
330
C
100
AcDbDictionary
281
     1
  3
A0
350
10D
  3
A1
350
1BE
  3
A2
350
1BF
  3
A3
350
1C0
  3
A4
350
1C1
  3
A5
350
1C2
  3
A6
350
1C3
  3
A7
350
1C4
  3
A8
350
1C5
  3
A9
350
1C6
  3
B0
350
1C7
  3
B1
350
1C8
  3
B2
350
1C9
  3
B3
350
1CA
  3
B4
350
1CB
  3
B5
350
1CC
  3
B6
350
1CD
  0
DICTIONARY
  5
7E
102
{ACAD_REACTORS
330
C
102
}
330
C
100
AcDbDictionary
281
     1
  3
Standard
350
7F
  0
DICTIONARY
  5
EF
102
{ACAD_REACTORS
330
C
102
}
330
C
100
AcDbDictionary
281
     1
  3
2dWireframe
350
F5
  3
3D Hidden
350
F7
  3
3dWireframe
350
F6
  3
Basic
350
F4
  3
Brighten
350
FB
  3
ColorChange
350
FF
  3
Conceptual
350
F8
  3
Dim
350
FA
  3
EdgeColorOff
350
1E6
  3
Facepattern
350
FE
  3
Flat
350
F0
  3
FlatWithEdges
350
F1
  3
Gouraud
350
F2
  3
GouraudWithEdges
350
F3
  3
JitterOff
350
1E4
  3
Linepattern
350
FD
  3
OverhangOff
350
1E5
  3
Realistic
350
F9
  3
Thicken
350
FC
  0
XRECORD
  5
412
102
{ACAD_REACTORS
330
C
102
}
330
C
100
AcDbXrecord
280
     1
 90
        1
330
7F
  0
DICTIONARY
  5
5E
102
{ACAD_REACTORS
330
C
102
}
330
C
100
AcDbDictionary
281
     1
  3
CANNOSCALE
350
146
  3
CMLEADERSTYLE
350
145
  3
CTABLESTYLE
350
84
  3
DIMASSOC
350
5F
  3
HIDETEXT
350
63
  3
LAYEREVAL
350
1AE
  3
LAYERNOTIFY
350
1AF
  3
LIGHTINGUNITS
350
3BD
  3
MSLTSCALE
350
3BC
  3
PSOLHEIGHT
350
3BF
  3
PSOLWIDTH
350
3BE
  3
XCLIPFRAME
350
3C0
  0
DICTIONARY
  5
28B
102
{ACAD_REACTORS
330
28A
102
}
330
28A
100
AcDbDictionary
281
     1
  0
XRECORD
  5
440
102
{ACAD_REACTORS
330
43F
102
}
330
43F
100
AcDbXrecord
280
     1
 40
3244.0
  1
\U+22054.6"
  0
XRECORD
  5
442
102
{ACAD_REACTORS
330
441
102
}
330
441
100
AcDbXrecord
280
     1
 40
3226.0
  1
\U+22053.5"
  0
XRECORD
  5
444
102
{ACAD_REACTORS
330
443
102
}
330
443
100
AcDbXrecord
280
     1
 40
3244.0
  1
\U+22054.6"
  0
XRECORD
  5
446
102
{ACAD_REACTORS
330
445
102
}
330
445
100
AcDbXrecord
280
     1
 40
3226.0
  1
\U+22053.5"
  0
LAYOUT
  5
22
102
{ACAD_REACTORS
330
1A
102
}
330
1A
100
AcDbPlotSettings
  1

  2
none_device
  4
ISO_A4_(210.00_x_297.00_MM)
  6

 40
7.5
 41
20.0
 42
7.5
 43
20.0
 44
210.0
 45
297.0
 46
11.54999923706054
 47
-13.65000009536743
 48
0.0
 49
0.0
140
0.0
141
0.0
142
1.0
143
8.704084754739808
 70
 11952
 72
     1
 73
     0
 74
     0
  7

 75
     0
147
0.1148885871608098
 76
     0
 77
     2
 78
   300
148
0.0
149
0.0
100
AcDbLayout
  1
Model
 70
     1
 71
     0
 10
0.0
 20
0.0
 11
12.0
 21
9.0
 12
0.0
 22
0.0
 32
0.0
 14
0.0
 24
0.0
 34
0.0
 15
0.0
 25
0.0
 35
0.0
146
0.0
 13
0.0
 23
0.0
 33
0.0
 16
1.0
 26
0.0
 36
0.0
 17
0.0
 27
1.0
 37
0.0
 76
     0
330
1F
331
EA
1001
ACAD_PSEXT
1000
None
1000
None
1000
Not applicable
1000
The layout will not be plotted unless a new plotter configuration name is selected.
1070
     0
  0
LAYOUT
  5
D3
102
{ACAD_REACTORS
330
1A
102
}
330
1A
100
AcDbPlotSettings
  1

  2
C:\Documents and Settings\basas\Application Data\Autodesk\AutoCAD 2005\R16.1\enu\plotters\Default Windows System Printer.pc3
  4

  6

 40
0.0
 41
0.0
 42
0.0
 43
0.0
 44
0.0
 45
0.0
 46
0.0
 47
0.0
 48
0.0
 49
0.0
140
0.0
141
0.0
142
1.0
143
1.0
 70
   688
 72
     0
 73
     0
 74
     5
  7

 75
    16
147
1.0
 76
     0
 77
     2
 78
   300
148
0.0
149
0.0
100
AcDbLayout
  1
布局1
 70
     1
 71
     1
 10
0.0
 20
0.0
 11
12.0
 21
9.0
 12
0.0
 22
0.0
 32
0.0
 14
0.0
 24
0.0
 34
0.0
 15
0.0
 25
0.0
 35
0.0
146
0.0
 13
0.0
 23
0.0
 33
0.0
 16
1.0
 26
0.0
 36
0.0
 17
0.0
 27
1.0
 37
0.0
 76
     0
330
D2
  0
LAYOUT
  5
D7
102
{ACAD_REACTORS
330
1A
102
}
330
1A
100
AcDbPlotSettings
  1

  2
C:\Documents and Settings\basas\Application Data\Autodesk\AutoCAD 2005\R16.1\enu\plotters\Default Windows System Printer.pc3
  4

  6

 40
0.0
 41
0.0
 42
0.0
 43
0.0
 44
0.0
 45
0.0
 46
0.0
 47
0.0
 48
0.0
 49
0.0
140
0.0
141
0.0
142
1.0
143
1.0
 70
   688
 72
     0
 73
     0
 74
     5
  7

 75
    16
147
1.0
 76
     0
 77
     2
 78
   300
148
0.0
149
0.0
100
AcDbLayout
  1
布局2
 70
     1
 71
     2
 10
0.0
 20
0.0
 11
12.0
 21
9.0
 12
0.0
 22
0.0
 32
0.0
 14
0.0
 24
0.0
 34
0.0
 15
0.0
 25
0.0
 35
0.0
146
0.0
 13
0.0
 23
0.0
 33
0.0
 16
1.0
 26
0.0
 36
0.0
 17
0.0
 27
1.0
 37
0.0
 76
     0
330
D6
  0
MATERIAL
  5
ED
102
{ACAD_XDICTIONARY
360
416
102
}
102
{ACAD_REACTORS
330
6A
102
}
330
6A
100
AcDbMaterial
  1
ByBlock
  0
MATERIAL
  5
EC
102
{ACAD_XDICTIONARY
360
414
102
}
102
{ACAD_REACTORS
330
6A
102
}
330
6A
100
AcDbMaterial
  1
ByLayer
  0
MATERIAL
  5
EE
102
{ACAD_XDICTIONARY
360
173
102
}
102
{ACAD_REACTORS
330
6A
102
}
330
6A
100
AcDbMaterial
  1
Global
 43
0.0007999999797903
 43
0.0
 43
0.0
 43
0.0
 43
0.0
 43
0.0007999999797903
 43
0.0
 43
0.0
 43
0.0
 43
0.0
 43
1.0
 43
0.0
 43
0.0
 43
0.0
 43
0.0
 43
1.0
 49
0.0007999999797903
 49
0.0
 49
0.0
 49
0.0
 49
0.0
 49
0.0007999999797903
 49
0.0
 49
0.0
 49
0.0
 49
0.0
 49
1.0
 49
0.0
 49
0.0
 49
0.0
 49
0.0
 49
1.0
142
0.0007999999797903
142
0.0
142
0.0
142
0.0
142
0.0
142
0.0007999999797903
142
0.0
142
0.0
142
0.0
142
0.0
142
1.0
142
0.0
142
0.0
142
0.0
142
0.0
142
1.0
144
0.0007999999797903
144
0.0
144
0.0
144
0.0
144
0.0
144
0.0007999999797903
144
0.0
144
0.0
144
0.0
144
0.0
144
1.0
144
0.0
144
0.0
144
0.0
144
0.0
144
1.0
1001
ACAD
1070
    -1
1070
     3
1070
     0
1000

1071
        0
1070
     0
  0
MLEADERSTYLE
  5
13B
102
{ACAD_REACTORS
330
12D
102
}
330
12D
100
AcDbMLeaderStyle
170
     2
171
     1
172
     0
 90
        2
 40
0.0
 41
0.0
173
     1
 91
-1056964608
340
14
 92
       -2
290
     1
 42
2.0
291
     1
 43
8.0
  3
Standard
 44
4.0
300

342
11
174
     1
178
     1
175
     1
176
     0
 93
-1056964608
 45
4.0
292
     0
297
     0
 46
4.0
 94
-1056964608
 47
1.0
 49
1.0
140
1.0
293
     1
141
0.0
294
     1
177
     0
142
1.0
295
     0
296
     1
143
3.75
1001
ACAD_MLEADERVER
1070
     2
  0
MLEADERSTYLE
  5
12E
102
{ACAD_REACTORS
330
12D
102
}
330
12D
100
AcDbMLeaderStyle
170
     2
171
     1
172
     0
 90
        2
 40
0.0
 41
0.0
173
     1
 91
-1056964608
340
14
 92
       -2
290
     1
 42
2.0
291
     1
 43
8.0
  3
Standard
 44
4.0
300

342
11
174
     1
178
     1
175
     1
176
     0
 93
-1056964608
 45
4.0
292
     0
297
     0
 46
4.0
 94
-1056964608
 47
1.0
 49
1.0
140
1.0
293
     1
141
0.0
294
     1
177
     0
142
1.0
295
     0
296
     0
143
3.75
1001
ACAD_MLEADERVER
1070
     2
  0
MLINESTYLE
  5
18
102
{ACAD_REACTORS
330
17
102
}
330
17
100
AcDbMlineStyle
  2
STANDARD
 70
     0
  3

 62
   256
 51
90.0
 52
90.0
 71
     2
 49
0.5
 62
   256
  6
BYLAYER
 49
-0.5
 62
   256
  6
BYLAYER
  0
ACDBPLACEHOLDER
  5
F
102
{ACAD_REACTORS
330
E
102
}
330
E
  0
SCALE
  5
10D
102
{ACAD_REACTORS
330
10C
102
}
330
10C
100
AcDbScale
 70
     0
300
1:1
140
1.0
141
1.0
290
     1
  0
SCALE
  5
1BE
102
{ACAD_REACTORS
330
10C
102
}
330
10C
100
AcDbScale
 70
     0
300
1:2
140
1.0
141
2.0
290
     0
  0
SCALE
  5
1BF
102
{ACAD_REACTORS
330
10C
102
}
330
10C
100
AcDbScale
 70
     0
300
1:4
140
1.0
141
4.0
290
     0
  0
SCALE
  5
1C0
102
{ACAD_REACTORS
330
10C
102
}
330
10C
100
AcDbScale
 70
     0
300
1:5
140
1.0
141
5.0
290
     0
  0
SCALE
  5
1C1
102
{ACAD_REACTORS
330
10C
102
}
330
10C
100
AcDbScale
 70
     0
300
1:8
140
1.0
141
8.0
290
     0
  0
SCALE
  5
1C2
102
{ACAD_REACTORS
330
10C
102
}
330
10C
100
AcDbScale
 70
     0
300
1:10
140
1.0
141
10.0
290
     0
  0
SCALE
  5
1C3
102
{ACAD_REACTORS
330
10C
102
}
330
10C
100
AcDbScale
 70
     0
300
1:16
140
1.0
141
16.0
290
     0
  0
SCALE
  5
1C4
102
{ACAD_REACTORS
330
10C
102
}
330
10C
100
AcDbScale
 70
     0
300
1:20
140
1.0
141
20.0
290
     0
  0
SCALE
  5
1C5
102
{ACAD_REACTORS
330
10C
102
}
330
10C
100
AcDbScale
 70
     0
300
1:30
140
1.0
141
30.0
290
     0
  0
SCALE
  5
1C6
102
{ACAD_REACTORS
330
10C
102
}
330
10C
100
AcDbScale
 70
     0
300
1:40
140
1.0
141
40.0
290
     0
  0
SCALE
  5
1C7
102
{ACAD_REACTORS
330
10C
102
}
330
10C
100
AcDbScale
 70
     0
300
1:50
140
1.0
141
50.0
290
     0
  0
SCALE
  5
1C8
102
{ACAD_REACTORS
330
10C
102
}
330
10C
100
AcDbScale
 70
     0
300
1:100
140
1.0
141
100.0
290
     0
  0
SCALE
  5
1C9
102
{ACAD_REACTORS
330
10C
102
}
330
10C
100
AcDbScale
 70
     0
300
2:1
140
2.0
141
1.0
290
     0
  0
SCALE
  5
1CA
102
{ACAD_REACTORS
330
10C
102
}
330
10C
100
AcDbScale
 70
     0
300
4:1
140
4.0
141
1.0
290
     0
  0
SCALE
  5
1CB
102
{ACAD_REACTORS
330
10C
102
}
330
10C
100
AcDbScale
 70
     0
300
8:1
140
8.0
141
1.0
290
     0
  0
SCALE
  5
1CC
102
{ACAD_REACTORS
330
10C
102
}
330
10C
100
AcDbScale
 70
     0
300
10:1
140
10.0
141
1.0
290
     0
  0
SCALE
  5
1CD
102
{ACAD_REACTORS
330
10C
102
}
330
10C
100
AcDbScale
 70
     0
300
100:1
140
100.0
141
1.0
290
     0
  0
TABLESTYLE
  5
7F
102
{ACAD_XDICTIONARY
360
162
102
}
102
{ACAD_REACTORS
330
7E
102
}
330
7E
100
AcDbTableStyle
  3
Standard
 70
     0
 71
     0
 40
1.5
 41
1.5
280
     0
281
     0
  7
Standard
140
4.5
170
     2
 62
     0
 63
     7
283
     0
274
    -2
284
     1
 64
     0
275
    -2
285
     1
 65
     0
276
    -2
286
     1
 66
     0
277
    -2
287
     1
 67
     0
278
    -2
288
     1
 68
     0
279
    -2
289
     1
 69
     0
  7
Standard
140
6.0
170
     5
 62
     0
 63
     7
283
     0
274
    -2
284
     1
 64
     0
275
    -2
285
     1
 65
     0
276
    -2
286
     1
 66
     0
277
    -2
287
     1
 67
     0
278
    -2
288
     1
 68
     0
279
    -2
289
     1
 69
     0
  7
Standard
140
4.5
170
     5
 62
     0
 63
     7
283
     0
274
    -2
284
     1
 64
     0
275
    -2
285
     1
 65
     0
276
    -2
286
     1
 66
     0
277
    -2
287
     1
 67
     0
278
    -2
288
     1
 68
     0
279
    -2
289
     1
 69
     0
  0
VISUALSTYLE
  5
F5
102
{ACAD_XDICTIONARY
360
423
102
}
102
{ACAD_REACTORS
330
EF
102
}
330
EF
100
AcDbVisualStyle
  2
2dWireframe
 70
     4
 71
     0
 72
     2
 73
     1
 90
        0
 40
-0.6
 41
-30.0
 62
     5
 63
     7
421
 16777215
 74
     1
 91
        4
 64
     7
 65
   257
 75
     1
175
     1
 42
1.0
 92
        0
 66
   257
 43
1.0
 76
     1
 77
     6
 78
     2
 67
     7
 79
     5
170
     0
171
     0
290
     0
174
     0
 93
        1
 44
0.0
173
     0
291
     0
 45
0.0
1001
ACAD
1000
AcDbSavedByObjectVersion
1070
     0
  0
VISUALSTYLE
  5
F7
102
{ACAD_XDICTIONARY
360
427
102
}
102
{ACAD_REACTORS
330
EF
102
}
330
EF
100
AcDbVisualStyle
  2
3D Hidden
 70
     6
 71
     1
 72
     2
 73
     2
 90
        0
 40
-0.6
 41
-30.0
 62
     5
 63
     7
421
 16777215
 74
     2
 91
        2
 64
     7
 65
   257
 75
     2
175
     1
 42
40.0
 92
        0
 66
   257
 43
1.0
 76
     1
 77
     6
 78
     2
 67
     7
 79
     3
170
     0
171
     0
290
     0
174
     0
 93
        1
 44
0.0
173
     0
291
     0
 45
0.0
1001
ACAD
1000
AcDbSavedByObjectVersion
1070
     0
  0
VISUALSTYLE
  5
F6
102
{ACAD_XDICTIONARY
360
425
102
}
102
{ACAD_REACTORS
330
EF
102
}
330
EF
100
AcDbVisualStyle
  2
3dWireframe
 70
     5
 71
     0
 72
     2
 73
     1
 90
        0
 40
-0.6
 41
-30.0
 62
     5
 63
     7
421
 16777215
 74
     1
 91
        4
 64
     7
 65
   257
 75
     1
175
     1
 42
1.0
 92
        0
 66
   257
 43
1.0
 76
     1
 77
     6
 78
     2
 67
     7
 79
     5
170
     0
171
     0
290
     0
174
     0
 93
        1
 44
0.0
173
     0
291
     0
 45
0.0
1001
ACAD
1000
AcDbSavedByObjectVersion
1070
     0
  0
VISUALSTYLE
  5
F4
102
{ACAD_XDICTIONARY
360
421
102
}
102
{ACAD_REACTORS
330
EF
102
}
330
EF
100
AcDbVisualStyle
  2
Basic
 70
     7
 71
     1
 72
     0
 73
     1
 90
        0
 40
-0.6
 41
-30.0
 62
     5
 63
     7
421
 16777215
 74
     0
 91
        4
 64
     7
 65
   257
 75
     1
175
     1
 42
1.0
 92
        8
 66
     7
 43
1.0
 76
     1
 77
     6
 78
     2
 67
     7
 79
     5
170
     0
171
     0
290
     0
174
     0
 93
        1
 44
0.0
173
     0
291
     1
 45
0.0
1001
ACAD
1000
AcDbSavedByObjectVersion
1070
     0
  0
VISUALSTYLE
  5
FB
102
{ACAD_XDICTIONARY
360
42F
102
}
102
{ACAD_REACTORS
330
EF
102
}
330
EF
100
AcDbVisualStyle
  2
Brighten
 70
    12
 71
     2
 72
     2
 73
     1
 90
        0
 40
-0.6
 41
-30.0
 62
     5
 63
     7
421
 16777215
 74
     1
 91
        4
 64
     7
 65
   257
 75
     1
175
     1
 42
1.0
 92
        8
 66
     7
 43
1.0
 76
     1
 77
     6
 78
     2
 67
     7
 79
     5
170
     0
171
     0
290
     0
174
     0
 93
        1
 44
50.0
173
     0
291
     1
 45
0.0
1001
ACAD
1000
AcDbSavedByObjectVersion
1070
     0
  0
VISUALSTYLE
  5
FF
102
{ACAD_XDICTIONARY
360
437
102
}
102
{ACAD_REACTORS
330
EF
102
}
330
EF
100
AcDbVisualStyle
  2
ColorChange
 70
    16
 71
     2
 72
     2
 73
     3
 90
        0
 40
-0.6
 41
-30.0
 62
     5
 63
     8
421
  8421504
 74
     1
 91
        4
 64
     7
 65
   257
 75
     1
175
     1
 42
1.0
 92
        8
 66
     8
424
  8421504
 43
1.0
 76
     1
 77
     6
 78
     2
 67
     7
 79
     5
170
     0
171
     0
290
     0
174
     0
 93
        1
 44
0.0
173
     0
291
     1
 45
0.0
1001
ACAD
1000
AcDbSavedByObjectVersion
1070
     0
  0
VISUALSTYLE
  5
F8
102
{ACAD_XDICTIONARY
360
429
102
}
102
{ACAD_REACTORS
330
EF
102
}
330
EF
100
AcDbVisualStyle
  2
Conceptual
 70
     9
 71
     3
 72
     2
 73
     1
 90
        0
 40
-0.6
 41
-30.0
 62
     5
 63
     7
421
 16777215
 74
     2
 91
        2
 64
     7
 65
   257
 75
     1
175
     1
 42
40.0
 92
        8
 66
     7
 43
1.0
 76
     1
 77
     6
 78
     2
 67
     7
 79
     3
170
     0
171
     0
290
     0
174
     0
 93
        1
 44
0.0
173
     0
291
     0
 45
0.0
1001
ACAD
1000
AcDbSavedByObjectVersion
1070
     0
  0
VISUALSTYLE
  5
FA
102
{ACAD_XDICTIONARY
360
42D
102
}
102
{ACAD_REACTORS
330
EF
102
}
330
EF
100
AcDbVisualStyle
  2
Dim
 70
    11
 71
     2
 72
     2
 73
     1
 90
        0
 40
-0.6
 41
-30.0
 62
     5
 63
     7
421
 16777215
 74
     1
 91
        4
 64
     7
 65
   257
 75
     1
175
     1
 42
1.0
 92
        8
 66
     7
 43
1.0
 76
     1
 77
     6
 78
     2
 67
     7
 79
     5
170
     0
171
     0
290
     0
174
     0
 93
        1
 44
-50.0
173
     0
291
     1
 45
0.0
1001
ACAD
1000
AcDbSavedByObjectVersion
1070
     0
  0
VISUALSTYLE
  5
1E6
102
{ACAD_XDICTIONARY
360
43D
102
}
102
{ACAD_REACTORS
330
EF
102
}
330
EF
100
AcDbVisualStyle
  2
EdgeColorOff
 70
    22
 71
     2
 72
     2
 73
     0
 90
        0
 40
-0.6
 41
-30.0
 62
     5
 63
     7
421
 16777215
 74
     1
 91
        4
 64
     7
 65
   257
 75
     1
175
     1
 42
1.0
 92
        8
 66
     7
 43
1.0
 76
     1
 77
     6
 78
     2
 67
     7
 79
     5
170
     0
171
     0
290
     0
174
     0
 93
        1
 44
0.0
173
     0
291
     1
 45
0.0
1001
ACAD
1000
AcDbSavedByObjectVersion
1070
     0
  0
VISUALSTYLE
  5
FE
102
{ACAD_XDICTIONARY
360
435
102
}
102
{ACAD_REACTORS
330
EF
102
}
330
EF
100
AcDbVisualStyle
  2
Facepattern
 70
    15
 71
     2
 72
     2
 73
     1
 90
        0
 40
-0.6
 41
-30.0
 62
     5
 63
     7
421
 16777215
 74
     1
 91
        4
 64
     7
 65
   257
 75
     1
175
     1
 42
1.0
 92
        8
 66
     7
 43
1.0
 76
     1
 77
     6
 78
     2
 67
     7
 79
     5
170
     0
171
     0
290
     0
174
     0
 93
        1
 44
0.0
173
     0
291
     1
 45
0.0
1001
ACAD
1000
AcDbSavedByObjectVersion
1070
     0
  0
VISUALSTYLE
  5
F0
102
{ACAD_XDICTIONARY
360
419
102
}
102
{ACAD_REACTORS
330
EF
102
}
330
EF
100
AcDbVisualStyle
  2
Flat
 70
     0
 71
     2
 72
     1
 73
     1
 90
        2
 40
-0.6
 41
30.0
 62
     5
 63
     7
421
 16777215
 74
     0
 91
        4
 64
     7
 65
   257
 75
     1
175
     1
 42
1.0
 92
        8
 66
     7
 43
1.0
 76
     1
 77
     6
 78
     2
 67
     7
 79
     5
170
     0
171
     0
290
     0
174
     0
 93
        1
 44
0.0
173
     0
291
     1
 45
0.0
1001
ACAD
1000
AcDbSavedByObjectVersion
1070
     0
  0
VISUALSTYLE
  5
F1
102
{ACAD_XDICTIONARY
360
41B
102
}
102
{ACAD_REACTORS
330
EF
102
}
330
EF
100
AcDbVisualStyle
  2
FlatWithEdges
 70
     1
 71
     2
 72
     1
 73
     1
 90
        2
 40
-0.6
 41
30.0
 62
     5
 63
     7
421
 16777215
 74
     1
 91
        4
 64
     7
 65
   257
 75
     1
175
     1
 42
1.0
 92
        0
 66
   257
 43
1.0
 76
     1
 77
     6
 78
     2
 67
     7
 79
     5
170
     0
171
     0
290
     0
174
     0
 93
        1
 44
0.0
173
     0
291
     1
 45
0.0
1001
ACAD
1000
AcDbSavedByObjectVersion
1070
     0
  0
VISUALSTYLE
  5
F2
102
{ACAD_XDICTIONARY
360
41D
102
}
102
{ACAD_REACTORS
330
EF
102
}
330
EF
100
AcDbVisualStyle
  2
Gouraud
 70
     2
 71
     2
 72
     2
 73
     1
 90
        2
 40
-0.6
 41
30.0
 62
     5
 63
     7
421
 16777215
 74
     0
 91
        4
 64
     7
 65
   257
 75
     1
175
     1
 42
1.0
 92
        0
 66
     7
 43
1.0
 76
     1
 77
     6
 78
     2
 67
     7
 79
     5
170
     0
171
     0
290
     0
174
     0
 93
        1
 44
0.0
173
     0
291
     1
 45
0.0
1001
ACAD
1000
AcDbSavedByObjectVersion
1070
     0
  0
VISUALSTYLE
  5
F3
102
{ACAD_XDICTIONARY
360
41F
102
}
102
{ACAD_REACTORS
330
EF
102
}
330
EF
100
AcDbVisualStyle
  2
GouraudWithEdges
 70
     3
 71
     2
 72
     2
 73
     1
 90
        2
 40
-0.6
 41
30.0
 62
     5
 63
     7
421
 16777215
 74
     1
 91
        4
 64
     7
 65
   257
 75
     1
175
     1
 42
1.0
 92
        0
 66
   257
 43
1.0
 76
     1
 77
     6
 78
     2
 67
     7
 79
     5
170
     0
171
     0
290
     0
174
     0
 93
        1
 44
0.0
173
     0
291
     1
 45
0.0
1001
ACAD
1000
AcDbSavedByObjectVersion
1070
     0
  0
VISUALSTYLE
  5
1E4
102
{ACAD_XDICTIONARY
360
439
102
}
102
{ACAD_REACTORS
330
EF
102
}
330
EF
100
AcDbVisualStyle
  2
JitterOff
 70
    20
 71
     2
 72
     2
 73
     0
 90
        0
 40
-0.6
 41
-30.0
 62
     5
 63
     7
421
 16777215
 74
     1
 91
        4
 64
     7
 65
   257
 75
     1
175
     1
 42
1.0
 92
       10
 66
     7
 43
1.0
 76
     1
 77
     6
 78
     2
 67
     7
 79
     5
170
     0
171
     0
290
     0
174
     0
 93
        1
 44
0.0
173
     0
291
     1
 45
0.0
1001
ACAD
1000
AcDbSavedByObjectVersion
1070
     0
  0
VISUALSTYLE
  5
FD
102
{ACAD_XDICTIONARY
360
433
102
}
102
{ACAD_REACTORS
330
EF
102
}
330
EF
100
AcDbVisualStyle
  2
Linepattern
 70
    14
 71
     2
 72
     2
 73
     1
 90
        0
 40
-0.6
 41
-30.0
 62
     5
 63
     7
421
 16777215
 74
     1
 91
        4
 64
     7
 65
   257
 75
     7
175
     7
 42
1.0
 92
        8
 66
     7
 43
1.0
 76
     1
 77
     6
 78
     2
 67
     7
 79
     5
170
     0
171
     0
290
     0
174
     0
 93
        1
 44
0.0
173
     0
291
     1
 45
0.0
1001
ACAD
1000
AcDbSavedByObjectVersion
1070
     0
  0
VISUALSTYLE
  5
1E5
102
{ACAD_XDICTIONARY
360
43B
102
}
102
{ACAD_REACTORS
330
EF
102
}
330
EF
100
AcDbVisualStyle
  2
OverhangOff
 70
    21
 71
     2
 72
     2
 73
     0
 90
        0
 40
-0.6
 41
-30.0
 62
     5
 63
     7
421
 16777215
 74
     1
 91
        4
 64
     7
 65
   257
 75
     1
175
     1
 42
1.0
 92
        9
 66
     7
 43
1.0
 76
     1
 77
     6
 78
     2
 67
     7
 79
     5
170
     0
171
     0
290
     0
174
     0
 93
        1
 44
0.0
173
     0
291
     1
 45
0.0
1001
ACAD
1000
AcDbSavedByObjectVersion
1070
     0
  0
VISUALSTYLE
  5
F9
102
{ACAD_XDICTIONARY
360
42B
102
}
102
{ACAD_REACTORS
330
EF
102
}
330
EF
100
AcDbVisualStyle
  2
Realistic
 70
     8
 71
     2
 72
     2
 73
     1
 90
        0
 40
-0.6
 41
-30.0
 62
     5
 63
     7
421
 16777215
 74
     1
 91
        0
 64
     7
 65
   257
 75
     1
175
     1
 42
1.0
 92
        8
 66
     8
424
  7895160
 43
1.0
 76
     1
 77
     6
 78
     2
 67
     7
 79
     5
170
     0
171
     0
290
     0
174
     0
 93
       13
 44
0.0
173
     0
291
     0
 45
0.0
1001
ACAD
1000
AcDbSavedByObjectVersion
1070
     0
  0
VISUALSTYLE
  5
FC
102
{ACAD_XDICTIONARY
360
431
102
}
102
{ACAD_REACTORS
330
EF
102
}
330
EF
100
AcDbVisualStyle
  2
Thicken
 70
    13
 71
     2
 72
     2
 73
     1
 90
        0
 40
-0.6
 41
-30.0
 62
     5
 63
     7
421
 16777215
 74
     1
 91
        4
 64
     7
 65
   257
 75
     1
175
     1
 42
1.0
 92
       12
 66
     7
 43
1.0
 76
     1
 77
     6
 78
     2
 67
     7
 79
     5
170
     0
171
     0
290
     0
174
     0
 93
        1
 44
0.0
173
     0
291
     1
 45
0.0
1001
ACAD
1000
AcDbSavedByObjectVersion
1070
     0
  0
DICTIONARYVAR
  5
146
102
{ACAD_REACTORS
330
5E
102
}
330
5E
100
DictionaryVariables
280
     0
  1
1:1
  0
DICTIONARYVAR
  5
145
102
{ACAD_REACTORS
330
5E
102
}
330
5E
100
DictionaryVariables
280
     0
  1
STANDARD
  0
DICTIONARYVAR
  5
84
102
{ACAD_REACTORS
330
5E
102
}
330
5E
100
DictionaryVariables
280
     0
  1
STANDARD
  0
DICTIONARYVAR
  5
5F
102
{ACAD_REACTORS
330
5E
102
}
330
5E
100
DictionaryVariables
280
     0
  1
2
  0
DICTIONARYVAR
  5
63
102
{ACAD_REACTORS
330
5E
102
}
330
5E
100
DictionaryVariables
280
     0
  1
1
  0
DICTIONARYVAR
  5
1AE
102
{ACAD_REACTORS
330
5E
102
}
330
5E
100
DictionaryVariables
280
     0
  1
0
  0
DICTIONARYVAR
  5
1AF
102
{ACAD_REACTORS
330
5E
102
}
330
5E
100
DictionaryVariables
280
     0
  1
0
  0
DICTIONARYVAR
  5
3BD
102
{ACAD_REACTORS
330
5E
102
}
330
5E
100
DictionaryVariables
280
     0
  1
2
  0
DICTIONARYVAR
  5
3BC
102
{ACAD_REACTORS
330
5E
102
}
330
5E
100
DictionaryVariables
280
     0
  1
1
  0
DICTIONARYVAR
  5
3BF
102
{ACAD_REACTORS
330
5E
102
}
330
5E
100
DictionaryVariables
280
     0
  1
80.000000
  0
DICTIONARYVAR
  5
3BE
102
{ACAD_REACTORS
330
5E
102
}
330
5E
100
DictionaryVariables
280
     0
  1
5.000000
  0
DICTIONARYVAR
  5
3C0
102
{ACAD_REACTORS
330
5E
102
}
330
5E
100
DictionaryVariables
280
     0
  1
2
  0
DICTIONARY
  5
416
330
ED
100
AcDbDictionary
280
     1
281
     1
  3
ACAD_XREC_ROUNDTRIP
360
417
  0
DICTIONARY
  5
414
330
EC
100
AcDbDictionary
280
     1
281
     1
  3
ACAD_XREC_ROUNDTRIP
360
415
  0
DICTIONARY
  5
173
330
EE
100
AcDbDictionary
280
     1
281
     1
  3
ACAD_XREC_ROUNDTRIP
360
418
  3
BUMPTILE
360
175
  3
DIFFUSETILE
360
174
  3
OPACITYTILE
360
176
  3
REFLECTIONTILE
360
177
  0
DICTIONARY
  5
162
330
7F
100
AcDbDictionary
280
     1
281
     1
  3
ACAD_ROUNDTRIP_2008_TABLESTYLE_CELLSTYLEMAP
360
411
  3
ACAD_XREC_ROUNDTRIP
360
413
  0
DICTIONARY
  5
423
330
F5
100
AcDbDictionary
280
     1
281
     1
  3
ACAD_XREC_ROUNDTRIP
360
424
  0
DICTIONARY
  5
427
330
F7
100
AcDbDictionary
280
     1
281
     1
  3
ACAD_XREC_ROUNDTRIP
360
428
  0
DICTIONARY
  5
425
330
F6
100
AcDbDictionary
280
     1
281
     1
  3
ACAD_XREC_ROUNDTRIP
360
426
  0
DICTIONARY
  5
421
330
F4
100
AcDbDictionary
280
     1
281
     1
  3
ACAD_XREC_ROUNDTRIP
360
422
  0
DICTIONARY
  5
42F
330
FB
100
AcDbDictionary
280
     1
281
     1
  3
ACAD_XREC_ROUNDTRIP
360
430
  0
DICTIONARY
  5
437
330
FF
100
AcDbDictionary
280
     1
281
     1
  3
ACAD_XREC_ROUNDTRIP
360
438
  0
DICTIONARY
  5
429
330
F8
100
AcDbDictionary
280
     1
281
     1
  3
ACAD_XREC_ROUNDTRIP
360
42A
  0
DICTIONARY
  5
42D
330
FA
100
AcDbDictionary
280
     1
281
     1
  3
ACAD_XREC_ROUNDTRIP
360
42E
  0
DICTIONARY
  5
43D
330
1E6
100
AcDbDictionary
280
     1
281
     1
  3
ACAD_XREC_ROUNDTRIP
360
43E
  0
DICTIONARY
  5
435
330
FE
100
AcDbDictionary
280
     1
281
     1
  3
ACAD_XREC_ROUNDTRIP
360
436
  0
DICTIONARY
  5
419
330
F0
100
AcDbDictionary
280
     1
281
     1
  3
ACAD_XREC_ROUNDTRIP
360
41A
  0
DICTIONARY
  5
41B
330
F1
100
AcDbDictionary
280
     1
281
     1
  3
ACAD_XREC_ROUNDTRIP
360
41C
  0
DICTIONARY
  5
41D
330
F2
100
AcDbDictionary
280
     1
281
     1
  3
ACAD_XREC_ROUNDTRIP
360
41E
  0
DICTIONARY
  5
41F
330
F3
100
AcDbDictionary
280
     1
281
     1
  3
ACAD_XREC_ROUNDTRIP
360
420
  0
DICTIONARY
  5
439
330
1E4
100
AcDbDictionary
280
     1
281
     1
  3
ACAD_XREC_ROUNDTRIP
360
43A
  0
DICTIONARY
  5
433
330
FD
100
AcDbDictionary
280
     1
281
     1
  3
ACAD_XREC_ROUNDTRIP
360
434
  0
DICTIONARY
  5
43B
330
1E5
100
AcDbDictionary
280
     1
281
     1
  3
ACAD_XREC_ROUNDTRIP
360
43C
  0
DICTIONARY
  5
42B
330
F9
100
AcDbDictionary
280
     1
281
     1
  3
ACAD_XREC_ROUNDTRIP
360
42C
  0
DICTIONARY
  5
431
330
FC
100
AcDbDictionary
280
     1
281
     1
  3
ACAD_XREC_ROUNDTRIP
360
432
  0
XRECORD
  5
417
102
{ACAD_REACTORS
330
416
102
}
330
416
100
AcDbXrecord
280
     1
102
MATERIAL
148
0.0
149
0.0
149
0.0
 93
        0
 94
       63
282
     0
 72
     1
 77
     1
171
     1
175
     1
179
     1
273
     0
  0
XRECORD
  5
415
102
{ACAD_REACTORS
330
414
102
}
330
414
100
AcDbXrecord
280
     1
102
MATERIAL
148
0.0
149
0.0
149
0.0
 93
        0
 94
       63
282
     0
 72
     1
 77
     1
171
     1
175
     1
179
     1
273
     0
  0
XRECORD
  5
418
102
{ACAD_REACTORS
330
173
102
}
330
173
100
AcDbXrecord
280
     1
102
MATERIAL
148
0.0
149
0.0
149
0.0
 93
        0
 94
       63
282
     0
 72
     1
 77
     1
171
     1
175
     1
179
     1
273
     0
  0
XRECORD
  5
175
102
{ACAD_REACTORS
330
173
102
}
330
173
100
AcDbXrecord
280
     1
270
     1
271
     1
  0
XRECORD
  5
174
102
{ACAD_REACTORS
330
173
102
}
330
173
100
AcDbXrecord
280
     1
270
     1
271
     1
  0
XRECORD
  5
176
102
{ACAD_REACTORS
330
173
102
}
330
173
100
AcDbXrecord
280
     1
270
     1
271
     1
  0
XRECORD
  5
177
102
{ACAD_REACTORS
330
173
102
}
330
173
100
AcDbXrecord
280
     1
270
     1
271
     1
  0
CELLSTYLEMAP
  5
411
102
{ACAD_REACTORS
330
162
102
}
330
162
100
AcDbCellStyleMap
 90
        3
300
CELLSTYLE
  1
TABLEFORMAT_BEGIN
 90
        5
170
     1
 91
        0
 92
    32768
 62
   257
 93
        1
300
CONTENTFORMAT
  1
CONTENTFORMAT_BEGIN
 90
        0
 91
        0
 92
      512
 93
        0
300

 40
0.0
140
1.0
 94
        5
 62
     0
340
11
144
6.0
309
CONTENTFORMAT_END
171
     1
301
MARGIN
  1
CELLMARGIN_BEGIN
 40
1.5
 40
1.5
 40
1.5
 40
1.5
 40
4.5
 40
4.5
309
CELLMARGIN_END
 94
        6
 95
        1
302
GRIDFORMAT
  1
GRIDFORMAT_BEGIN
 90
        0
 91
        1
 62
     0
 92
       -2
340
14
 93
        0
 40
1.125
309
GRIDFORMAT_END
 95
        2
302
GRIDFORMAT
  1
GRIDFORMAT_BEGIN
 90
        0
 91
        1
 62
     0
 92
       -2
340
14
 93
        0
 40
1.125
309
GRIDFORMAT_END
 95
        4
302
GRIDFORMAT
  1
GRIDFORMAT_BEGIN
 90
        0
 91
        1
 62
     0
 92
       -2
340
14
 93
        0
 40
1.125
309
GRIDFORMAT_END
 95
        8
302
GRIDFORMAT
  1
GRIDFORMAT_BEGIN
 90
        0
 91
        1
 62
     0
 92
       -2
340
14
 93
        0
 40
1.125
309
GRIDFORMAT_END
 95
       16
302
GRIDFORMAT
  1
GRIDFORMAT_BEGIN
 90
        0
 91
        1
 62
     0
 92
       -2
340
14
 93
        0
 40
1.125
309
GRIDFORMAT_END
 95
       32
302
GRIDFORMAT
  1
GRIDFORMAT_BEGIN
 90
        0
 91
        1
 62
     0
 92
       -2
340
14
 93
        0
 40
1.125
309
GRIDFORMAT_END
309
TABLEFORMAT_END
  1
CELLSTYLE_BEGIN
 90
        1
 91
        1
300
_TITLE
309
CELLSTYLE_END
300
CELLSTYLE
  1
TABLEFORMAT_BEGIN
 90
        5
170
     1
 91
        0
 92
        0
 62
   257
 93
        1
300
CONTENTFORMAT
  1
CONTENTFORMAT_BEGIN
 90
        0
 91
        0
 92
      512
 93
        0
300

 40
0.0
140
1.0
 94
        5
 62
     0
340
11
144
4.5
309
CONTENTFORMAT_END
171
     1
301
MARGIN
  1
CELLMARGIN_BEGIN
 40
1.5
 40
1.5
 40
1.5
 40
1.5
 40
4.5
 40
4.5
309
CELLMARGIN_END
 94
        6
 95
        1
302
GRIDFORMAT
  1
GRIDFORMAT_BEGIN
 90
        0
 91
        1
 62
     0
 92
       -2
340
14
 93
        0
 40
1.125
309
GRIDFORMAT_END
 95
        2
302
GRIDFORMAT
  1
GRIDFORMAT_BEGIN
 90
        0
 91
        1
 62
     0
 92
       -2
340
14
 93
        0
 40
1.125
309
GRIDFORMAT_END
 95
        4
302
GRIDFORMAT
  1
GRIDFORMAT_BEGIN
 90
        0
 91
        1
 62
     0
 92
       -2
340
14
 93
        0
 40
1.125
309
GRIDFORMAT_END
 95
        8
302
GRIDFORMAT
  1
GRIDFORMAT_BEGIN
 90
        0
 91
        1
 62
     0
 92
       -2
340
14
 93
        0
 40
1.125
309
GRIDFORMAT_END
 95
       16
302
GRIDFORMAT
  1
GRIDFORMAT_BEGIN
 90
        0
 91
        1
 62
     0
 92
       -2
340
14
 93
        0
 40
1.125
309
GRIDFORMAT_END
 95
       32
302
GRIDFORMAT
  1
GRIDFORMAT_BEGIN
 90
        0
 91
        1
 62
     0
 92
       -2
340
14
 93
        0
 40
1.125
309
GRIDFORMAT_END
309
TABLEFORMAT_END
  1
CELLSTYLE_BEGIN
 90
        2
 91
        1
300
_HEADER
309
CELLSTYLE_END
300
CELLSTYLE
  1
TABLEFORMAT_BEGIN
 90
        5
170
     1
 91
        0
 92
        0
 62
   257
 93
        1
300
CONTENTFORMAT
  1
CONTENTFORMAT_BEGIN
 90
        0
 91
        0
 92
      512
 93
        0
300

 40
0.0
140
1.0
 94
        2
 62
     0
340
11
144
4.5
309
CONTENTFORMAT_END
171
     1
301
MARGIN
  1
CELLMARGIN_BEGIN
 40
1.5
 40
1.5
 40
1.5
 40
1.5
 40
4.5
 40
4.5
309
CELLMARGIN_END
 94
        6
 95
        1
302
GRIDFORMAT
  1
GRIDFORMAT_BEGIN
 90
        0
 91
        1
 62
     0
 92
       -2
340
14
 93
        0
 40
1.125
309
GRIDFORMAT_END
 95
        2
302
GRIDFORMAT
  1
GRIDFORMAT_BEGIN
 90
        0
 91
        1
 62
     0
 92
       -2
340
14
 93
        0
 40
1.125
309
GRIDFORMAT_END
 95
        4
302
GRIDFORMAT
  1
GRIDFORMAT_BEGIN
 90
        0
 91
        1
 62
     0
 92
       -2
340
14
 93
        0
 40
1.125
309
GRIDFORMAT_END
 95
        8
302
GRIDFORMAT
  1
GRIDFORMAT_BEGIN
 90
        0
 91
        1
 62
     0
 92
       -2
340
14
 93
        0
 40
1.125
309
GRIDFORMAT_END
 95
       16
302
GRIDFORMAT
  1
GRIDFORMAT_BEGIN
 90
        0
 91
        1
 62
     0
 92
       -2
340
14
 93
        0
 40
1.125
309
GRIDFORMAT_END
 95
       32
302
GRIDFORMAT
  1
GRIDFORMAT_BEGIN
 90
        0
 91
        1
 62
     0
 92
       -2
340
14
 93
        0
 40
1.125
309
GRIDFORMAT_END
309
TABLEFORMAT_END
  1
CELLSTYLE_BEGIN
 90
        3
 91
        2
300
_DATA
309
CELLSTYLE_END
  0
XRECORD
  5
413
102
{ACAD_REACTORS
330
162
102
}
330
162
100
AcDbXrecord
280
     1
102
ACAD_ROUNDTRIP_PRE2007_TABLESTYLE
 90
      512
 91
        0
  1

 92
      512
 93
        0
  2

 94
      512
 95
        0
  3

  0
XRECORD
  5
424
102
{ACAD_REACTORS
330
423
102
}
330
423
100
AcDbXrecord
280
     1
102
RTVSPropertyOp0
 70
     1
102
RTVSPropertyOp1
 70
     1
102
RTVSPropertyOp2
 70
     1
102
RTVSPropertyOp3
 70
     1
102
RTVSPropertyOp4
 70
     1
102
RTVSPropertyOp5
 70
     1
102
RTVSPropertyOp6
 70
     1
102
RTVSPropertyOp7
 70
     1
102
RTVSPropertyOp8
 70
     1
102
RTVSPropertyOp9
 70
     1
102
RTVSPropertyOp10
 70
     1
102
RTVSPropertyOp11
 70
     1
102
RTVSPropertyOp12
 70
     1
102
RTVSPropertyOp13
 70
     1
102
RTVSPropertyOp14
 70
     1
102
RTVSPropertyOp15
 70
     1
102
RTVSPropertyOp16
 70
     1
102
RTVSPropertyOp17
 70
     1
102
RTVSPropertyOp18
 70
     1
102
RTVSPropertyOp19
 70
     1
102
RTVSPropertyOp20
 70
     1
102
RTVSPropertyOp21
 70
     1
102
RTVSPropertyOp22
 70
     1
102
RTVSPropertyOp23
 70
     1
102
RTVSPropertyOp24
 70
     1
102
RTVSPropertyOp25
 70
     1
102
RTVSPropertyOp26
 70
     1
102
RTVSPropertyOp27
 70
     1
  0
XRECORD
  5
428
102
{ACAD_REACTORS
330
427
102
}
330
427
100
AcDbXrecord
280
     1
102
RTVSPropertyOp0
 70
     1
102
RTVSPropertyOp1
 70
     1
102
RTVSPropertyOp2
 70
     1
102
RTVSPropertyOp3
 70
     1
102
RTVSPropertyOp4
 70
     1
102
RTVSPropertyOp5
 70
     1
102
RTVSPropertyOp6
 70
     1
102
RTVSPropertyOp7
 70
     1
102
RTVSPropertyOp8
 70
     1
102
RTVSPropertyOp9
 70
     1
102
RTVSPropertyOp10
 70
     1
102
RTVSPropertyOp11
 70
     1
102
RTVSPropertyOp12
 70
     1
102
RTVSPropertyOp13
 70
     1
102
RTVSPropertyOp14
 70
     1
102
RTVSPropertyOp15
 70
     1
102
RTVSPropertyOp16
 70
     1
102
RTVSPropertyOp17
 70
     1
102
RTVSPropertyOp18
 70
     1
102
RTVSPropertyOp19
 70
     1
102
RTVSPropertyOp20
 70
     1
102
RTVSPropertyOp21
 70
     1
102
RTVSPropertyOp22
 70
     1
102
RTVSPropertyOp23
 70
     1
102
RTVSPropertyOp24
 70
     1
102
RTVSPropertyOp25
 70
     1
102
RTVSPropertyOp26
 70
     1
102
RTVSPropertyOp27
 70
     1
  0
XRECORD
  5
426
102
{ACAD_REACTORS
330
425
102
}
330
425
100
AcDbXrecord
280
     1
102
RTVSPropertyOp0
 70
     1
102
RTVSPropertyOp1
 70
     1
102
RTVSPropertyOp2
 70
     1
102
RTVSPropertyOp3
 70
     1
102
RTVSPropertyOp4
 70
     1
102
RTVSPropertyOp5
 70
     1
102
RTVSPropertyOp6
 70
     1
102
RTVSPropertyOp7
 70
     1
102
RTVSPropertyOp8
 70
     1
102
RTVSPropertyOp9
 70
     1
102
RTVSPropertyOp10
 70
     1
102
RTVSPropertyOp11
 70
     1
102
RTVSPropertyOp12
 70
     1
102
RTVSPropertyOp13
 70
     1
102
RTVSPropertyOp14
 70
     1
102
RTVSPropertyOp15
 70
     1
102
RTVSPropertyOp16
 70
     1
102
RTVSPropertyOp17
 70
     1
102
RTVSPropertyOp18
 70
     1
102
RTVSPropertyOp19
 70
     1
102
RTVSPropertyOp20
 70
     1
102
RTVSPropertyOp21
 70
     1
102
RTVSPropertyOp22
 70
     1
102
RTVSPropertyOp23
 70
     1
102
RTVSPropertyOp24
 70
     1
102
RTVSPropertyOp25
 70
     1
102
RTVSPropertyOp26
 70
     1
102
RTVSPropertyOp27
 70
     1
  0
XRECORD
  5
422
102
{ACAD_REACTORS
330
421
102
}
330
421
100
AcDbXrecord
280
     1
102
RTVSPropertyOp0
 70
     1
102
RTVSPropertyOp1
 70
     1
102
RTVSPropertyOp2
 70
     1
102
RTVSPropertyOp3
 70
     1
102
RTVSPropertyOp4
 70
     1
102
RTVSPropertyOp5
 70
     1
102
RTVSPropertyOp6
 70
     1
102
RTVSPropertyOp7
 70
     1
102
RTVSPropertyOp8
 70
     1
102
RTVSPropertyOp9
 70
     1
102
RTVSPropertyOp10
 70
     1
102
RTVSPropertyOp11
 70
     1
102
RTVSPropertyOp12
 70
     1
102
RTVSPropertyOp13
 70
     1
102
RTVSPropertyOp14
 70
     1
102
RTVSPropertyOp15
 70
     1
102
RTVSPropertyOp16
 70
     1
102
RTVSPropertyOp17
 70
     1
102
RTVSPropertyOp18
 70
     1
102
RTVSPropertyOp19
 70
     1
102
RTVSPropertyOp20
 70
     1
102
RTVSPropertyOp21
 70
     1
102
RTVSPropertyOp22
 70
     1
102
RTVSPropertyOp23
 70
     1
102
RTVSPropertyOp24
 70
     1
102
RTVSPropertyOp25
 70
     1
102
RTVSPropertyOp26
 70
     1
102
RTVSPropertyOp27
 70
     1
  0
XRECORD
  5
430
102
{ACAD_REACTORS
330
42F
102
}
330
42F
100
AcDbXrecord
280
     1
102
RTVSPropertyOp0
 70
     1
102
RTVSPropertyOp1
 70
     1
102
RTVSPropertyOp2
 70
     1
102
RTVSPropertyOp3
 70
     1
102
RTVSPropertyOp4
 70
     1
102
RTVSPropertyOp5
 70
     1
102
RTVSPropertyOp6
 70
     1
102
RTVSPropertyOp7
 70
     1
102
RTVSPropertyOp8
 70
     1
102
RTVSPropertyOp9
 70
     1
102
RTVSPropertyOp10
 70
     1
102
RTVSPropertyOp11
 70
     1
102
RTVSPropertyOp12
 70
     1
102
RTVSPropertyOp13
 70
     1
102
RTVSPropertyOp14
 70
     1
102
RTVSPropertyOp15
 70
     1
102
RTVSPropertyOp16
 70
     1
102
RTVSPropertyOp17
 70
     1
102
RTVSPropertyOp18
 70
     1
102
RTVSPropertyOp19
 70
     1
102
RTVSPropertyOp20
 70
     1
102
RTVSPropertyOp21
 70
     1
102
RTVSPropertyOp22
 70
     1
102
RTVSPropertyOp23
 70
     1
102
RTVSPropertyOp24
 70
     1
102
RTVSPropertyOp25
 70
     1
102
RTVSPropertyOp26
 70
     1
102
RTVSPropertyOp27
 70
     1
  0
XRECORD
  5
438
102
{ACAD_REACTORS
330
437
102
}
330
437
100
AcDbXrecord
280
     1
102
RTVSPropertyOp0
 70
     1
102
RTVSPropertyOp1
 70
     1
102
RTVSPropertyOp2
 70
     1
102
RTVSPropertyOp3
 70
     1
102
RTVSPropertyOp4
 70
     1
102
RTVSPropertyOp5
 70
     1
102
RTVSPropertyOp6
 70
     1
102
RTVSPropertyOp7
 70
     1
102
RTVSPropertyOp8
 70
     1
102
RTVSPropertyOp9
 70
     1
102
RTVSPropertyOp10
 70
     1
102
RTVSPropertyOp11
 70
     1
102
RTVSPropertyOp12
 70
     1
102
RTVSPropertyOp13
 70
     1
102
RTVSPropertyOp14
 70
     1
102
RTVSPropertyOp15
 70
     1
102
RTVSPropertyOp16
 70
     1
102
RTVSPropertyOp17
 70
     1
102
RTVSPropertyOp18
 70
     1
102
RTVSPropertyOp19
 70
     1
102
RTVSPropertyOp20
 70
     1
102
RTVSPropertyOp21
 70
     1
102
RTVSPropertyOp22
 70
     1
102
RTVSPropertyOp23
 70
     1
102
RTVSPropertyOp24
 70
     1
102
RTVSPropertyOp25
 70
     1
102
RTVSPropertyOp26
 70
     1
102
RTVSPropertyOp27
 70
     1
  0
XRECORD
  5
42A
102
{ACAD_REACTORS
330
429
102
}
330
429
100
AcDbXrecord
280
     1
102
RTVSPropertyOp0
 70
     1
102
RTVSPropertyOp1
 70
     1
102
RTVSPropertyOp2
 70
     1
102
RTVSPropertyOp3
 70
     1
102
RTVSPropertyOp4
 70
     1
102
RTVSPropertyOp5
 70
     1
102
RTVSPropertyOp6
 70
     1
102
RTVSPropertyOp7
 70
     1
102
RTVSPropertyOp8
 70
     1
102
RTVSPropertyOp9
 70
     1
102
RTVSPropertyOp10
 70
     1
102
RTVSPropertyOp11
 70
     1
102
RTVSPropertyOp12
 70
     1
102
RTVSPropertyOp13
 70
     1
102
RTVSPropertyOp14
 70
     1
102
RTVSPropertyOp15
 70
     1
102
RTVSPropertyOp16
 70
     1
102
RTVSPropertyOp17
 70
     1
102
RTVSPropertyOp18
 70
     1
102
RTVSPropertyOp19
 70
     1
102
RTVSPropertyOp20
 70
     1
102
RTVSPropertyOp21
 70
     1
102
RTVSPropertyOp22
 70
     1
102
RTVSPropertyOp23
 70
     1
102
RTVSPropertyOp24
 70
     1
102
RTVSPropertyOp25
 70
     1
102
RTVSPropertyOp26
 70
     1
102
RTVSPropertyOp27
 70
     1
  0
XRECORD
  5
42E
102
{ACAD_REACTORS
330
42D
102
}
330
42D
100
AcDbXrecord
280
     1
102
RTVSPropertyOp0
 70
     1
102
RTVSPropertyOp1
 70
     1
102
RTVSPropertyOp2
 70
     1
102
RTVSPropertyOp3
 70
     1
102
RTVSPropertyOp4
 70
     1
102
RTVSPropertyOp5
 70
     1
102
RTVSPropertyOp6
 70
     1
102
RTVSPropertyOp7
 70
     1
102
RTVSPropertyOp8
 70
     1
102
RTVSPropertyOp9
 70
     1
102
RTVSPropertyOp10
 70
     1
102
RTVSPropertyOp11
 70
     1
102
RTVSPropertyOp12
 70
     1
102
RTVSPropertyOp13
 70
     1
102
RTVSPropertyOp14
 70
     1
102
RTVSPropertyOp15
 70
     1
102
RTVSPropertyOp16
 70
     1
102
RTVSPropertyOp17
 70
     1
102
RTVSPropertyOp18
 70
     1
102
RTVSPropertyOp19
 70
     1
102
RTVSPropertyOp20
 70
     1
102
RTVSPropertyOp21
 70
     1
102
RTVSPropertyOp22
 70
     1
102
RTVSPropertyOp23
 70
     1
102
RTVSPropertyOp24
 70
     1
102
RTVSPropertyOp25
 70
     1
102
RTVSPropertyOp26
 70
     1
102
RTVSPropertyOp27
 70
     1
  0
XRECORD
  5
43E
102
{ACAD_REACTORS
330
43D
102
}
330
43D
100
AcDbXrecord
280
     1
102
RTVSPropertyOp0
 70
     0
102
RTVSPropertyOp1
 70
     0
102
RTVSPropertyOp2
 70
     0
102
RTVSPropertyOp3
 70
     0
102
RTVSPropertyOp4
 70
     0
102
RTVSPropertyOp5
 70
     0
102
RTVSPropertyOp6
 70
     0
102
RTVSPropertyOp7
 70
     0
102
RTVSPropertyOp8
 70
     0
102
RTVSPropertyOp9
 70
     0
102
RTVSPropertyOp10
 70
     0
102
RTVSPropertyOp11
 70
     0
102
RTVSPropertyOp12
 70
     0
102
RTVSPropertyOp13
 70
     0
102
RTVSPropertyOp14
 70
     2
102
RTVSPropertyOp15
 70
     0
102
RTVSPropertyOp16
 70
     0
102
RTVSPropertyOp17
 70
     0
102
RTVSPropertyOp18
 70
     0
102
RTVSPropertyOp19
 70
     0
102
RTVSPropertyOp20
 70
     0
102
RTVSPropertyOp21
 70
     0
102
RTVSPropertyOp22
 70
     0
102
RTVSPropertyOp23
 70
     0
102
RTVSPropertyOp24
 70
     0
102
RTVSPropertyOp25
 70
     0
102
RTVSPropertyOp26
 70
     0
102
RTVSPropertyOp27
 70
     0
  0
XRECORD
  5
436
102
{ACAD_REACTORS
330
435
102
}
330
435
100
AcDbXrecord
280
     1
102
RTVSPropertyOp0
 70
     1
102
RTVSPropertyOp1
 70
     1
102
RTVSPropertyOp2
 70
     1
102
RTVSPropertyOp3
 70
     1
102
RTVSPropertyOp4
 70
     1
102
RTVSPropertyOp5
 70
     1
102
RTVSPropertyOp6
 70
     1
102
RTVSPropertyOp7
 70
     1
102
RTVSPropertyOp8
 70
     1
102
RTVSPropertyOp9
 70
     1
102
RTVSPropertyOp10
 70
     1
102
RTVSPropertyOp11
 70
     1
102
RTVSPropertyOp12
 70
     1
102
RTVSPropertyOp13
 70
     1
102
RTVSPropertyOp14
 70
     1
102
RTVSPropertyOp15
 70
     1
102
RTVSPropertyOp16
 70
     1
102
RTVSPropertyOp17
 70
     1
102
RTVSPropertyOp18
 70
     1
102
RTVSPropertyOp19
 70
     1
102
RTVSPropertyOp20
 70
     1
102
RTVSPropertyOp21
 70
     1
102
RTVSPropertyOp22
 70
     1
102
RTVSPropertyOp23
 70
     1
102
RTVSPropertyOp24
 70
     1
102
RTVSPropertyOp25
 70
     1
102
RTVSPropertyOp26
 70
     1
102
RTVSPropertyOp27
 70
     1
  0
XRECORD
  5
41A
102
{ACAD_REACTORS
330
419
102
}
330
419
100
AcDbXrecord
280
     1
102
RTVSPropertyOp0
 70
     1
102
RTVSPropertyOp1
 70
     1
102
RTVSPropertyOp2
 70
     1
102
RTVSPropertyOp3
 70
     1
102
RTVSPropertyOp4
 70
     1
102
RTVSPropertyOp5
 70
     1
102
RTVSPropertyOp6
 70
     1
102
RTVSPropertyOp7
 70
     1
102
RTVSPropertyOp8
 70
     1
102
RTVSPropertyOp9
 70
     1
102
RTVSPropertyOp10
 70
     1
102
RTVSPropertyOp11
 70
     1
102
RTVSPropertyOp12
 70
     1
102
RTVSPropertyOp13
 70
     1
102
RTVSPropertyOp14
 70
     1
102
RTVSPropertyOp15
 70
     1
102
RTVSPropertyOp16
 70
     1
102
RTVSPropertyOp17
 70
     1
102
RTVSPropertyOp18
 70
     1
102
RTVSPropertyOp19
 70
     1
102
RTVSPropertyOp20
 70
     1
102
RTVSPropertyOp21
 70
     1
102
RTVSPropertyOp22
 70
     1
102
RTVSPropertyOp23
 70
     1
102
RTVSPropertyOp24
 70
     1
102
RTVSPropertyOp25
 70
     1
102
RTVSPropertyOp26
 70
     1
102
RTVSPropertyOp27
 70
     1
  0
XRECORD
  5
41C
102
{ACAD_REACTORS
330
41B
102
}
330
41B
100
AcDbXrecord
280
     1
102
RTVSPropertyOp0
 70
     1
102
RTVSPropertyOp1
 70
     1
102
RTVSPropertyOp2
 70
     1
102
RTVSPropertyOp3
 70
     1
102
RTVSPropertyOp4
 70
     1
102
RTVSPropertyOp5
 70
     1
102
RTVSPropertyOp6
 70
     1
102
RTVSPropertyOp7
 70
     1
102
RTVSPropertyOp8
 70
     1
102
RTVSPropertyOp9
 70
     1
102
RTVSPropertyOp10
 70
     1
102
RTVSPropertyOp11
 70
     1
102
RTVSPropertyOp12
 70
     1
102
RTVSPropertyOp13
 70
     1
102
RTVSPropertyOp14
 70
     1
102
RTVSPropertyOp15
 70
     1
102
RTVSPropertyOp16
 70
     1
102
RTVSPropertyOp17
 70
     1
102
RTVSPropertyOp18
 70
     1
102
RTVSPropertyOp19
 70
     1
102
RTVSPropertyOp20
 70
     1
102
RTVSPropertyOp21
 70
     1
102
RTVSPropertyOp22
 70
     1
102
RTVSPropertyOp23
 70
     1
102
RTVSPropertyOp24
 70
     1
102
RTVSPropertyOp25
 70
     1
102
RTVSPropertyOp26
 70
     1
102
RTVSPropertyOp27
 70
     1
  0
XRECORD
  5
41E
102
{ACAD_REACTORS
330
41D
102
}
330
41D
100
AcDbXrecord
280
     1
102
RTVSPropertyOp0
 70
     1
102
RTVSPropertyOp1
 70
     1
102
RTVSPropertyOp2
 70
     1
102
RTVSPropertyOp3
 70
     1
102
RTVSPropertyOp4
 70
     1
102
RTVSPropertyOp5
 70
     1
102
RTVSPropertyOp6
 70
     1
102
RTVSPropertyOp7
 70
     1
102
RTVSPropertyOp8
 70
     1
102
RTVSPropertyOp9
 70
     1
102
RTVSPropertyOp10
 70
     1
102
RTVSPropertyOp11
 70
     1
102
RTVSPropertyOp12
 70
     1
102
RTVSPropertyOp13
 70
     1
102
RTVSPropertyOp14
 70
     1
102
RTVSPropertyOp15
 70
     1
102
RTVSPropertyOp16
 70
     1
102
RTVSPropertyOp17
 70
     1
102
RTVSPropertyOp18
 70
     1
102
RTVSPropertyOp19
 70
     1
102
RTVSPropertyOp20
 70
     1
102
RTVSPropertyOp21
 70
     1
102
RTVSPropertyOp22
 70
     1
102
RTVSPropertyOp23
 70
     1
102
RTVSPropertyOp24
 70
     1
102
RTVSPropertyOp25
 70
     1
102
RTVSPropertyOp26
 70
     1
102
RTVSPropertyOp27
 70
     1
  0
XRECORD
  5
420
102
{ACAD_REACTORS
330
41F
102
}
330
41F
100
AcDbXrecord
280
     1
102
RTVSPropertyOp0
 70
     1
102
RTVSPropertyOp1
 70
     1
102
RTVSPropertyOp2
 70
     1
102
RTVSPropertyOp3
 70
     1
102
RTVSPropertyOp4
 70
     1
102
RTVSPropertyOp5
 70
     1
102
RTVSPropertyOp6
 70
     1
102
RTVSPropertyOp7
 70
     1
102
RTVSPropertyOp8
 70
     1
102
RTVSPropertyOp9
 70
     1
102
RTVSPropertyOp10
 70
     1
102
RTVSPropertyOp11
 70
     1
102
RTVSPropertyOp12
 70
     1
102
RTVSPropertyOp13
 70
     1
102
RTVSPropertyOp14
 70
     1
102
RTVSPropertyOp15
 70
     1
102
RTVSPropertyOp16
 70
     1
102
RTVSPropertyOp17
 70
     1
102
RTVSPropertyOp18
 70
     1
102
RTVSPropertyOp19
 70
     1
102
RTVSPropertyOp20
 70
     1
102
RTVSPropertyOp21
 70
     1
102
RTVSPropertyOp22
 70
     1
102
RTVSPropertyOp23
 70
     1
102
RTVSPropertyOp24
 70
     1
102
RTVSPropertyOp25
 70
     1
102
RTVSPropertyOp26
 70
     1
102
RTVSPropertyOp27
 70
     1
  0
XRECORD
  5
43A
102
{ACAD_REACTORS
330
439
102
}
330
439
100
AcDbXrecord
280
     1
102
RTVSPropertyOp0
 70
     0
102
RTVSPropertyOp1
 70
     0
102
RTVSPropertyOp2
 70
     0
102
RTVSPropertyOp3
 70
     0
102
RTVSPropertyOp4
 70
     0
102
RTVSPropertyOp5
 70
     0
102
RTVSPropertyOp6
 70
     0
102
RTVSPropertyOp7
 70
     0
102
RTVSPropertyOp8
 70
     0
102
RTVSPropertyOp9
 70
     0
102
RTVSPropertyOp10
 70
     0
102
RTVSPropertyOp11
 70
     0
102
RTVSPropertyOp12
 70
     0
102
RTVSPropertyOp13
 70
     0
102
RTVSPropertyOp14
 70
     2
102
RTVSPropertyOp15
 70
     0
102
RTVSPropertyOp16
 70
     0
102
RTVSPropertyOp17
 70
     0
102
RTVSPropertyOp18
 70
     0
102
RTVSPropertyOp19
 70
     0
102
RTVSPropertyOp20
 70
     0
102
RTVSPropertyOp21
 70
     0
102
RTVSPropertyOp22
 70
     0
102
RTVSPropertyOp23
 70
     0
102
RTVSPropertyOp24
 70
     0
102
RTVSPropertyOp25
 70
     0
102
RTVSPropertyOp26
 70
     0
102
RTVSPropertyOp27
 70
     0
  0
XRECORD
  5
434
102
{ACAD_REACTORS
330
433
102
}
330
433
100
AcDbXrecord
280
     1
102
RTVSPropertyOp0
 70
     1
102
RTVSPropertyOp1
 70
     1
102
RTVSPropertyOp2
 70
     1
102
RTVSPropertyOp3
 70
     1
102
RTVSPropertyOp4
 70
     1
102
RTVSPropertyOp5
 70
     1
102
RTVSPropertyOp6
 70
     1
102
RTVSPropertyOp7
 70
     1
102
RTVSPropertyOp8
 70
     1
102
RTVSPropertyOp9
 70
     1
102
RTVSPropertyOp10
 70
     1
102
RTVSPropertyOp11
 70
     1
102
RTVSPropertyOp12
 70
     1
102
RTVSPropertyOp13
 70
     1
102
RTVSPropertyOp14
 70
     1
102
RTVSPropertyOp15
 70
     1
102
RTVSPropertyOp16
 70
     1
102
RTVSPropertyOp17
 70
     1
102
RTVSPropertyOp18
 70
     1
102
RTVSPropertyOp19
 70
     1
102
RTVSPropertyOp20
 70
     1
102
RTVSPropertyOp21
 70
     1
102
RTVSPropertyOp22
 70
     1
102
RTVSPropertyOp23
 70
     1
102
RTVSPropertyOp24
 70
     1
102
RTVSPropertyOp25
 70
     1
102
RTVSPropertyOp26
 70
     1
102
RTVSPropertyOp27
 70
     1
  0
XRECORD
  5
43C
102
{ACAD_REACTORS
330
43B
102
}
330
43B
100
AcDbXrecord
280
     1
102
RTVSPropertyOp0
 70
     0
102
RTVSPropertyOp1
 70
     0
102
RTVSPropertyOp2
 70
     0
102
RTVSPropertyOp3
 70
     0
102
RTVSPropertyOp4
 70
     0
102
RTVSPropertyOp5
 70
     0
102
RTVSPropertyOp6
 70
     0
102
RTVSPropertyOp7
 70
     0
102
RTVSPropertyOp8
 70
     0
102
RTVSPropertyOp9
 70
     0
102
RTVSPropertyOp10
 70
     0
102
RTVSPropertyOp11
 70
     0
102
RTVSPropertyOp12
 70
     0
102
RTVSPropertyOp13
 70
     0
102
RTVSPropertyOp14
 70
     2
102
RTVSPropertyOp15
 70
     0
102
RTVSPropertyOp16
 70
     0
102
RTVSPropertyOp17
 70
     0
102
RTVSPropertyOp18
 70
     0
102
RTVSPropertyOp19
 70
     0
102
RTVSPropertyOp20
 70
     0
102
RTVSPropertyOp21
 70
     0
102
RTVSPropertyOp22
 70
     0
102
RTVSPropertyOp23
 70
     0
102
RTVSPropertyOp24
 70
     0
102
RTVSPropertyOp25
 70
     0
102
RTVSPropertyOp26
 70
     0
102
RTVSPropertyOp27
 70
     0
  0
XRECORD
  5
42C
102
{ACAD_REACTORS
330
42B
102
}
330
42B
100
AcDbXrecord
280
     1
102
RTVSPropertyOp0
 70
     1
102
RTVSPropertyOp1
 70
     1
102
RTVSPropertyOp2
 70
     1
102
RTVSPropertyOp3
 70
     1
102
RTVSPropertyOp4
 70
     1
102
RTVSPropertyOp5
 70
     1
102
RTVSPropertyOp6
 70
     1
102
RTVSPropertyOp7
 70
     1
102
RTVSPropertyOp8
 70
     1
102
RTVSPropertyOp9
 70
     1
102
RTVSPropertyOp10
 70
     1
102
RTVSPropertyOp11
 70
     1
102
RTVSPropertyOp12
 70
     1
102
RTVSPropertyOp13
 70
     1
102
RTVSPropertyOp14
 70
     1
102
RTVSPropertyOp15
 70
     1
102
RTVSPropertyOp16
 70
     1
102
RTVSPropertyOp17
 70
     1
102
RTVSPropertyOp18
 70
     1
102
RTVSPropertyOp19
 70
     1
102
RTVSPropertyOp20
 70
     1
102
RTVSPropertyOp21
 70
     1
102
RTVSPropertyOp22
 70
     1
102
RTVSPropertyOp23
 70
     1
102
RTVSPropertyOp24
 70
     1
102
RTVSPropertyOp25
 70
     1
102
RTVSPropertyOp26
 70
     1
102
RTVSPropertyOp27
 70
     1
  0
XRECORD
  5
432
102
{ACAD_REACTORS
330
431
102
}
330
431
100
AcDbXrecord
280
     1
102
RTVSPropertyOp0
 70
     1
102
RTVSPropertyOp1
 70
     1
102
RTVSPropertyOp2
 70
     1
102
RTVSPropertyOp3
 70
     1
102
RTVSPropertyOp4
 70
     1
102
RTVSPropertyOp5
 70
     1
102
RTVSPropertyOp6
 70
     1
102
RTVSPropertyOp7
 70
     1
102
RTVSPropertyOp8
 70
     1
102
RTVSPropertyOp9
 70
     1
102
RTVSPropertyOp10
 70
     1
102
RTVSPropertyOp11
 70
     1
102
RTVSPropertyOp12
 70
     1
102
RTVSPropertyOp13
 70
     1
102
RTVSPropertyOp14
 70
     1
102
RTVSPropertyOp15
 70
     1
102
RTVSPropertyOp16
 70
     1
102
RTVSPropertyOp17
 70
     1
102
RTVSPropertyOp18
 70
     1
102
RTVSPropertyOp19
 70
     1
102
RTVSPropertyOp20
 70
     1
102
RTVSPropertyOp21
 70
     1
102
RTVSPropertyOp22
 70
     1
102
RTVSPropertyOp23
 70
     1
102
RTVSPropertyOp24
 70
     1
102
RTVSPropertyOp25
 70
     1
102
RTVSPropertyOp26
 70
     1
102
RTVSPropertyOp27
 70
     1
  0
ENDSEC
  0
EOF
